  0
SECTION
  2
HEADER
  9
$ACADVER
  1
AC1015
  9
$ACADMAINTVER
 70
    20
  9
$DWGCODEPAGE
  3
ANSI_1252
  9
$INSBASE
 10
0.0
 20
0.0
 30
0.0
  9
$EXTMIN
 10
27.24968125616272
 20
25.93135126669483
 30
-0.0000000000000153
  9
$EXTMAX
 10
82.7260329637941
 20
72.75832221050649
 30
0.0000000000000153
  9
$LIMMIN
 10
0.0
 20
0.0
  9
$LIMMAX
 10
34.0
 20
22.0
  9
$ORTHOMODE
 70
     0
  9
$REGENMODE
 70
     1
  9
$FILLMODE
 70
     1
  9
$QTEXTMODE
 70
     0
  9
$MIRRTEXT
 70
     1
  9
$LTSCALE
 40
1.0
  9
$ATTMODE
 70
     1
  9
$TEXTSIZE
 40
0.2
  9
$TRACEWID
 40
0.05
  9
$TEXTSTYLE
  7
Standard
  9
$CLAYER
  8
0
  9
$CELTYPE
  6
ByLayer
  9
$CECOLOR
 62
   256
  9
$CELTSCALE
 40
1.0
  9
$DISPSILH
 70
     0
  9
$DIMSCALE
 40
4.0
  9
$DIMASZ
 40
0.18
  9
$DIMEXO
 40
0.09
  9
$DIMDLI
 40
0.38
  9
$DIMRND
 40
0.0
  9
$DIMDLE
 40
0.0
  9
$DIMEXE
 40
0.09
  9
$DIMTP
 40
0.0
  9
$DIMTM
 40
0.0
  9
$DIMTXT
 40
0.125
  9
$DIMCEN
 40
0.05
  9
$DIMTSZ
 40
0.0
  9
$DIMTOL
 70
     0
  9
$DIMLIM
 70
     0
  9
$DIMTIH
 70
     1
  9
$DIMTOH
 70
     1
  9
$DIMSE1
 70
     0
  9
$DIMSE2
 70
     0
  9
$DIMTAD
 70
     0
  9
$DIMZIN
 70
     1
  9
$DIMBLK
  1

  9
$DIMASO
 70
     1
  9
$DIMSHO
 70
     1
  9
$DIMPOST
  1
"\X
  9
$DIMAPOST
  1
mm
  9
$DIMALT
 70
     1
  9
$DIMALTD
 70
     2
  9
$DIMALTF
 40
25.4
  9
$DIMLFAC
 40
1.0
  9
$DIMTOFL
 70
     0
  9
$DIMTVP
 40
0.0
  9
$DIMTIX
 70
     0
  9
$DIMSOXD
 70
     0
  9
$DIMSAH
 70
     0
  9
$DIMBLK1
  1

  9
$DIMBLK2
  1

  9
$DIMSTYLE
  2
Standard
  9
$DIMCLRD
 70
     0
  9
$DIMCLRE
 70
     0
  9
$DIMCLRT
 70
     0
  9
$DIMTFAC
 40
1.0
  9
$DIMGAP
 40
0.06
  9
$DIMJUST
 70
     0
  9
$DIMSD1
 70
     0
  9
$DIMSD2
 70
     0
  9
$DIMTOLJ
 70
     1
  9
$DIMTZIN
 70
     1
  9
$DIMALTZ
 70
     0
  9
$DIMALTTZ
 70
     0
  9
$DIMUPT
 70
     0
  9
$DIMDEC
 70
     4
  9
$DIMTDEC
 70
     4
  9
$DIMALTU
 70
     2
  9
$DIMALTTD
 70
     2
  9
$DIMTXSTY
  7
Standard
  9
$DIMAUNIT
 70
     0
  9
$DIMADEC
 70
     0
  9
$DIMALTRND
 40
0.0
  9
$DIMAZIN
 70
     0
  9
$DIMDSEP
 70
    46
  9
$DIMATFIT
 70
     3
  9
$DIMFRAC
 70
     2
  9
$DIMLDRBLK
  1

  9
$DIMLUNIT
 70
     5
  9
$DIMLWD
 70
    -2
  9
$DIMLWE
 70
    -2
  9
$DIMTMOVE
 70
     0
  9
$LUNITS
 70
     2
  9
$LUPREC
 70
     2
  9
$SKETCHINC
 40
0.1
  9
$FILLETRAD
 40
0.0
  9
$AUNITS
 70
     0
  9
$AUPREC
 70
     0
  9
$MENU
  1
.
  9
$ELEVATION
 40
0.0
  9
$PELEVATION
 40
0.0
  9
$THICKNESS
 40
0.0
  9
$LIMCHECK
 70
     0
  9
$CHAMFERA
 40
0.5
  9
$CHAMFERB
 40
0.5
  9
$CHAMFERC
 40
1.0
  9
$CHAMFERD
 40
0.0
  9
$SKPOLY
 70
     0
  9
$TDCREATE
 40
2455139.891245348
  9
$TDUCREATE
 40
2455140.224578681
  9
$TDUPDATE
 40
2455146.602464687
  9
$TDUUPDATE
 40
2455146.935798021
  9
$TDINDWG
 40
0.2977261343
  9
$TDUSRTIMER
 40
0.2977261343
  9
$USRTIMER
 70
     1
  9
$ANGBASE
 50
0.0
  9
$ANGDIR
 70
     0
  9
$PDMODE
 70
     0
  9
$PDSIZE
 40
-1.0
  9
$PLINEWID
 40
0.0
  9
$SPLFRAME
 70
     0
  9
$SPLINETYPE
 70
     6
  9
$SPLINESEGS
 70
     8
  9
$HANDSEED
  5
6CB9
  9
$SURFTAB1
 70
     6
  9
$SURFTAB2
 70
     6
  9
$SURFTYPE
 70
     6
  9
$SURFU
 70
     6
  9
$SURFV
 70
     6
  9
$UCSBASE
  2

  9
$UCSNAME
  2

  9
$UCSORG
 10
0.0
 20
0.0
 30
0.0
  9
$UCSXDIR
 10
1.0
 20
0.0
 30
0.0
  9
$UCSYDIR
 10
0.0
 20
1.0
 30
0.0
  9
$UCSORTHOREF
  2

  9
$UCSORTHOVIEW
 70
     0
  9
$UCSORGTOP
 10
0.0
 20
0.0
 30
0.0
  9
$UCSORGBOTTOM
 10
0.0
 20
0.0
 30
0.0
  9
$UCSORGLEFT
 10
0.0
 20
0.0
 30
0.0
  9
$UCSORGRIGHT
 10
0.0
 20
0.0
 30
0.0
  9
$UCSORGFRONT
 10
0.0
 20
0.0
 30
0.0
  9
$UCSORGBACK
 10
0.0
 20
0.0
 30
0.0
  9
$PUCSBASE
  2

  9
$PUCSNAME
  2

  9
$PUCSORG
 10
0.0
 20
0.0
 30
0.0
  9
$PUCSXDIR
 10
1.0
 20
0.0
 30
0.0
  9
$PUCSYDIR
 10
0.0
 20
1.0
 30
0.0
  9
$PUCSORTHOREF
  2

  9
$PUCSORTHOVIEW
 70
     0
  9
$PUCSORGTOP
 10
0.0
 20
0.0
 30
0.0
  9
$PUCSORGBOTTOM
 10
0.0
 20
0.0
 30
0.0
  9
$PUCSORGLEFT
 10
0.0
 20
0.0
 30
0.0
  9
$PUCSORGRIGHT
 10
0.0
 20
0.0
 30
0.0
  9
$PUCSORGFRONT
 10
0.0
 20
0.0
 30
0.0
  9
$PUCSORGBACK
 10
0.0
 20
0.0
 30
0.0
  9
$USERI1
 70
     0
  9
$USERI2
 70
     0
  9
$USERI3
 70
     0
  9
$USERI4
 70
     0
  9
$USERI5
 70
     0
  9
$USERR1
 40
0.0
  9
$USERR2
 40
0.0
  9
$USERR3
 40
0.0
  9
$USERR4
 40
0.0
  9
$USERR5
 40
0.0
  9
$WORLDVIEW
 70
     1
  9
$SHADEDGE
 70
     3
  9
$SHADEDIF
 70
    70
  9
$TILEMODE
 70
     1
  9
$MAXACTVP
 70
    48
  9
$PINSBASE
 10
0.0
 20
0.0
 30
0.0
  9
$PLIMCHECK
 70
     0
  9
$PEXTMIN
 10
1.000000000000000E+20
 20
1.000000000000000E+20
 30
1.000000000000000E+20
  9
$PEXTMAX
 10
-1.000000000000000E+20
 20
-1.000000000000000E+20
 30
-1.000000000000000E+20
  9
$PLIMMIN
 10
0.0
 20
0.0
  9
$PLIMMAX
 10
12.0
 20
9.0
  9
$UNITMODE
 70
     0
  9
$VISRETAIN
 70
     1
  9
$PLINEGEN
 70
     0
  9
$PSLTSCALE
 70
     1
  9
$TREEDEPTH
 70
  3020
  9
$CMLSTYLE
  2
Standard
  9
$CMLJUST
 70
     0
  9
$CMLSCALE
 40
1.0
  9
$PROXYGRAPHICS
 70
     1
  9
$MEASUREMENT
 70
     0
  9
$CELWEIGHT
370
    -1
  9
$ENDCAPS
280
     0
  9
$JOINSTYLE
280
     0
  9
$LWDISPLAY
290
     1
  9
$INSUNITS
 70
     1
  9
$HYPERLINKBASE
  1

  9
$STYLESHEET
  1

  9
$XEDIT
290
     1
  9
$CEPSNTYPE
380
     0
  9
$PSTYLEMODE
290
     1
  9
$FINGERPRINTGUID
  2
{8FEC5618-D541-4B7B-8EB2-666165DCC544}
  9
$VERSIONGUID
  2
{80D592C2-3856-4E21-9502-C2716DE12B00}
  9
$EXTNAMES
290
     1
  9
$PSVPSCALE
 40
0.0
  9
$OLESTARTUP
290
     0
  0
ENDSEC
  0
SECTION
  2
CLASSES
  0
CLASS
  1
ACDBDICTIONARYWDFLT
  2
AcDbDictionaryWithDefault
  3
ObjectDBX Classes
 90
        0
280
     0
281
     0
  0
CLASS
  1
VISUALSTYLE
  2
AcDbVisualStyle
  3
ObjectDBX Classes
 90
     4095
280
     0
281
     0
  0
CLASS
  1
SCALE
  2
AcDbScale
  3
ObjectDBX Classes
 90
     1153
280
     0
281
     0
  0
CLASS
  1
DICTIONARYVAR
  2
AcDbDictionaryVar
  3
ObjectDBX Classes
 90
        0
280
     0
281
     0
  0
CLASS
  1
XRECORD
  2
AcDbXrecord
  3
ObjectDBX Classes
 90
        0
280
     0
281
     0
  0
CLASS
  1
LWPOLYLINE
  2
AcDbPolyline
  3
ObjectDBX Classes
 90
        0
280
     0
281
     1
  0
CLASS
  1
HATCH
  2
AcDbHatch
  3
ObjectDBX Classes
 90
        0
280
     0
281
     1
  0
CLASS
  1
ACDBPLACEHOLDER
  2
AcDbPlaceHolder
  3
ObjectDBX Classes
 90
        0
280
     0
281
     0
  0
CLASS
  1
LAYOUT
  2
AcDbLayout
  3
ObjectDBX Classes
 90
        0
280
     0
281
     0
  0
CLASS
  1
MATERIAL
  2
AcDbMaterial
  3
ObjectDBX Classes
 90
     1153
280
     0
281
     0
  0
CLASS
  1
TABLESTYLE
  2
AcDbTableStyle
  3
ObjectDBX Classes
 90
     4095
280
     0
281
     0
  0
CLASS
  1
SORTENTSTABLE
  2
AcDbSortentsTable
  3
ObjectDBX Classes
 90
        0
280
     0
281
     0
  0
ENDSEC
  0
SECTION
  2
TABLES
  0
TABLE
  2
VPORT
  5
8
102
{ACAD_XDICTIONARY
360
4326
102
}
330
0
100
AcDbSymbolTable
 70
     1
  0
VPORT
  5
29
330
8
100
AcDbSymbolTableRecord
100
AcDbViewportTableRecord
  2
*Active
 70
     0
 10
0.0
 20
0.0
 11
1.0
 21
1.0
 12
53.03610266292302
 22
47.94499261867144
 13
0.0
 23
0.0
 14
0.5
 24
0.5
 15
0.5
 25
0.5
 16
0.0
 26
0.0
 36
1.0
 17
0.0
 27
0.0
 37
0.0
 40
51.19023889253115
 41
1.62849533954727
 42
50.0
 43
0.0
 44
0.0
 50
0.0
 51
0.0
 71
     0
 72
  2000
 73
     1
 74
     2
 75
     0
 76
     0
 77
     0
 78
     0
281
     0
 65
     1
110
0.0
120
0.0
130
0.0
111
1.0
121
0.0
131
0.0
112
0.0
122
1.0
132
0.0
 79
     0
146
0.0
  0
ENDTAB
  0
TABLE
  2
LTYPE
  5
5
330
0
100
AcDbSymbolTable
 70
    46
  0
LTYPE
  5
14
330
5
100
AcDbSymbolTableRecord
100
AcDbLinetypeTableRecord
  2
ByBlock
 70
     0
  3

 72
    65
 73
     0
 40
0.0
  0
LTYPE
  5
15
330
5
100
AcDbSymbolTableRecord
100
AcDbLinetypeTableRecord
  2
ByLayer
 70
     0
  3

 72
    65
 73
     0
 40
0.0
  0
LTYPE
  5
16
330
5
100
AcDbSymbolTableRecord
100
AcDbLinetypeTableRecord
  2
Continuous
 70
     0
  3
Solid line
 72
    65
 73
     0
 40
0.0
  0
LTYPE
  5
5D
330
5
100
AcDbSymbolTableRecord
100
AcDbLinetypeTableRecord
  2
HIDDEN
 70
     0
  3
Hidden __ __ __ __ __ __ __ __ __ __ __ __ __ __
 72
    65
 73
     2
 40
0.375
 49
0.25
 74
     0
 49
-0.125
 74
     0
  0
LTYPE
  5
5E
330
5
100
AcDbSymbolTableRecord
100
AcDbLinetypeTableRecord
  2
PHANTOM
 70
     0
  3
Phantom ______  __  __  ______  __  __  ______
 72
    65
 73
     6
 40
2.5
 49
1.25
 74
     0
 49
-0.25
 74
     0
 49
0.25
 74
     0
 49
-0.25
 74
     0
 49
0.25
 74
     0
 49
-0.25
 74
     0
  0
LTYPE
  5
5F
330
5
100
AcDbSymbolTableRecord
100
AcDbLinetypeTableRecord
  2
CENTER
 70
     0
  3
Center ____ _ ____ _ ____ _ ____ _ ____ _ ____
 72
    65
 73
     4
 40
2.0
 49
1.25
 74
     0
 49
-0.25
 74
     0
 49
0.25
 74
     0
 49
-0.25
 74
     0
  0
LTYPE
  5
60
330
5
100
AcDbSymbolTableRecord
100
AcDbLinetypeTableRecord
  2
CENTERX2
 70
     0
  3
Center (2x) ________  __  ________  __  _____
 72
    65
 73
     4
 40
4.0
 49
2.5
 74
     0
 49
-0.5
 74
     0
 49
0.5
 74
     0
 49
-0.5
 74
     0
  0
LTYPE
  5
61
330
5
100
AcDbSymbolTableRecord
100
AcDbLinetypeTableRecord
  2
DOT2
 70
     0
  3
Dot (.5x) ........................................
 72
    65
 73
     2
 40
0.125
 49
0.0
 74
     0
 49
-0.125
 74
     0
  0
LTYPE
  5
678
330
5
100
AcDbSymbolTableRecord
100
AcDbLinetypeTableRecord
  2
HIDDENX2
 70
     0
  3
Hidden (2x) ____ ____ ____ ____ ____ ____ ____
 72
    65
 73
     2
 40
0.75
 49
0.5
 74
     0
 49
-0.25
 74
     0
  0
LTYPE
  5
679
330
5
100
AcDbSymbolTableRecord
100
AcDbLinetypeTableRecord
  2
PHANTOMX2
 70
     0
  3
Phantom (2x) ____________    ____    ____   _
 72
    65
 73
     6
 40
5.0
 49
2.5
 74
     0
 49
-0.5
 74
     0
 49
0.5
 74
     0
 49
-0.5
 74
     0
 49
0.5
 74
     0
 49
-0.5
 74
     0
  0
LTYPE
  5
435D
330
5
100
AcDbSymbolTableRecord
100
AcDbLinetypeTableRecord
  2
ACAD_ISO02W100
 70
     0
  3
ISO dash __ __ __ __ __ __ __ __ __ __ __ __ __
 72
    65
 73
     2
 40
15.0
 49
12.0
 74
     0
 49
-3.0
 74
     0
  0
LTYPE
  5
435E
330
5
100
AcDbSymbolTableRecord
100
AcDbLinetypeTableRecord
  2
ACAD_ISO03W100
 70
     0
  3
ISO dash space __    __    __    __    __    __
 72
    65
 73
     2
 40
30.0
 49
12.0
 74
     0
 49
-18.0
 74
     0
  0
LTYPE
  5
435F
330
5
100
AcDbSymbolTableRecord
100
AcDbLinetypeTableRecord
  2
ACAD_ISO04W100
 70
     0
  3
ISO long-dash dot ____ . ____ . ____ . ____ . _
 72
    65
 73
     4
 40
30.0
 49
24.0
 74
     0
 49
-3.0
 74
     0
 49
0.0
 74
     0
 49
-3.0
 74
     0
  0
LTYPE
  5
4360
330
5
100
AcDbSymbolTableRecord
100
AcDbLinetypeTableRecord
  2
ACAD_ISO05W100
 70
     0
  3
ISO long-dash double-dot ____ .. ____ .. ____ .
 72
    65
 73
     6
 40
33.0
 49
24.0
 74
     0
 49
-3.0
 74
     0
 49
0.0
 74
     0
 49
-3.0
 74
     0
 49
0.0
 74
     0
 49
-3.0
 74
     0
  0
LTYPE
  5
4361
330
5
100
AcDbSymbolTableRecord
100
AcDbLinetypeTableRecord
  2
ACAD_ISO06W100
 70
     0
  3
ISO long-dash triple-dot ____ ... ____ ... ____
 72
    65
 73
     8
 40
36.0
 49
24.0
 74
     0
 49
-3.0
 74
     0
 49
0.0
 74
     0
 49
-3.0
 74
     0
 49
0.0
 74
     0
 49
-3.0
 74
     0
 49
0.0
 74
     0
 49
-3.0
 74
     0
  0
LTYPE
  5
4362
330
5
100
AcDbSymbolTableRecord
100
AcDbLinetypeTableRecord
  2
ACAD_ISO07W100
 70
     0
  3
ISO dot . . . . . . . . . . . . . . . . . . . .
 72
    65
 73
     2
 40
3.0
 49
0.0
 74
     0
 49
-3.0
 74
     0
  0
LTYPE
  5
4363
330
5
100
AcDbSymbolTableRecord
100
AcDbLinetypeTableRecord
  2
ACAD_ISO08W100
 70
     0
  3
ISO long-dash short-dash ____ __ ____ __ ____ _
 72
    65
 73
     4
 40
36.0
 49
24.0
 74
     0
 49
-3.0
 74
     0
 49
6.0
 74
     0
 49
-3.0
 74
     0
  0
LTYPE
  5
4364
330
5
100
AcDbSymbolTableRecord
100
AcDbLinetypeTableRecord
  2
ACAD_ISO09W100
 70
     0
  3
ISO long-dash double-short-dash ____ __ __ ____
 72
    65
 73
     6
 40
45.0
 49
24.0
 74
     0
 49
-3.0
 74
     0
 49
6.0
 74
     0
 49
-3.0
 74
     0
 49
6.0
 74
     0
 49
-3.0
 74
     0
  0
LTYPE
  5
4365
330
5
100
AcDbSymbolTableRecord
100
AcDbLinetypeTableRecord
  2
ACAD_ISO10W100
 70
     0
  3
ISO dash dot __ . __ . __ . __ . __ . __ . __ .
 72
    65
 73
     4
 40
18.0
 49
12.0
 74
     0
 49
-3.0
 74
     0
 49
0.0
 74
     0
 49
-3.0
 74
     0
  0
LTYPE
  5
4366
330
5
100
AcDbSymbolTableRecord
100
AcDbLinetypeTableRecord
  2
ACAD_ISO11W100
 70
     0
  3
ISO double-dash dot __ __ . __ __ . __ __ . __ _
 72
    65
 73
     6
 40
33.0
 49
12.0
 74
     0
 49
-3.0
 74
     0
 49
12.0
 74
     0
 49
-3.0
 74
     0
 49
0.0
 74
     0
 49
-3.0
 74
     0
  0
LTYPE
  5
4367
330
5
100
AcDbSymbolTableRecord
100
AcDbLinetypeTableRecord
  2
ACAD_ISO12W100
 70
     0
  3
ISO dash double-dot __ . . __ . . __ . . __ . .
 72
    65
 73
     6
 40
21.0
 49
12.0
 74
     0
 49
-3.0
 74
     0
 49
0.0
 74
     0
 49
-3.0
 74
     0
 49
0.0
 74
     0
 49
-3.0
 74
     0
  0
LTYPE
  5
4368
330
5
100
AcDbSymbolTableRecord
100
AcDbLinetypeTableRecord
  2
ACAD_ISO13W100
 70
     0
  3
ISO double-dash double-dot __ __ . . __ __ . . _
 72
    65
 73
     8
 40
36.0
 49
12.0
 74
     0
 49
-3.0
 74
     0
 49
12.0
 74
     0
 49
-3.0
 74
     0
 49
0.0
 74
     0
 49
-3.0
 74
     0
 49
0.0
 74
     0
 49
-3.0
 74
     0
  0
LTYPE
  5
4369
330
5
100
AcDbSymbolTableRecord
100
AcDbLinetypeTableRecord
  2
ACAD_ISO14W100
 70
     0
  3
ISO dash triple-dot __ . . . __ . . . __ . . . _
 72
    65
 73
     8
 40
24.0
 49
12.0
 74
     0
 49
-3.0
 74
     0
 49
0.0
 74
     0
 49
-3.0
 74
     0
 49
0.0
 74
     0
 49
-3.0
 74
     0
 49
0.0
 74
     0
 49
-3.0
 74
     0
  0
LTYPE
  5
436A
330
5
100
AcDbSymbolTableRecord
100
AcDbLinetypeTableRecord
  2
ACAD_ISO15W100
 70
     0
  3
ISO double-dash triple-dot __ __ . . . __ __ . .
 72
    65
 73
    10
 40
39.0
 49
12.0
 74
     0
 49
-3.0
 74
     0
 49
12.0
 74
     0
 49
-3.0
 74
     0
 49
0.0
 74
     0
 49
-3.0
 74
     0
 49
0.0
 74
     0
 49
-3.0
 74
     0
 49
0.0
 74
     0
 49
-3.0
 74
     0
  0
LTYPE
  5
436B
330
5
100
AcDbSymbolTableRecord
100
AcDbLinetypeTableRecord
  2
BATTING
 70
     0
  3
Batting SSSSSSSSSSSSSSSSSSSSSSSSSSSSSSSSSSSSSSSSSSSSSSS
 72
    65
 73
     4
 40
0.4001000000000001
 49
0.0001
 74
     0
 49
-0.1
 74
     4
 75
   134
340
435C
 46
0.1
 50
0.0
 44
-0.1
 45
0.0
 49
-0.2
 74
     4
 75
   134
340
435C
 46
0.1
 50
180.0
 44
0.1
 45
0.0
 49
-0.1
 74
     0
  0
LTYPE
  5
436C
330
5
100
AcDbSymbolTableRecord
100
AcDbLinetypeTableRecord
  2
BORDER
 70
     0
  3
Border __ __ . __ __ . __ __ . __ __ . __ __ .
 72
    65
 73
     6
 40
1.75
 49
0.5
 74
     0
 49
-0.25
 74
     0
 49
0.5
 74
     0
 49
-0.25
 74
     0
 49
0.0
 74
     0
 49
-0.25
 74
     0
  0
LTYPE
  5
436D
330
5
100
AcDbSymbolTableRecord
100
AcDbLinetypeTableRecord
  2
BORDER2
 70
     0
  3
Border (.5x) __.__.__.__.__.__.__.__.__.__.__.
 72
    65
 73
     6
 40
0.875
 49
0.25
 74
     0
 49
-0.125
 74
     0
 49
0.25
 74
     0
 49
-0.125
 74
     0
 49
0.0
 74
     0
 49
-0.125
 74
     0
  0
LTYPE
  5
436E
330
5
100
AcDbSymbolTableRecord
100
AcDbLinetypeTableRecord
  2
BORDERX2
 70
     0
  3
Border (2x) ____  ____  .  ____  ____  .  ___
 72
    65
 73
     6
 40
3.5
 49
1.0
 74
     0
 49
-0.5
 74
     0
 49
1.0
 74
     0
 49
-0.5
 74
     0
 49
0.0
 74
     0
 49
-0.5
 74
     0
  0
LTYPE
  5
436F
330
5
100
AcDbSymbolTableRecord
100
AcDbLinetypeTableRecord
  2
CENTER2
 70
     0
  3
Center (.5x) ___ _ ___ _ ___ _ ___ _ ___ _ ___
 72
    65
 73
     4
 40
1.125
 49
0.75
 74
     0
 49
-0.125
 74
     0
 49
0.125
 74
     0
 49
-0.125
 74
     0
  0
LTYPE
  5
4370
330
5
100
AcDbSymbolTableRecord
100
AcDbLinetypeTableRecord
  2
DASHDOT
 70
     0
  3
Dash dot __ . __ . __ . __ . __ . __ . __ . __
 72
    65
 73
     4
 40
1.0
 49
0.5
 74
     0
 49
-0.25
 74
     0
 49
0.0
 74
     0
 49
-0.25
 74
     0
  0
LTYPE
  5
4371
330
5
100
AcDbSymbolTableRecord
100
AcDbLinetypeTableRecord
  2
DASHDOT2
 70
     0
  3
Dash dot (.5x) _._._._._._._._._._._._._._._.
 72
    65
 73
     4
 40
0.5
 49
0.25
 74
     0
 49
-0.125
 74
     0
 49
0.0
 74
     0
 49
-0.125
 74
     0
  0
LTYPE
  5
4372
330
5
100
AcDbSymbolTableRecord
100
AcDbLinetypeTableRecord
  2
DASHDOTX2
 70
     0
  3
Dash dot (2x) ____  .  ____  .  ____  .  ___
 72
    65
 73
     4
 40
2.0
 49
1.0
 74
     0
 49
-0.5
 74
     0
 49
0.0
 74
     0
 49
-0.5
 74
     0
  0
LTYPE
  5
4373
330
5
100
AcDbSymbolTableRecord
100
AcDbLinetypeTableRecord
  2
DASHED
 70
     0
  3
Dashed __ __ __ __ __ __ __ __ __ __ __ __ __ _
 72
    65
 73
     2
 40
0.75
 49
0.5
 74
     0
 49
-0.25
 74
     0
  0
LTYPE
  5
4374
330
5
100
AcDbSymbolTableRecord
100
AcDbLinetypeTableRecord
  2
DASHED2
 70
     0
  3
Dashed (.5x) _ _ _ _ _ _ _ _ _ _ _ _ _ _ _ _ _
 72
    65
 73
     2
 40
0.375
 49
0.25
 74
     0
 49
-0.125
 74
     0
  0
LTYPE
  5
4375
330
5
100
AcDbSymbolTableRecord
100
AcDbLinetypeTableRecord
  2
DASHEDX2
 70
     0
  3
Dashed (2x) ____  ____  ____  ____  ____  ___
 72
    65
 73
     2
 40
1.5
 49
1.0
 74
     0
 49
-0.5
 74
     0
  0
LTYPE
  5
4376
330
5
100
AcDbSymbolTableRecord
100
AcDbLinetypeTableRecord
  2
DIVIDE
 70
     0
  3
Divide ____ . . ____ . . ____ . . ____ . . ____
 72
    65
 73
     6
 40
1.25
 49
0.5
 74
     0
 49
-0.25
 74
     0
 49
0.0
 74
     0
 49
-0.25
 74
     0
 49
0.0
 74
     0
 49
-0.25
 74
     0
  0
LTYPE
  5
4377
330
5
100
AcDbSymbolTableRecord
100
AcDbLinetypeTableRecord
  2
DIVIDE2
 70
     0
  3
Divide (.5x) __..__..__..__..__..__..__..__.._
 72
    65
 73
     6
 40
0.625
 49
0.25
 74
     0
 49
-0.125
 74
     0
 49
0.0
 74
     0
 49
-0.125
 74
     0
 49
0.0
 74
     0
 49
-0.125
 74
     0
  0
LTYPE
  5
4378
330
5
100
AcDbSymbolTableRecord
100
AcDbLinetypeTableRecord
  2
DIVIDEX2
 70
     0
  3
Divide (2x) ________  .  .  ________  .  .  _
 72
    65
 73
     6
 40
2.5
 49
1.0
 74
     0
 49
-0.5
 74
     0
 49
0.0
 74
     0
 49
-0.5
 74
     0
 49
0.0
 74
     0
 49
-0.5
 74
     0
  0
LTYPE
  5
4379
330
5
100
AcDbSymbolTableRecord
100
AcDbLinetypeTableRecord
  2
DOT
 70
     0
  3
Dot . . . . . . . . . . . . . . . . . . . . . . . .
 72
    65
 73
     2
 40
0.25
 49
0.0
 74
     0
 49
-0.25
 74
     0
  0
LTYPE
  5
437A
330
5
100
AcDbSymbolTableRecord
100
AcDbLinetypeTableRecord
  2
DOTX2
 70
     0
  3
Dot (2x) .  .  .  .  .  .  .  .  .  .  .  .  .  .
 72
    65
 73
     2
 40
0.5
 49
0.0
 74
     0
 49
-0.5
 74
     0
  0
LTYPE
  5
437B
330
5
100
AcDbSymbolTableRecord
100
AcDbLinetypeTableRecord
  2
FENCELINE1
 70
     0
  3
Fenceline circle ----0-----0----0-----0----0-----0--
 72
    65
 73
     4
 40
1.45
 49
0.25
 74
     0
 49
-0.1
 74
     4
 75
   133
340
435C
 46
0.1
 50
0.0
 44
-0.1
 45
0.0
 49
-0.1
 74
     0
 49
1.0
 74
     0
  0
LTYPE
  5
437C
330
5
100
AcDbSymbolTableRecord
100
AcDbLinetypeTableRecord
  2
FENCELINE2
 70
     0
  3
Fenceline square ----[]-----[]----[]-----[]----[]---
 72
    65
 73
     4
 40
1.45
 49
0.25
 74
     0
 49
-0.1
 74
     4
 75
   132
340
435C
 46
0.1
 50
0.0
 44
-0.1
 45
0.0
 49
-0.1
 74
     0
 49
1.0
 74
     0
  0
LTYPE
  5
437D
330
5
100
AcDbSymbolTableRecord
100
AcDbLinetypeTableRecord
  2
GAS_LINE
 70
     0
  3
Gas line ----GAS----GAS----GAS----GAS----GAS----GAS--
 72
    65
 73
     3
 40
0.95
 49
0.5
 74
     0
 49
-0.2
 74
     2
 75
     0
340
11
 46
0.1
 50
0.0
 44
-0.1
 45
-0.05
  9
GAS
 49
-0.25
 74
     0
  0
LTYPE
  5
437E
330
5
100
AcDbSymbolTableRecord
100
AcDbLinetypeTableRecord
  2
HIDDEN2
 70
     0
  3
Hidden (.5x) _ _ _ _ _ _ _ _ _ _ _ _ _ _ _ _ _
 72
    65
 73
     2
 40
0.1875
 49
0.125
 74
     0
 49
-0.0625
 74
     0
  0
LTYPE
  5
437F
330
5
100
AcDbSymbolTableRecord
100
AcDbLinetypeTableRecord
  2
HOT_WATER_SUPPLY
 70
     0
  3
Hot water supply ---- HW ---- HW ---- HW ----
 72
    65
 73
     3
 40
0.9
 49
0.5
 74
     0
 49
-0.2
 74
     2
 75
     0
340
11
 46
0.1
 50
0.0
 44
-0.1
 45
-0.05
  9
HW
 49
-0.2
 74
     0
  0
LTYPE
  5
4380
330
5
100
AcDbSymbolTableRecord
100
AcDbLinetypeTableRecord
  2
PHANTOM2
 70
     0
  3
Phantom (.5x) ___ _ _ ___ _ _ ___ _ _ ___ _ _
 72
    65
 73
     6
 40
1.25
 49
0.625
 74
     0
 49
-0.125
 74
     0
 49
0.125
 74
     0
 49
-0.125
 74
     0
 49
0.125
 74
     0
 49
-0.125
 74
     0
  0
LTYPE
  5
4381
330
5
100
AcDbSymbolTableRecord
100
AcDbLinetypeTableRecord
  2
TRACKS
 70
     0
  3
Tracks -|-|-|-|-|-|-|-|-|-|-|-|-|-|-|-|-|-|-|-|-|-|-|-|-
 72
    65
 73
     2
 40
0.3
 49
0.15
 74
     4
 75
   130
340
435C
 46
0.25
 50
0.0
 44
0.0
 45
0.0
 49
0.15
 74
     0
  0
LTYPE
  5
4382
330
5
100
AcDbSymbolTableRecord
100
AcDbLinetypeTableRecord
  2
ZIGZAG
 70
     0
  3
Zig zag /\/\/\/\/\/\/\/\/\/\/\/\/\/\/\/\/\/\/\/\/\/\/\/
 72
    65
 73
     4
 40
0.8001000000000001
 49
0.0001
 74
     0
 49
-0.2
 74
     4
 75
   131
340
435C
 46
0.2
 50
0.0
 44
-0.2
 45
0.0
 49
-0.4
 74
     4
 75
   131
340
435C
 46
0.2
 50
180.0
 44
0.2
 45
0.0
 49
-0.2
 74
     0
  0
ENDTAB
  0
TABLE
  2
LAYER
  5
2
330
0
100
AcDbSymbolTable
 70
     8
  0
LAYER
  5
10
330
2
100
AcDbSymbolTableRecord
100
AcDbLayerTableRecord
  2
0
 70
     0
 62
     7
  6
Continuous
370
    -3
390
F
  0
LAYER
  5
62
330
2
100
AcDbSymbolTableRecord
100
AcDbLayerTableRecord
  2
FORMAT
 70
     0
 62
     8
  6
Continuous
370
    -3
390
F
  0
LAYER
  5
63
330
2
100
AcDbSymbolTableRecord
100
AcDbLayerTableRecord
  2
TITLE_BLOCK_TEXT
 70
     0
 62
     7
  6
Continuous
370
    -3
390
F
  0
LAYER
  5
64
330
2
100
AcDbSymbolTableRecord
100
AcDbLayerTableRecord
  2
DIMENSIONS
 70
     0
 62
     7
  6
Continuous
370
    -3
390
F
  0
LAYER
  5
65
330
2
100
AcDbSymbolTableRecord
100
AcDbLayerTableRecord
  2
SLD-0
 70
     0
 62
   179
  6
Continuous
370
    -3
390
F
  0
LAYER
  5
67A
330
2
100
AcDbSymbolTableRecord
100
AcDbLayerTableRecord
  2
DEFPOINTS
 70
     0
 62
     7
  6
Continuous
290
     0
370
    -3
390
F
  0
LAYER
  5
67B
330
2
100
AcDbSymbolTableRecord
100
AcDbLayerTableRecord
  2
Object
 70
     0
 62
     4
  6
Continuous
370
    -3
390
F
  0
LAYER
  5
67C
330
2
100
AcDbSymbolTableRecord
100
AcDbLayerTableRecord
  2
Object_Dim
 70
     0
 62
     1
  6
Continuous
370
    -3
390
F
  0
ENDTAB
  0
TABLE
  2
STYLE
  5
3
330
0
100
AcDbSymbolTable
 70
     6
  0
STYLE
  5
11
330
3
100
AcDbSymbolTableRecord
100
AcDbTextStyleTableRecord
  2
Standard
 70
     0
 40
0.0
 41
1.0
 50
0.0
 71
     0
 42
0.2
  3
romans.shx
  4

  0
STYLE
  5
8B
330
3
100
AcDbSymbolTableRecord
100
AcDbTextStyleTableRecord
  2
SLDTEXTSTYLE0
 70
     0
 40
0.0
 41
0.7
 50
0.0
 71
     0
 42
0.2
  3
TXT
  4

  0
STYLE
  5
8D
330
3
100
AcDbSymbolTableRecord
100
AcDbTextStyleTableRecord
  2
SLDTEXTSTYLE1
 70
     0
 40
0.0
 41
0.605
 50
0.0
 71
     0
 42
0.2
  3
TXT
  4

  0
STYLE
  5
93
330
3
100
AcDbSymbolTableRecord
100
AcDbTextStyleTableRecord
  2
SLDTEXTSTYLE2
 70
     0
 40
0.0
 41
0.939148356118414
 50
0.0
 71
     0
 42
0.2
  3
TXT
  4

  0
STYLE
  5
95
330
3
100
AcDbSymbolTableRecord
100
AcDbTextStyleTableRecord
  2
SLDTEXTSTYLE3
 70
     0
 40
0.0
 41
0.6163697320172487
 50
0.0
 71
     0
 42
0.2
  3
TXT
  4

  0
STYLE
  5
435C
330
3
100
AcDbSymbolTableRecord
100
AcDbTextStyleTableRecord
  2

 70
     1
 40
0.0
 41
1.0
 50
0.0
 71
     0
 42
0.125
  3
ltypeshp.shx
  4

  0
ENDTAB
  0
TABLE
  2
VIEW
  5
6
330
0
100
AcDbSymbolTable
 70
     0
  0
ENDTAB
  0
TABLE
  2
UCS
  5
7
330
0
100
AcDbSymbolTable
 70
     0
  0
ENDTAB
  0
TABLE
  2
APPID
  5
9
330
0
100
AcDbSymbolTable
 70
     1
  0
APPID
  5
12
330
9
100
AcDbSymbolTableRecord
100
AcDbRegAppTableRecord
  2
ACAD
 70
     0
  0
ENDTAB
  0
TABLE
  2
DIMSTYLE
  5
A
330
0
100
AcDbSymbolTable
 70
     1
100
AcDbDimStyleTable
 71
     0
  0
DIMSTYLE
105
27
102
{ACAD_REACTORS
330
5D05
330
523D
330
4FDB
330
4F38
330
4712
330
4584
330
444A
330
4B10
330
50FC
330
50CF
330
50ED
330
50DE
102
}
330
A
100
AcDbSymbolTableRecord
100
AcDbDimStyleTableRecord
  2
Standard
 70
     0
340
11
  0
ENDTAB
  0
TABLE
  2
BLOCK_RECORD
  5
1
330
0
100
AcDbSymbolTable
 70
    16
  0
BLOCK_RECORD
  5
1F
102
{ACAD_XDICTIONARY
360
5B7
102
}
330
1
100
AcDbSymbolTableRecord
100
AcDbBlockTableRecord
  2
*Model_Space
340
22
  0
BLOCK_RECORD
  5
1B
102
{ACAD_XDICTIONARY
360
5B5
102
}
330
1
100
AcDbSymbolTableRecord
100
AcDbBlockTableRecord
  2
*Paper_Space
340
1E
  0
BLOCK_RECORD
  5
23
102
{ACAD_XDICTIONARY
360
5B9
102
}
330
1
100
AcDbSymbolTableRecord
100
AcDbBlockTableRecord
  2
*Paper_Space0
340
26
  0
BLOCK_RECORD
  5
66
330
1
100
AcDbSymbolTableRecord
100
AcDbBlockTableRecord
  2
D
340
0
  0
BLOCK_RECORD
  5
97
330
1
100
AcDbSymbolTableRecord
100
AcDbBlockTableRecord
  2
SW_NOTE_0
340
0
102
{BLKREFS
331
9F
102
}
  0
BLOCK_RECORD
  5
A0
330
1
100
AcDbSymbolTableRecord
100
AcDbBlockTableRecord
  2
SW_NOTE_1
340
0
102
{BLKREFS
331
A7
102
}
  0
BLOCK_RECORD
  5
444B
330
1
100
AcDbSymbolTableRecord
100
AcDbBlockTableRecord
  2
*D4
340
0
  0
BLOCK_RECORD
  5
4585
330
1
100
AcDbSymbolTableRecord
100
AcDbBlockTableRecord
  2
*D5
340
0
  0
BLOCK_RECORD
  5
4713
330
1
100
AcDbSymbolTableRecord
100
AcDbBlockTableRecord
  2
*D6
340
0
  0
BLOCK_RECORD
  5
4B11
330
1
100
AcDbSymbolTableRecord
100
AcDbBlockTableRecord
  2
*D7
340
0
  0
BLOCK_RECORD
  5
4F39
330
1
100
AcDbSymbolTableRecord
100
AcDbBlockTableRecord
  2
*D8
340
0
  0
BLOCK_RECORD
  5
4FDC
330
1
100
AcDbSymbolTableRecord
100
AcDbBlockTableRecord
  2
*D9
340
0
  0
BLOCK_RECORD
  5
50D0
330
1
100
AcDbSymbolTableRecord
100
AcDbBlockTableRecord
  2
*D10
340
0
  0
BLOCK_RECORD
  5
50DF
330
1
100
AcDbSymbolTableRecord
100
AcDbBlockTableRecord
  2
*D11
340
0
  0
BLOCK_RECORD
  5
50EE
330
1
100
AcDbSymbolTableRecord
100
AcDbBlockTableRecord
  2
*D12
340
0
  0
BLOCK_RECORD
  5
50FD
330
1
100
AcDbSymbolTableRecord
100
AcDbBlockTableRecord
  2
*D13
340
0
  0
BLOCK_RECORD
  5
523E
330
1
100
AcDbSymbolTableRecord
100
AcDbBlockTableRecord
  2
*D14
340
0
  0
BLOCK_RECORD
  5
5D06
330
1
100
AcDbSymbolTableRecord
100
AcDbBlockTableRecord
  2
*D15
340
0
  0
ENDTAB
  0
ENDSEC
  0
SECTION
  2
BLOCKS
  0
BLOCK
  5
20
330
1F
100
AcDbEntity
  8
0
100
AcDbBlockBegin
  2
*Model_Space
 70
     0
 10
0.0
 20
0.0
 30
0.0
  3
*Model_Space
  1

  0
ENDBLK
  5
21
330
1F
100
AcDbEntity
  8
0
100
AcDbBlockEnd
  0
BLOCK
  5
1C
330
1B
100
AcDbEntity
 67
     1
  8
0
100
AcDbBlockBegin
  2
*Paper_Space
 70
     0
 10
0.0
 20
0.0
 30
0.0
  3
*Paper_Space
  1

  0
ENDBLK
  5
1D
330
1B
100
AcDbEntity
 67
     1
  8
0
100
AcDbBlockEnd
  0
BLOCK
  5
24
330
23
100
AcDbEntity
 67
     1
  8
0
100
AcDbBlockBegin
  2
*Paper_Space0
 70
     0
 10
0.0
 20
0.0
 30
0.0
  3
*Paper_Space0
  1

  0
ENDBLK
  5
25
330
23
100
AcDbEntity
 67
     1
  8
0
100
AcDbBlockEnd
  0
BLOCK
  5
67
330
66
100
AcDbEntity
  8
0
100
AcDbBlockBegin
  2
D
 70
     0
 10
0.0
 20
0.0
 30
0.0
  3
D
  1

  0
CIRCLE
  5
69
330
66
100
AcDbEntity
  8
FORMAT
100
AcDbCircle
 10
31.60339110637787
 20
0.6244098795826005
 30
0.0
 40
0.0174532499999967
  0
CIRCLE
  5
6A
330
66
100
AcDbEntity
  8
FORMAT
100
AcDbCircle
 10
32.43436632794418
 20
0.6273875012279925
 30
0.0
 40
0.0174532499999964
  0
CIRCLE
  5
6B
330
66
100
AcDbEntity
  8
FORMAT
100
AcDbCircle
 10
30.77339110637787
 20
0.6244098795826005
 30
0.0
 40
0.0174532472800571
  0
CIRCLE
  5
6C
330
66
100
AcDbEntity
  8
FORMAT
100
AcDbCircle
 10
30.77339110637787
 20
0.6244098795826005
 30
0.0
 40
0.0174532500000001
  0
LINE
  5
6D
330
66
100
AcDbEntity
  8
FORMAT
  6
Continuous
100
AcDbLine
 10
33.075
 20
21.10500000000001
 30
0.0
 11
0.2000000000000022
 21
21.105
 31
0.0
  0
LINE
  5
6E
330
66
100
AcDbEntity
  8
FORMAT
  6
Continuous
100
AcDbLine
 10
0.2000000000000022
 20
21.105
 30
0.0
 11
0.2000000000000022
 21
0.0000000000000044
 31
0.0
  0
LINE
  5
6F
330
66
100
AcDbEntity
  8
FORMAT
  6
Continuous
100
AcDbLine
 10
28.275
 20
20.23000000000005
 30
0.0
 11
28.275
 21
20.48000000000005
 31
0.0
  0
LINE
  5
70
330
66
100
AcDbEntity
  8
FORMAT
  6
Continuous
100
AcDbLine
 10
28.9
 20
20.23000000000005
 30
0.0
 11
28.9
 21
20.48000000000006
 31
0.0
  0
LINE
  5
71
330
66
100
AcDbEntity
  8
FORMAT
  6
Continuous
100
AcDbLine
 10
33.075
 20
0.0000000000000044
 30
0.0
 11
33.075
 21
21.10500000000001
 31
0.0
  0
LINE
  5
72
330
66
100
AcDbEntity
  8
FORMAT
  6
Continuous
100
AcDbLine
 10
32.02499999999999
 20
20.23000000000005
 30
0.0
 11
32.02499999999999
 21
20.48000000000005
 31
0.0
  0
LINE
  5
73
330
66
100
AcDbEntity
  8
FORMAT
  6
Continuous
100
AcDbLine
 10
32.4625
 20
20.23000000000005
 30
0.0
 11
32.4625
 21
20.48000000000005
 31
0.0
  0
LINE
  5
74
330
66
100
AcDbEntity
  8
FORMAT
  6
Continuous
100
AcDbLine
 10
27.825
 20
20.23000000000005
 30
0.0
 11
33.075
 21
20.23000000000005
 31
0.0
  0
LINE
  5
75
330
66
100
AcDbEntity
  8
FORMAT
  6
Continuous
100
AcDbLine
 10
27.825
 20
20.23000000000005
 30
0.0
 11
27.825
 21
21.10500000000001
 31
0.0
  0
LINE
  5
76
330
66
100
AcDbEntity
  8
FORMAT
  6
Continuous
100
AcDbLine
 10
33.075
 20
0.0000000000000044
 30
0.0
 11
0.2000000000000022
 21
0.0000000000000044
 31
0.0
  0
LINE
  5
77
330
66
100
AcDbEntity
  8
FORMAT
  6
Continuous
100
AcDbLine
 10
25.8875
 20
0.0000000000000076
 30
0.0
 11
25.8875
 21
1.500000000000005
 31
0.0
  0
LINE
  5
78
330
66
100
AcDbEntity
  8
FORMAT
  6
Continuous
100
AcDbLine
 10
30.075
 20
0.5000000000000072
 30
0.0
 11
33.075
 21
0.5000000000000072
 31
0.0
  0
LINE
  5
79
330
66
100
AcDbEntity
  8
FORMAT
  6
Continuous
100
AcDbLine
 10
22.7625
 20
1.125000000000005
 30
0.0
 11
30.075
 21
1.125000000000005
 31
0.0
  0
LINE
  5
7A
330
66
100
AcDbEntity
  8
FORMAT
  6
Continuous
100
AcDbLine
 10
22.7625
 20
0.0000000000000076
 30
0.0
 11
22.7625
 21
1.500000000000005
 31
0.0
  0
LINE
  5
7B
330
66
100
AcDbEntity
  8
FORMAT
  6
Continuous
100
AcDbLine
 10
28.725
 20
0.9062000000000079
 30
0.0
 11
28.725
 21
1.500000000000005
 31
0.0
  0
LINE
  5
7C
330
66
100
AcDbEntity
  8
FORMAT
  6
Continuous
100
AcDbLine
 10
25.10385570751344
 20
0.0529622366790725
 30
0.0
 11
25.10385570751344
 21
0.887531843849992
 31
0.0
  0
LINE
  5
7D
330
66
100
AcDbEntity
  8
FORMAT
  6
Continuous
100
AcDbLine
 10
22.7625
 20
1.500000000000005
 30
0.0
 11
33.075
 21
1.500000000000005
 31
0.0
  0
LINE
  5
7E
330
66
100
AcDbEntity
  8
FORMAT
  6
Continuous
100
AcDbLine
 10
25.8875
 20
0.9062000000000079
 30
0.0
 11
30.075
 21
0.9062000000000079
 31
0.0
  0
LINE
  5
7F
330
66
100
AcDbEntity
  8
FORMAT
  6
Continuous
100
AcDbLine
 10
27.325
 20
0.9062000000000079
 30
0.0
 11
27.325
 21
1.500000000000005
 31
0.0
  0
LINE
  5
80
330
66
100
AcDbEntity
  8
FORMAT
  6
Continuous
100
AcDbLine
 10
27.325
 20
1.312500000000005
 30
0.0
 11
30.075
 21
1.312500000000005
 31
0.0
  0
LINE
  5
81
330
66
100
AcDbEntity
  8
FORMAT
  6
Continuous
100
AcDbLine
 10
30.075
 20
0.0000000000000055
 30
0.0
 11
30.075
 21
1.500000000000003
 31
0.0
  0
LINE
  5
82
330
66
100
AcDbEntity
  8
FORMAT
  6
Continuous
100
AcDbLine
 10
33.075
 20
7.550000000000004
 30
0.0
 11
32.575
 21
7.550000000000004
 31
0.0
  0
LINE
  5
83
330
66
100
AcDbEntity
  8
FORMAT
  6
Continuous
100
AcDbLine
 10
33.075
 20
9.550000000000009
 30
0.0
 11
32.575
 21
9.550000000000009
 31
0.0
  0
LINE
  5
84
330
66
100
AcDbEntity
  8
FORMAT
  6
Continuous
100
AcDbLine
 10
33.075
 20
10.0
 30
0.0
 11
32.625
 21
10.0
 31
0.0
  0
LINE
  5
85
330
66
100
AcDbEntity
  8
FORMAT
  6
Continuous
100
AcDbLine
 10
32.575
 20
7.550000000000004
 30
0.0
 11
32.575
 21
9.550000000000009
 31
0.0
  0
LINE
  5
86
330
66
100
AcDbEntity
  8
FORMAT
  6
Continuous
100
AcDbLine
 10
32.625
 20
9.550000000000009
 30
0.0
 11
32.625
 21
10.0
 31
0.0
  0
LINE
  5
87
330
66
100
AcDbEntity
  8
FORMAT
  6
Continuous
100
AcDbLine
 10
27.825
 20
20.48000000000005
 30
0.0
 11
33.075
 21
20.48000000000005
 31
0.0
  0
HATCH
  5
88
330
66
100
AcDbEntity
  8
FORMAT
  6
Continuous
100
AcDbHatch
 10
0.0
 20
0.0
 30
0.0
210
0.0
220
0.0
230
1.0
  2
SOLID
 70
     1
 71
     0
 91
        1
 92
        0
 93
        1
 72
     2
 10
30.77339110637787
 20
0.6244098795826005
 40
0.0174532472800566
 50
0.0
 51
360.0
 73
     1
 97
        0
 75
     0
 76
     1
 98
        1
 10
0.0
 20
0.0
  0
HATCH
  5
89
330
66
100
AcDbEntity
  8
FORMAT
  6
Continuous
100
AcDbHatch
 10
0.0
 20
0.0
 30
0.0
210
0.0
220
0.0
230
1.0
  2
SOLID
 70
     1
 71
     0
 91
        1
 92
        0
 93
        1
 72
     2
 10
31.60339110637787
 20
0.6244098795826005
 40
0.0174532499999962
 50
0.0
 51
360.0
 73
     1
 97
        0
 75
     0
 76
     1
 98
        1
 10
0.0
 20
0.0
  0
HATCH
  5
8A
330
66
100
AcDbEntity
  8
FORMAT
  6
Continuous
100
AcDbHatch
 10
0.0
 20
0.0
 30
0.0
210
0.0
220
0.0
230
1.0
  2
SOLID
 70
     1
 71
     0
 91
        1
 92
        0
 93
        1
 72
     2
 10
32.43436632794418
 20
0.6273875012279925
 40
0.0174532499999959
 50
0.0
 51
360.0
 73
     1
 97
        0
 75
     0
 76
     1
 98
        1
 10
0.0
 20
0.0
  0
MTEXT
  5
8C
330
66
100
AcDbEntity
  8
FORMAT
100
AcDbMText
 10
29.72411720785566
 20
20.36319306818741
 30
0.0
 40
0.07
 41
0.0
 71
     1
 72
     1
  1
DESCRIPTION OF CHANGE
  7
SLDTEXTSTYLE0
 73
     1
 44
1.0
1001
ACAD
1000
MTEXTBEGIN
1070
    73
1070
     1
1070
    44
1040
1.0
1070
    74
1070
     0
1000
MTEXTEND
  0
MTEXT
  5
8E
330
66
100
AcDbEntity
  8
FORMAT
100
AcDbMText
 10
0.3406435258590261
 20
0.3651649014509443
 30
0.0
 40
0.17
 41
0.0
 71
     1
 72
     1
  1
NOTE:
  7
SLDTEXTSTYLE1
 73
     1
 44
1.0
1001
ACAD
1000
MTEXTBEGIN
1070
    73
1070
     1
1070
    44
1040
1.0
1070
    74
1070
     0
1000
MTEXTEND
  0
MTEXT
  5
8F
330
66
100
AcDbEntity
  8
FORMAT
100
AcDbMText
 10
27.95253728500805
 20
20.35913829976436
 30
0.0
 40
0.07
 41
0.0
 71
     1
 72
     1
  1
REV.
  7
SLDTEXTSTYLE0
 73
     1
 44
1.0
1001
ACAD
1000
MTEXTBEGIN
1070
    73
1070
     1
1070
    44
1040
1.0
1070
    74
1070
     0
1000
MTEXTEND
  0
MTEXT
  5
90
330
66
100
AcDbEntity
  8
FORMAT
100
AcDbMText
 10
28.42951455076207
 20
20.35641042124149
 30
0.0
 40
0.07
 41
0.0
 71
     1
 72
     1
  1
DATE
  7
SLDTEXTSTYLE0
 73
     1
 44
1.0
1001
ACAD
1000
MTEXTBEGIN
1070
    73
1070
     1
1070
    44
1040
1.0
1070
    74
1070
     0
1000
MTEXTEND
  0
MTEXT
  5
91
330
66
100
AcDbEntity
  8
FORMAT
100
AcDbMText
 10
32.17792254695327
 20
20.36759061973484
 30
0.0
 40
0.07
 41
0.0
 71
     1
 72
     1
  1
BY
  7
SLDTEXTSTYLE0
 73
     1
 44
1.0
1001
ACAD
1000
MTEXTBEGIN
1070
    73
1070
     1
1070
    44
1040
1.0
1070
    74
1070
     0
1000
MTEXTEND
  0
MTEXT
  5
92
330
66
100
AcDbEntity
  8
FORMAT
100
AcDbMText
 10
32.54624549224478
 20
20.36759061973485
 30
0.0
 40
0.07
 41
0.0
 71
     1
 72
     1
  1
CHECK
  7
SLDTEXTSTYLE0
 73
     1
 44
1.0
1001
ACAD
1000
MTEXTBEGIN
1070
    73
1070
     1
1070
    44
1040
1.0
1070
    74
1070
     0
1000
MTEXTEND
  0
MTEXT
  5
94
330
66
100
AcDbEntity
  8
FORMAT
100
AcDbMText
 10
31.11933798915107
 20
20.78173440267642
 30
0.0
 40
0.07
 41
0.0
 71
     1
 72
     1
  1
DO NOT DESTROY
  7
SLDTEXTSTYLE2
 73
     1
 44
1.0
1001
ACAD
1000
MTEXTBEGIN
1070
    73
1070
     1
1070
    44
1040
1.0
1070
    74
1070
     0
1000
MTEXTEND
  0
MTEXT
  5
96
330
66
100
AcDbEntity
  8
FORMAT
100
AcDbMText
 10
27.97225845239749
 20
21.00209464394158
 30
0.0
 40
0.12
 41
0.0
 71
     1
 72
     1
  1
PROPERTY OF BOBRICK WASHROOM EQUIPMENT, INC.
  7
SLDTEXTSTYLE3
 73
     1
 44
1.0
1001
ACAD
1000
MTEXTBEGIN
1070
    73
1070
     1
1070
    44
1040
1.0
1070
    74
1070
     0
1000
MTEXTEND
  0
INSERT
  5
9F
330
66
100
AcDbEntity
  8
FORMAT
 62
     8
100
AcDbBlockReference
  2
SW_NOTE_0
 10
27.97281922236897
 20
20.98506755538077
 30
0.0
  0
INSERT
  5
A7
330
66
100
AcDbEntity
  8
FORMAT
 62
     8
100
AcDbBlockReference
  2
SW_NOTE_1
 10
30.60506208147322
 20
20.98202961599092
 30
0.0
  0
MTEXT
  5
A8
330
66
100
AcDbEntity
  8
FORMAT
100
AcDbMText
 10
27.7483600877304
 20
0.1724440845690909
 30
0.0
 40
0.07
 41
0.0
 71
     1
 72
     1
  1
PART NAME
  7
SLDTEXTSTYLE0
 73
     1
 44
1.0
1001
ACAD
1000
MTEXTBEGIN
1070
    73
1070
     1
1070
    44
1040
1.0
1070
    74
1070
     0
1000
MTEXTEND
  0
MTEXT
  5
A9
330
66
100
AcDbEntity
  8
FORMAT
100
AcDbMText
 10
30.10666510106279
 20
0.4692356211129586
 30
0.0
 40
0.07
 41
0.0
 71
     1
 72
     1
  1
DWG. NO.
  7
SLDTEXTSTYLE0
 73
     1
 44
1.0
1001
ACAD
1000
MTEXTBEGIN
1070
    73
1070
     1
1070
    44
1040
1.0
1070
    74
1070
     0
1000
MTEXTEND
  0
MTEXT
  5
AA
330
66
100
AcDbEntity
  8
FORMAT
100
AcDbMText
 10
22.97373483058121
 20
0.39799715317596
 30
0.0
 40
0.07
 41
0.0
 71
     1
 72
     1
  1
3.  ALL DIA's CONCENTRIC WITHIN .010 TIR
  7
SLDTEXTSTYLE1
 73
     1
 44
1.0
1001
ACAD
1000
MTEXTBEGIN
1070
    73
1070
     1
1070
    44
1040
1.0
1070
    74
1070
     0
1000
MTEXTEND
  0
MTEXT
  5
AB
330
66
100
AcDbEntity
  8
FORMAT
100
AcDbMText
 10
23.35604788375365
 20
1.016658214471895
 30
0.0
 40
0.07
 41
0.0
 71
     1
 72
     1
  1
TOLERANCES UNLESS OTHERWISE SPECIFIED
  7
SLDTEXTSTYLE1
 73
     1
 44
1.0
1001
ACAD
1000
MTEXTBEGIN
1070
    73
1070
     1
1070
    44
1040
1.0
1070
    74
1070
     0
1000
MTEXTEND
  0
MTEXT
  5
AC
330
66
100
AcDbEntity
  8
FORMAT
100
AcDbMText
 10
28.76964147397544
 20
1.230090288894468
 30
0.0
 40
0.06
 41
0.0
 71
     1
 72
     1
  1
PROD.
  7
SLDTEXTSTYLE0
 73
     1
 44
1.0
1001
ACAD
1000
MTEXTBEGIN
1070
    73
1070
     1
1070
    44
1040
1.0
1070
    74
1070
     0
1000
MTEXTEND
  0
MTEXT
  5
AD
330
66
100
AcDbEntity
  8
FORMAT
100
AcDbMText
 10
31.65312089127594
 20
0.6529667658515692
 30
0.0
 40
0.07
 41
0.0
 71
     1
 72
     1
  1
JACKSON, TN
  7
SLDTEXTSTYLE0
 73
     1
 44
1.0
1001
ACAD
1000
MTEXTBEGIN
1070
    73
1070
     1
1070
    44
1040
1.0
1070
    74
1070
     0
1000
MTEXTEND
  0
MTEXT
  5
AE
330
66
100
AcDbEntity
  8
FORMAT
100
AcDbMText
 10
22.97373483058121
 20
0.5972973626647788
 30
0.0
 40
0.07
 41
0.0
 71
     1
 72
     1
  1
2.  ALL MACH SURFACES 125 RMS.
  7
SLDTEXTSTYLE1
 73
     1
 44
1.0
1001
ACAD
1000
MTEXTBEGIN
1070
    73
1070
     1
1070
    44
1040
1.0
1070
    74
1070
     0
1000
MTEXTEND
  0
MTEXT
  5
AF
330
66
100
AcDbEntity
  8
FORMAT
100
AcDbMText
 10
30.18058231123797
 20
0.9912827556420925
 30
0.0
 40
0.1666666666666666
 41
0.0
 71
     1
 72
     1
  1
BOBRICK WASHROOM EQUIPMENT, INC.
  7
SLDTEXTSTYLE0
 73
     1
 44
1.0
1001
ACAD
1000
MTEXTBEGIN
1070
    73
1070
     1
1070
    44
1040
1.0
1070
    74
1070
     0
1000
MTEXTEND
  0
MTEXT
  5
B0
330
66
100
AcDbEntity
  8
FORMAT
100
AcDbMText
 10
30.8292227888737
 20
0.6520623907430573
 30
0.0
 40
0.07
 41
0.0
 71
     1
 72
     1
  1
LOS ANGELES
  7
SLDTEXTSTYLE0
 73
     1
 44
1.0
1001
ACAD
1000
MTEXTBEGIN
1070
    73
1070
     1
1070
    44
1040
1.0
1070
    74
1070
     0
1000
MTEXTEND
  0
MTEXT
  5
B1
330
66
100
AcDbEntity
  8
FORMAT
100
AcDbMText
 10
25.43552890673779
 20
0.8901757080132696
 30
0.0
 40
0.06
 41
0.0
 71
     1
 72
     1
  1
DEC
  7
SLDTEXTSTYLE1
 73
     1
 44
1.0
1001
ACAD
1000
MTEXTBEGIN
1070
    73
1070
     1
1070
    44
1040
1.0
1070
    74
1070
     0
1000
MTEXTEND
  0
MTEXT
  5
B2
330
66
100
AcDbEntity
  8
FORMAT
100
AcDbMText
 10
27.38477789410476
 20
1.234518794589696
 30
0.0
 40
0.06
 41
0.0
 71
     1
 72
     1
  1
DFTMN
  7
SLDTEXTSTYLE0
 73
     1
 44
1.0
1001
ACAD
1000
MTEXTBEGIN
1070
    73
1070
     1
1070
    44
1040
1.0
1070
    74
1070
     0
1000
MTEXTEND
  0
MTEXT
  5
B3
330
66
100
AcDbEntity
  8
FORMAT
100
AcDbMText
 10
28.77320276913068
 20
1.420874845871628
 30
0.0
 40
0.06
 41
0.0
 71
     1
 72
     1
  1
APPVD.
  7
SLDTEXTSTYLE0
 73
     1
 44
1.0
1001
ACAD
1000
MTEXTBEGIN
1070
    73
1070
     1
1070
    44
1040
1.0
1070
    74
1070
     0
1000
MTEXTEND
  0
MTEXT
  5
B4
330
66
100
AcDbEntity
  8
FORMAT
100
AcDbMText
 10
25.39863550404208
 20
0.7764046651472981
 30
0.0
 40
0.06
 41
0.0
 71
     1
 72
     1
  1
X = ± .1
  7
SLDTEXTSTYLE1
 73
     1
 44
1.0
1001
ACAD
1000
MTEXTBEGIN
1070
    73
1070
     1
1070
    44
1040
1.0
1070
    74
1070
     0
1000
MTEXTEND
  0
MTEXT
  5
B5
330
66
100
AcDbEntity
  8
FORMAT
100
AcDbMText
 10
25.43552890673779
 20
0.4394570642572756
 30
0.0
 40
0.06
 41
0.0
 71
     1
 72
     1
  1
FRAC
  7
SLDTEXTSTYLE1
 73
     1
 44
1.0
1001
ACAD
1000
MTEXTBEGIN
1070
    73
1070
     1
1070
    44
1040
1.0
1070
    74
1070
     0
1000
MTEXTEND
  0
MTEXT
  5
B6
330
66
100
AcDbEntity
  8
FORMAT
100
AcDbMText
 10
25.34403326586704
 20
0.6745105466752276
 30
0.0
 40
0.06
 41
0.0
 71
     1
 72
     1
  1
XX = ± .02
  7
SLDTEXTSTYLE1
 73
     1
 44
1.0
1001
ACAD
1000
MTEXTBEGIN
1070
    73
1070
     1
1070
    44
1040
1.0
1070
    74
1070
     0
1000
MTEXTEND
  0
MTEXT
  5
B7
330
66
100
AcDbEntity
  8
FORMAT
100
AcDbMText
 10
32.5003094452076
 20
0.6529667658515682
 30
0.0
 40
0.07
 41
0.0
 71
     1
 72
     1
  1
TORONTO
  7
SLDTEXTSTYLE0
 73
     1
 44
1.0
1001
ACAD
1000
MTEXTBEGIN
1070
    73
1070
     1
1070
    44
1040
1.0
1070
    74
1070
     0
1000
MTEXTEND
  0
MTEXT
  5
B8
330
66
100
AcDbEntity
  8
FORMAT
100
AcDbMText
 10
28.78535232586628
 20
1.02054003778839
 30
0.0
 40
0.06
 41
0.0
 71
     1
 72
     1
  1
REL.DATE
  7
SLDTEXTSTYLE0
 73
     1
 44
1.0
1001
ACAD
1000
MTEXTBEGIN
1070
    73
1070
     1
1070
    44
1040
1.0
1070
    74
1070
     0
1000
MTEXTEND
  0
MTEXT
  5
B9
330
66
100
AcDbEntity
  8
FORMAT
100
AcDbMText
 10
25.42702307514426
 20
0.3451894045223454
 30
0.0
 40
0.06
 41
0.0
 71
     1
 72
     1
  1
 ± 1/32
  7
SLDTEXTSTYLE1
 73
     1
 44
1.0
1001
ACAD
1000
MTEXTBEGIN
1070
    73
1070
     1
1070
    44
1040
1.0
1070
    74
1070
     0
1000
MTEXTEND
  0
MTEXT
  5
BA
330
66
100
AcDbEntity
  8
FORMAT
100
AcDbMText
 10
30.16994701697175
 20
0.655275435501623
 30
0.0
 40
0.07
 41
0.0
 71
     1
 72
     1
  1
NEW YORK
  7
SLDTEXTSTYLE0
 73
     1
 44
1.0
1001
ACAD
1000
MTEXTBEGIN
1070
    73
1070
     1
1070
    44
1040
1.0
1070
    74
1070
     0
1000
MTEXTEND
  0
MTEXT
  5
BB
330
66
100
AcDbEntity
  8
FORMAT
100
AcDbMText
 10
22.97373483058121
 20
0.7965975721535953
 30
0.0
 40
0.07
 41
0.0
 71
     1
 72
     1
  1
1.  DEBURR ALL CORNERS AND EDGES.
  7
SLDTEXTSTYLE1
 73
     1
 44
1.0
1001
ACAD
1000
MTEXTBEGIN
1070
    73
1070
     1
1070
    44
1040
1.0
1070
    74
1070
     0
1000
MTEXTEND
  0
MTEXT
  5
BC
330
66
100
AcDbEntity
  8
FORMAT
100
AcDbMText
 10
27.38881956824833
 20
1.420874845871627
 30
0.0
 40
0.06
 41
0.0
 71
     1
 72
     1
  1
SCALE
  7
SLDTEXTSTYLE0
 73
     1
 44
1.0
1001
ACAD
1000
MTEXTBEGIN
1070
    73
1070
     1
1070
    44
1040
1.0
1070
    74
1070
     0
1000
MTEXTEND
  0
MTEXT
  5
BD
330
66
100
AcDbEntity
  8
FORMAT
100
AcDbMText
 10
25.40881119275927
 20
0.2190078936720642
 30
0.0
 40
0.06
 41
0.0
 71
     1
 72
     1
  1
ANGLE
  7
SLDTEXTSTYLE1
 73
     1
 44
1.0
1001
ACAD
1000
MTEXTBEGIN
1070
    73
1070
     1
1070
    44
1040
1.0
1070
    74
1070
     0
1000
MTEXTEND
  0
MTEXT
  5
BE
330
66
100
AcDbEntity
  8
FORMAT
100
AcDbMText
 10
27.38850706540009
 20
1.026795269164697
 30
0.0
 40
0.06
 41
0.0
 71
     1
 72
     1
  1
CHECK
  7
SLDTEXTSTYLE0
 73
     1
 44
1.0
1001
ACAD
1000
MTEXTBEGIN
1070
    73
1070
     1
1070
    44
1040
1.0
1070
    74
1070
     0
1000
MTEXTEND
  0
MTEXT
  5
BF
330
66
100
AcDbEntity
  8
FORMAT
100
AcDbMText
 10
25.28500383248081
 20
0.5620235188609052
 30
0.0
 40
0.06
 41
0.0
 71
     1
 72
     1
  1
XXX = ± .010
  7
SLDTEXTSTYLE1
 73
     1
 44
1.0
1001
ACAD
1000
MTEXTBEGIN
1070
    73
1070
     1
1070
    44
1040
1.0
1070
    74
1070
     0
1000
MTEXTEND
  0
MTEXT
  5
C0
330
66
100
AcDbEntity
  8
FORMAT
100
AcDbMText
 10
25.43172755851496
 20
0.1247402339371439
 30
0.0
 40
0.06
 41
0.0
 71
     1
 72
     1
  1
 ± 1°
  7
SLDTEXTSTYLE1
 73
     1
 44
1.0
1001
ACAD
1000
MTEXTBEGIN
1070
    73
1070
     1
1070
    44
1040
1.0
1070
    74
1070
     0
1000
MTEXTEND
  0
MTEXT
  5
C1
330
66
100
AcDbEntity
  8
FORMAT
100
AcDbMText
 10
25.93430206457111
 20
1.025630599088518
 30
0.0
 40
0.06
 41
0.0
 71
     1
 72
     1
  1
FINISH
  7
SLDTEXTSTYLE0
 73
     1
 44
1.0
1001
ACAD
1000
MTEXTBEGIN
1070
    73
1070
     1
1070
    44
1040
1.0
1070
    74
1070
     0
1000
MTEXTEND
  0
MTEXT
  5
C2
330
66
100
AcDbEntity
  8
FORMAT
100
AcDbMText
 10
25.94322982127122
 20
1.443076586783654
 30
0.0
 40
0.06
 41
0.0
 71
     1
 72
     1
  1
MAT'L
  7
SLDTEXTSTYLE0
 73
     1
 44
1.0
1001
ACAD
1000
MTEXTBEGIN
1070
    73
1070
     1
1070
    44
1040
1.0
1070
    74
1070
     0
1000
MTEXTEND
  0
MTEXT
  5
C3
330
66
100
AcDbEntity
  8
FORMAT
100
AcDbMText
 10
23.66799991478947
 20
1.463251144221145
 30
0.0
 40
0.2916666666666666
 41
0.0
 71
     1
 72
     1
  1
D
  7
SLDTEXTSTYLE1
 73
     1
 44
1.0
1001
ACAD
1000
MTEXTBEGIN
1070
    73
1070
     1
1070
    44
1040
1.0
1070
    74
1070
     0
1000
MTEXTEND
  0
MTEXT
  5
C4
330
66
100
AcDbEntity
  8
FORMAT
100
AcDbMText
 10
22.90119417862591
 20
1.452644275012908
 30
0.0
 40
0.07
 41
0.0
 71
     1
 72
     1
  1
DRAWING SIZE
  7
SLDTEXTSTYLE1
 73
     1
 44
1.0
1001
ACAD
1000
MTEXTBEGIN
1070
    73
1070
     1
1070
    44
1040
1.0
1070
    74
1070
     0
1000
MTEXTEND
  0
ENDBLK
  5
68
330
66
100
AcDbEntity
  8
0
100
AcDbBlockEnd
  0
BLOCK
  5
98
330
97
100
AcDbEntity
  8
0
100
AcDbBlockBegin
  2
SW_NOTE_0
 70
     0
 10
0.0
 20
0.0
 30
0.0
  3
SW_NOTE_0
  1

  0
MTEXT
  5
9A
330
97
100
AcDbEntity
  8
FORMAT
 62
     0
100
AcDbMText
 10
0.0
 20
0.0725100603621735
 30
0.0
 40
0.05625
 41
0.0
 71
     1
 72
     1
  1
NOTICE IS HEREBY GIVEN THAT THIS DRAWING IS THE
  7
SLDTEXTSTYLE1
 73
     1
 44
1.0
1001
ACAD
1000
MTEXTBEGIN
1070
    73
1070
     1
1070
    44
1040
1.0
1070
    74
1070
     0
1000
MTEXTEND
  0
MTEXT
  5
9B
330
97
100
AcDbEntity
  8
FORMAT
 62
     0
100
AcDbMText
 10
0.0
 20
-0.1142399339526228
 30
0.0
 40
0.05625
 41
0.0
 71
     1
 72
     1
  1
THE PERSONS, PARTNERSHIP OR CORPORATION ACCEPTING
  7
SLDTEXTSTYLE1
 73
     1
 44
1.0
1001
ACAD
1000
MTEXTBEGIN
1070
    73
1070
     1
1070
    44
1040
1.0
1070
    74
1070
     0
1000
MTEXTEND
  0
MTEXT
  5
9C
330
97
100
AcDbEntity
  8
FORMAT
 62
     0
100
AcDbMText
 10
0.0
 20
-0.207614931110021
 30
0.0
 40
0.05625
 41
0.0
 71
     1
 72
     1
  1
THIS DRAWING AGREES THAT ALL INFORMATION SET FORTH IN
  7
SLDTEXTSTYLE1
 73
     1
 44
1.0
1001
ACAD
1000
MTEXTBEGIN
1070
    73
1070
     1
1070
    44
1040
1.0
1070
    74
1070
     0
1000
MTEXTEND
  0
MTEXT
  5
9D
330
97
100
AcDbEntity
  8
FORMAT
 62
     0
100
AcDbMText
 10
0.0
 20
-0.3009899282674191
 30
0.0
 40
0.05625
 41
0.0
 71
     1
 72
     1
  1
THIS DRAWING WILL BE HELD CONFIDENTIAL AND THAT IT WILL
  7
SLDTEXTSTYLE1
 73
     1
 44
1.0
1001
ACAD
1000
MTEXTBEGIN
1070
    73
1070
     1
1070
    44
1040
1.0
1070
    74
1070
     0
1000
MTEXTEND
  0
MTEXT
  5
9E
330
97
100
AcDbEntity
  8
FORMAT
 62
     0
100
AcDbMText
 10
0.0
 20
-0.3943649254248173
 30
0.0
 40
0.05625
 41
0.0
 71
     1
 72
     1
  1
NOT BE DISCLOSED TO ANYONE OTHER THAN AN OFFICIAL OF
  7
SLDTEXTSTYLE1
 73
     1
 44
1.0
1001
ACAD
1000
MTEXTBEGIN
1070
    73
1070
     1
1070
    44
1040
1.0
1070
    74
1070
     0
1000
MTEXTEND
  0
ENDBLK
  5
99
330
97
100
AcDbEntity
  8
0
100
AcDbBlockEnd
  0
BLOCK
  5
A1
330
A0
100
AcDbEntity
  8
0
100
AcDbBlockBegin
  2
SW_NOTE_1
 70
     0
 10
0.0
 20
0.0
 30
0.0
  3
SW_NOTE_1
  1

  0
MTEXT
  5
A3
330
A0
100
AcDbEntity
  8
FORMAT
 62
     0
100
AcDbMText
 10
0.0
 20
0.0725100603621735
 30
0.0
 40
0.05625
 41
0.0
 71
     1
 72
     1
  1
THE UNITED STATES GOVERNMENT OR AN EMPLOYEE OF
  7
SLDTEXTSTYLE1
 73
     1
 44
1.0
1001
ACAD
1000
MTEXTBEGIN
1070
    73
1070
     1
1070
    44
1040
1.0
1070
    74
1070
     0
1000
MTEXTEND
  0
MTEXT
  5
A4
330
A0
100
AcDbEntity
  8
FORMAT
 62
     0
100
AcDbMText
 10
0.0
 20
-0.0208649367952247
 30
0.0
 40
0.05625
 41
0.0
 71
     1
 72
     1
  1
BOBRICK WASHROOM EQUIPMENT, INC.
  7
SLDTEXTSTYLE1
 73
     1
 44
1.0
1001
ACAD
1000
MTEXTBEGIN
1070
    73
1070
     1
1070
    44
1040
1.0
1070
    74
1070
     0
1000
MTEXTEND
  0
MTEXT
  5
A5
330
A0
100
AcDbEntity
  8
FORMAT
 62
     0
100
AcDbMText
 10
0.0
 20
-0.3009899282674191
 30
0.0
 40
0.05625
 41
0.0
 71
     1
 72
     1
  1
WHEN FINISHED WITH THIS DRAWING, RETURN TO BOBRICK
  7
SLDTEXTSTYLE1
 73
     1
 44
1.0
1001
ACAD
1000
MTEXTBEGIN
1070
    73
1070
     1
1070
    44
1040
1.0
1070
    74
1070
     0
1000
MTEXTEND
  0
MTEXT
  5
A6
330
A0
100
AcDbEntity
  8
FORMAT
 62
     0
100
AcDbMText
 10
0.0
 20
-0.3943649254248173
 30
0.0
 40
0.05625
 41
0.0
 71
     1
 72
     1
  1
WASHROOM EQUIPMENT, INC.
  7
SLDTEXTSTYLE1
 73
     1
 44
1.0
1001
ACAD
1000
MTEXTBEGIN
1070
    73
1070
     1
1070
    44
1040
1.0
1070
    74
1070
     0
1000
MTEXTEND
  0
ENDBLK
  5
A2
330
A0
100
AcDbEntity
  8
0
100
AcDbBlockEnd
  0
BLOCK
  5
4457
330
444B
100
AcDbEntity
  8
0
100
AcDbBlockBegin
  2
*D4
 70
     1
 10
0.0
 20
0.0
 30
0.0
  3
*D4
  1

  0
LINE
  5
6BC4
330
444B
100
AcDbEntity
  8
0
 62
     0
370
    -2
100
AcDbLine
 10
64.60639265449749
 20
61.44937755175819
 30
0.0
 11
69.2685475303011
 21
61.44937755175819
 31
0.0
  0
LINE
  5
6BC5
330
444B
100
AcDbEntity
  8
0
 62
     0
370
    -2
100
AcDbLine
 10
66.74096623911184
 20
60.61937811074644
 30
0.0
 11
69.2685475303011
 21
60.61937811074644
 31
0.0
  0
LINE
  5
6BC6
330
444B
100
AcDbEntity
  8
0
 62
     0
370
    -2
100
AcDbLine
 10
68.90854753030111
 20
59.89937811074644
 30
0.0
 11
68.90854753030111
 21
59.17937811074644
 31
0.0
  0
LINE
  5
6BC7
330
444B
100
AcDbEntity
  8
0
 62
     0
370
    -2
100
AcDbLine
 10
68.90854753030111
 20
62.16937755175819
 30
0.0
 11
68.90854753030111
 21
64.33976004064966
 31
0.0
  0
LINE
  5
6BC8
330
444B
100
AcDbEntity
  8
0
 62
     0
370
    -2
100
AcDbLine
 10
68.90854753030111
 20
64.33976004064966
 30
0.0
 11
69.62854753030111
 21
64.33976004064966
 31
0.0
  0
SOLID
  5
6BC9
330
444B
100
AcDbEntity
  8
0
 62
     0
100
AcDbTrace
 10
68.7885475303011
 20
59.89937811074644
 30
0.0
 11
69.02854753030111
 21
59.89937811074644
 31
0.0
 12
68.90854753030111
 22
60.61937811074644
 32
0.0
 13
68.90854753030111
 23
60.61937811074644
 33
0.0
  0
SOLID
  5
6BCA
330
444B
100
AcDbEntity
  8
0
 62
     0
100
AcDbTrace
 10
68.7885475303011
 20
62.16937755175819
 30
0.0
 11
69.02854753030111
 21
62.16937755175819
 31
0.0
 12
68.90854753030111
 22
61.44937755175819
 32
0.0
 13
68.90854753030111
 23
61.44937755175819
 33
0.0
  0
MTEXT
  5
6BCB
330
444B
100
AcDbEntity
  8
0
 62
     0
100
AcDbMText
 10
72.13045229220586
 20
64.33976004064968
 30
0.0
 40
0.5
 41
0.0
 71
     5
 72
     1
  1
\A1;13/16"\P [21.08mm]
 73
     1
 44
1.0
1001
ACAD
1000
MTEXTBEGIN
1070
    73
1070
     1
1070
    44
1040
1.0
1070
    74
1070
     0
1000
MTEXTEND
  0
POINT
  5
6BCC
330
444B
100
AcDbEntity
  8
DEFPOINTS
 62
     0
100
AcDbPoint
 10
64.2463926544975
 20
61.44937755175819
 30
0.0
  0
POINT
  5
6BCD
330
444B
100
AcDbEntity
  8
DEFPOINTS
 62
     0
100
AcDbPoint
 10
66.38096623911184
 20
60.61937811074644
 30
0.0
  0
POINT
  5
6BCE
330
444B
100
AcDbEntity
  8
DEFPOINTS
 62
     0
100
AcDbPoint
 10
68.90854753030111
 20
60.61937811074644
 30
0.0
  0
ENDBLK
  5
4458
330
444B
100
AcDbEntity
  8
0
100
AcDbBlockEnd
  0
BLOCK
  5
4591
330
4585
100
AcDbEntity
  8
0
100
AcDbBlockBegin
  2
*D5
 70
     1
 10
0.0
 20
0.0
 30
0.0
  3
*D5
  1

  0
LINE
  5
6998
330
4585
100
AcDbEntity
  8
0
 62
     0
100
AcDbLine
 10
66.75689062157236
 20
47.18612811074645
 30
0.0
 11
69.2685475303011
 21
47.18612811074645
 31
0.0
  0
LINE
  5
6999
330
4585
100
AcDbEntity
  8
0
 62
     0
100
AcDbLine
 10
68.90854753030111
 20
59.89937811074644
 30
0.0
 11
68.90854753030111
 21
55.14465787265121
 31
0.0
  0
LINE
  5
699A
330
4585
100
AcDbEntity
  8
0
 62
     0
100
AcDbLine
 10
68.90854753030111
 20
47.90612811074644
 30
0.0
 11
68.90854753030111
 21
52.66084834884168
 31
0.0
  0
SOLID
  5
699B
330
4585
100
AcDbEntity
  8
0
 62
     0
100
AcDbTrace
 10
68.7885475303011
 20
59.89937811074644
 30
0.0
 11
69.02854753030111
 21
59.89937811074644
 31
0.0
 12
68.90854753030111
 22
60.61937811074644
 32
0.0
 13
68.90854753030111
 23
60.61937811074644
 33
0.0
  0
SOLID
  5
699C
330
4585
100
AcDbEntity
  8
0
 62
     0
100
AcDbTrace
 10
68.7885475303011
 20
47.90612811074644
 30
0.0
 11
69.02854753030111
 21
47.90612811074644
 31
0.0
 12
68.90854753030111
 22
47.18612811074645
 32
0.0
 13
68.90854753030111
 23
47.18612811074645
 33
0.0
  0
MTEXT
  5
699D
330
4585
100
AcDbEntity
  8
0
 62
     0
100
AcDbMText
 10
68.90854753030109
 20
54.52370549169883
 30
0.0
 40
0.5
 41
0.0
 71
     5
 72
     1
  1
\A1;13 7/16"
 73
     1
 44
1.0
1001
ACAD
1000
MTEXTBEGIN
1070
    73
1070
     1
1070
    44
1040
1.0
1070
    74
1070
     0
1000
MTEXTEND
  0
MTEXT
  5
699E
330
4585
100
AcDbEntity
  8
0
 62
     0
100
AcDbMText
 10
68.90854753030109
 20
53.28180072979407
 30
0.0
 40
0.5
 41
0.0
 71
     5
 72
     1
  1
\A1;[341.20mm]
 73
     1
 44
1.0
1001
ACAD
1000
MTEXTBEGIN
1070
    73
1070
     1
1070
    44
1040
1.0
1070
    74
1070
     0
1000
MTEXTEND
  0
POINT
  5
699F
330
4585
100
AcDbEntity
  8
DEFPOINTS
 62
     0
100
AcDbPoint
 10
65.55736040767726
 20
60.61937811074644
 30
0.0
  0
POINT
  5
69A0
330
4585
100
AcDbEntity
  8
DEFPOINTS
 62
     0
100
AcDbPoint
 10
66.39689062157237
 20
47.18612811074645
 30
0.0
  0
POINT
  5
69A1
330
4585
100
AcDbEntity
  8
DEFPOINTS
 62
     0
100
AcDbPoint
 10
68.90854753030111
 20
47.18612811074645
 30
0.0
  0
ENDBLK
  5
4592
330
4585
100
AcDbEntity
  8
0
100
AcDbBlockEnd
  0
BLOCK
  5
471F
330
4713
100
AcDbEntity
  8
0
100
AcDbBlockBegin
  2
*D6
 70
     1
 10
0.0
 20
0.0
 30
0.0
  3
*D6
  1

  0
LINE
  5
69A2
330
4713
100
AcDbEntity
  8
0
 62
     0
100
AcDbLine
 10
66.78052595892511
 20
60.61937811074644
 30
0.0
 11
74.61432922365606
 21
60.61937811074644
 31
0.0
  0
LINE
  5
69A3
330
4713
100
AcDbEntity
  8
0
 62
     0
100
AcDbLine
 10
66.96576734443578
 20
43.68612811074644
 30
0.0
 11
74.61432922365606
 21
43.68612811074644
 31
0.0
  0
LINE
  5
69A4
330
4713
100
AcDbEntity
  8
0
 62
     0
100
AcDbLine
 10
74.25432922365605
 20
59.89937811074644
 30
0.0
 11
74.25432922365605
 21
51.14137944371755
 31
0.0
  0
LINE
  5
69A5
330
4713
100
AcDbEntity
  8
0
 62
     0
100
AcDbLine
 10
74.25432922365605
 20
44.40612811074644
 30
0.0
 11
74.25432922365605
 21
48.97090325324136
 31
0.0
  0
SOLID
  5
69A6
330
4713
100
AcDbEntity
  8
0
 62
     0
100
AcDbTrace
 10
74.13432922365605
 20
59.89937811074644
 30
0.0
 11
74.37432922365606
 21
59.89937811074644
 31
0.0
 12
74.25432922365605
 22
60.61937811074644
 32
0.0
 13
74.25432922365605
 23
60.61937811074644
 33
0.0
  0
SOLID
  5
69A7
330
4713
100
AcDbEntity
  8
0
 62
     0
100
AcDbTrace
 10
74.13432922365605
 20
44.40612811074644
 30
0.0
 11
74.37432922365606
 21
44.40612811074644
 31
0.0
 12
74.25432922365605
 22
43.68612811074644
 32
0.0
 13
74.25432922365605
 23
43.68612811074644
 33
0.0
  0
MTEXT
  5
69A8
330
4713
100
AcDbEntity
  8
0
 62
     0
100
AcDbMText
 10
74.25432922365605
 20
50.05614134847945
 30
0.0
 40
0.5
 41
0.0
 71
     5
 72
     1
  1
\A1;16 15/16"\P [430.10mm]
 73
     1
 44
1.0
1001
ACAD
1000
MTEXTBEGIN
1070
    73
1070
     1
1070
    44
1040
1.0
1070
    74
1070
     0
1000
MTEXTEND
  0
POINT
  5
69A9
330
4713
100
AcDbEntity
  8
DEFPOINTS
 62
     0
100
AcDbPoint
 10
66.42052595892511
 20
60.61937811074644
 30
0.0
  0
POINT
  5
69AA
330
4713
100
AcDbEntity
  8
DEFPOINTS
 62
     0
100
AcDbPoint
 10
66.60576734443577
 20
43.68612811074644
 30
0.0
  0
POINT
  5
69AB
330
4713
100
AcDbEntity
  8
DEFPOINTS
 62
     0
100
AcDbPoint
 10
74.25432922365605
 20
43.68612811074644
 30
0.0
  0
ENDBLK
  5
4720
330
4713
100
AcDbEntity
  8
0
100
AcDbBlockEnd
  0
BLOCK
  5
4B1D
330
4B11
100
AcDbEntity
  8
0
100
AcDbBlockBegin
  2
*D7
 70
     1
 10
0.0
 20
0.0
 30
0.0
  3
*D7
  1

  0
LINE
  5
69AC
330
4B11
100
AcDbEntity
  8
0
 62
     0
100
AcDbLine
 10
55.19714236615616
 20
44.55446268995285
 30
0.0
 11
55.19714236615616
 21
39.34465532747989
 31
0.0
  0
LINE
  5
69AD
330
4B11
100
AcDbEntity
  8
0
 62
     0
100
AcDbLine
 10
64.2463926544975
 20
42.83937791081131
 30
0.0
 11
64.2463926544975
 21
39.34465532747989
 31
0.0
  0
LINE
  5
69AE
330
4B11
100
AcDbEntity
  8
0
 62
     0
100
AcDbLine
 10
55.91714236615615
 20
39.70465532747989
 30
0.0
 11
57.23176751032682
 21
39.70465532747989
 31
0.0
  0
LINE
  5
69AF
330
4B11
100
AcDbEntity
  8
0
 62
     0
100
AcDbLine
 10
63.5263926544975
 20
39.70465532747989
 30
0.0
 11
62.21176751032682
 21
39.70465532747989
 31
0.0
  0
SOLID
  5
69B0
330
4B11
100
AcDbEntity
  8
0
 62
     0
100
AcDbTrace
 10
55.91714236615615
 20
39.82465532747988
 30
0.0
 11
55.91714236615615
 21
39.58465532747989
 31
0.0
 12
55.19714236615616
 22
39.70465532747989
 32
0.0
 13
55.19714236615616
 23
39.70465532747989
 33
0.0
  0
SOLID
  5
69B1
330
4B11
100
AcDbEntity
  8
0
 62
     0
100
AcDbTrace
 10
63.5263926544975
 20
39.82465532747988
 30
0.0
 11
63.5263926544975
 21
39.58465532747989
 31
0.0
 12
64.2463926544975
 22
39.70465532747989
 32
0.0
 13
64.2463926544975
 23
39.70465532747989
 33
0.0
  0
MTEXT
  5
69B2
330
4B11
100
AcDbEntity
  8
0
 62
     0
100
AcDbMText
 10
59.72176751032683
 20
40.32560770843226
 30
0.0
 40
0.5
 41
0.0
 71
     5
 72
     1
  1
\A1;9 1/16"
 73
     1
 44
1.0
1001
ACAD
1000
MTEXTBEGIN
1070
    73
1070
     1
1070
    44
1040
1.0
1070
    74
1070
     0
1000
MTEXTEND
  0
MTEXT
  5
69B3
330
4B11
100
AcDbEntity
  8
0
 62
     0
100
AcDbMText
 10
59.72176751032683
 20
39.0837029465275
 30
0.0
 40
0.5
 41
0.0
 71
     5
 72
     1
  1
\A1;[229.85mm]
 73
     1
 44
1.0
1001
ACAD
1000
MTEXTBEGIN
1070
    73
1070
     1
1070
    44
1040
1.0
1070
    74
1070
     0
1000
MTEXTEND
  0
POINT
  5
69B4
330
4B11
100
AcDbEntity
  8
DEFPOINTS
 62
     0
100
AcDbPoint
 10
55.19714236615616
 20
44.91446268995285
 30
0.0
  0
POINT
  5
69B5
330
4B11
100
AcDbEntity
  8
DEFPOINTS
 62
     0
100
AcDbPoint
 10
64.2463926544975
 20
43.1993779108113
 30
0.0
  0
POINT
  5
69B6
330
4B11
100
AcDbEntity
  8
DEFPOINTS
 62
     0
100
AcDbPoint
 10
64.2463926544975
 20
39.70465532747989
 30
0.0
  0
ENDBLK
  5
4B1E
330
4B11
100
AcDbEntity
  8
0
100
AcDbBlockEnd
  0
BLOCK
  5
4F45
330
4F39
100
AcDbEntity
  8
0
100
AcDbBlockBegin
  2
*D8
 70
     1
 10
0.0
 20
0.0
 30
0.0
  3
*D8
  1

  0
LINE
  5
69B7
330
4F39
100
AcDbEntity
  8
0
 62
     0
100
AcDbLine
 10
64.60639265449749
 20
61.44937755175819
 30
0.0
 11
80.83350825005963
 21
61.44937755175818
 31
0.0
  0
LINE
  5
69B8
330
4F39
100
AcDbEntity
  8
0
 62
     0
100
AcDbLine
 10
64.60639265449749
 20
43.1993779108113
 30
0.0
 11
80.83350825005963
 21
43.19937791081129
 31
0.0
  0
LINE
  5
69B9
330
4F39
100
AcDbEntity
  8
0
 62
     0
100
AcDbLine
 10
80.47350825005963
 20
60.72937755175818
 30
0.0
 11
80.47350825005963
 21
53.5662824931895
 31
0.0
  0
LINE
  5
69BA
330
4F39
100
AcDbEntity
  8
0
 62
     0
100
AcDbLine
 10
80.47350825005963
 20
43.91937791081129
 30
0.0
 11
80.47350825005963
 21
51.08247296937998
 31
0.0
  0
SOLID
  5
69BB
330
4F39
100
AcDbEntity
  8
0
 62
     0
100
AcDbTrace
 10
80.35350825005963
 20
60.72937755175818
 30
0.0
 11
80.59350825005964
 21
60.72937755175818
 31
0.0
 12
80.47350825005963
 22
61.44937755175818
 32
0.0
 13
80.47350825005963
 23
61.44937755175818
 33
0.0
  0
SOLID
  5
69BC
330
4F39
100
AcDbEntity
  8
0
 62
     0
100
AcDbTrace
 10
80.35350825005963
 20
43.91937791081129
 30
0.0
 11
80.59350825005964
 21
43.91937791081129
 31
0.0
 12
80.47350825005963
 22
43.19937791081129
 32
0.0
 13
80.47350825005963
 23
43.19937791081129
 33
0.0
  0
MTEXT
  5
69BD
330
4F39
100
AcDbEntity
  8
0
 62
     0
100
AcDbMText
 10
80.47350825005961
 20
52.94533011223713
 30
0.0
 40
0.5
 41
0.0
 71
     5
 72
     1
  1
\A1;18 1/4"
 73
     1
 44
1.0
1001
ACAD
1000
MTEXTBEGIN
1070
    73
1070
     1
1070
    44
1040
1.0
1070
    74
1070
     0
1000
MTEXTEND
  0
MTEXT
  5
69BE
330
4F39
100
AcDbEntity
  8
0
 62
     0
100
AcDbMText
 10
80.47350825005961
 20
51.70342535033237
 30
0.0
 40
0.5
 41
0.0
 71
     5
 72
     1
  1
\A1;[463.55mm]
 73
     1
 44
1.0
1001
ACAD
1000
MTEXTBEGIN
1070
    73
1070
     1
1070
    44
1040
1.0
1070
    74
1070
     0
1000
MTEXTEND
  0
POINT
  5
69BF
330
4F39
100
AcDbEntity
  8
DEFPOINTS
 62
     0
100
AcDbPoint
 10
64.2463926544975
 20
61.44937755175819
 30
0.0
  0
POINT
  5
69C0
330
4F39
100
AcDbEntity
  8
DEFPOINTS
 62
     0
100
AcDbPoint
 10
64.2463926544975
 20
43.1993779108113
 30
0.0
  0
POINT
  5
69C1
330
4F39
100
AcDbEntity
  8
DEFPOINTS
 62
     0
100
AcDbPoint
 10
80.47350825005963
 20
43.19937791081129
 30
0.0
  0
ENDBLK
  5
4F46
330
4F39
100
AcDbEntity
  8
0
100
AcDbBlockEnd
  0
BLOCK
  5
4FE8
330
4FDC
100
AcDbEntity
  8
0
100
AcDbBlockBegin
  2
*D9
 70
     1
 10
0.0
 20
0.0
 30
0.0
  3
*D9
  1

  0
LINE
  5
69C2
330
4FDC
100
AcDbEntity
  8
0
 62
     0
100
AcDbLine
 10
27.32407692872132
 20
61.55998667274291
 30
0.0
 11
27.32407692872132
 21
67.62071520403371
 31
0.0
  0
LINE
  5
69C3
330
4FDC
100
AcDbEntity
  8
0
 62
     0
100
AcDbLine
 10
42.48407657244511
 20
61.55998667274291
 30
0.0
 11
42.48407657244511
 21
67.62071520403371
 31
0.0
  0
LINE
  5
69C4
330
4FDC
100
AcDbEntity
  8
0
 62
     0
100
AcDbLine
 10
28.04407692872132
 20
67.26071520403372
 30
0.0
 11
32.16407675058322
 21
67.26071520403372
 31
0.0
  0
LINE
  5
69C5
330
4FDC
100
AcDbEntity
  8
0
 62
     0
100
AcDbLine
 10
41.76407657244511
 20
67.26071520403372
 30
0.0
 11
37.64407675058321
 21
67.26071520403372
 31
0.0
  0
SOLID
  5
69C6
330
4FDC
100
AcDbEntity
  8
0
 62
     0
100
AcDbTrace
 10
28.04407692872132
 20
67.38071520403372
 30
0.0
 11
28.04407692872132
 21
67.14071520403371
 31
0.0
 12
27.32407692872132
 22
67.26071520403372
 32
0.0
 13
27.32407692872132
 23
67.26071520403372
 33
0.0
  0
SOLID
  5
69C7
330
4FDC
100
AcDbEntity
  8
0
 62
     0
100
AcDbTrace
 10
41.76407657244511
 20
67.38071520403372
 30
0.0
 11
41.76407657244511
 21
67.14071520403371
 31
0.0
 12
42.48407657244511
 22
67.26071520403372
 32
0.0
 13
42.48407657244511
 23
67.26071520403372
 33
0.0
  0
MTEXT
  5
69C8
330
4FDC
100
AcDbEntity
  8
0
 62
     0
100
AcDbMText
 10
34.90407675058321
 20
67.26071520403372
 30
0.0
 40
0.5
 41
0.0
 71
     5
 72
     1
  1
\A1;15 3/16"\P [385.06mm]
 73
     1
 44
1.0
1001
ACAD
1000
MTEXTBEGIN
1070
    73
1070
     1
1070
    44
1040
1.0
1070
    74
1070
     0
1000
MTEXTEND
  0
POINT
  5
69C9
330
4FDC
100
AcDbEntity
  8
DEFPOINTS
 62
     0
100
AcDbPoint
 10
27.32407692872132
 20
61.19998667274291
 30
0.0
  0
POINT
  5
69CA
330
4FDC
100
AcDbEntity
  8
DEFPOINTS
 62
     0
100
AcDbPoint
 10
42.48407657244511
 20
61.19998667274291
 30
0.0
  0
POINT
  5
69CB
330
4FDC
100
AcDbEntity
  8
DEFPOINTS
 62
     0
100
AcDbPoint
 10
42.48407657244511
 20
67.26071520403372
 30
0.0
  0
ENDBLK
  5
4FE9
330
4FDC
100
AcDbEntity
  8
0
100
AcDbBlockEnd
  0
BLOCK
  5
50DC
330
50D0
100
AcDbEntity
  8
0
100
AcDbBlockBegin
  2
*D10
 70
     1
 10
0.0
 20
0.0
 30
0.0
  3
*D10
  1

  0
LINE
  5
69CC
330
50D0
100
AcDbEntity
  8
0
 62
     0
100
AcDbLine
 10
41.40570279365883
 20
40.93251281294331
 30
0.0
 11
41.40570279365883
 21
39.50724520423746
 31
0.0
  0
LINE
  5
69CD
330
50D0
100
AcDbEntity
  8
0
 62
     0
100
AcDbLine
 10
42.48570279365886
 20
42.8693781107465
 30
0.0
 11
42.48570279365886
 21
39.50724520423746
 31
0.0
  0
LINE
  5
69CE
330
50D0
100
AcDbEntity
  8
0
 62
     0
100
AcDbLine
 10
40.68570279365883
 20
39.86724520423747
 30
0.0
 11
39.96570279365883
 21
39.86724520423747
 31
0.0
  0
LINE
  5
69CF
330
50D0
100
AcDbEntity
  8
0
 62
     0
100
AcDbLine
 10
43.20570279365886
 20
39.86724520423747
 30
0.0
 11
43.92570279365886
 21
39.86724520423747
 31
0.0
  0
SOLID
  5
69D0
330
50D0
100
AcDbEntity
  8
0
 62
     0
100
AcDbTrace
 10
40.68570279365883
 20
39.98724520423746
 30
0.0
 11
40.68570279365883
 21
39.74724520423747
 31
0.0
 12
41.40570279365883
 22
39.86724520423747
 32
0.0
 13
41.40570279365883
 23
39.86724520423747
 33
0.0
  0
SOLID
  5
69D1
330
50D0
100
AcDbEntity
  8
0
 62
     0
100
AcDbTrace
 10
43.20570279365886
 20
39.98724520423746
 30
0.0
 11
43.20570279365886
 21
39.74724520423747
 31
0.0
 12
42.48570279365886
 22
39.86724520423747
 32
0.0
 13
42.48570279365886
 23
39.86724520423747
 33
0.0
  0
MTEXT
  5
69D2
330
50D0
100
AcDbEntity
  8
0
 62
     0
100
AcDbMText
 10
46.42760755556362
 20
39.86724520423747
 30
0.0
 40
0.5
 41
0.0
 71
     5
 72
     1
  1
\A1;1 1/16"\P [27.43mm]
 73
     1
 44
1.0
1001
ACAD
1000
MTEXTBEGIN
1070
    73
1070
     1
1070
    44
1040
1.0
1070
    74
1070
     0
1000
MTEXTEND
  0
POINT
  5
69D3
330
50D0
100
AcDbEntity
  8
DEFPOINTS
 62
     0
100
AcDbPoint
 10
41.40570279365883
 20
41.2925128129433
 30
0.0
  0
POINT
  5
69D4
330
50D0
100
AcDbEntity
  8
DEFPOINTS
 62
     0
100
AcDbPoint
 10
42.48570279365886
 20
43.22937811074651
 30
0.0
  0
POINT
  5
69D5
330
50D0
100
AcDbEntity
  8
DEFPOINTS
 62
     0
100
AcDbPoint
 10
42.48570279365886
 20
39.86724520423747
 30
0.0
  0
ENDBLK
  5
50DD
330
50D0
100
AcDbEntity
  8
0
100
AcDbBlockEnd
  0
BLOCK
  5
50EB
330
50DF
100
AcDbEntity
  8
0
100
AcDbBlockBegin
  2
*D11
 70
     1
 10
0.0
 20
0.0
 30
0.0
  3
*D11
  1

  0
LINE
  5
69D6
330
50DF
100
AcDbEntity
  8
0
 62
     0
100
AcDbLine
 10
31.15570279365884
 20
40.71751203441148
 30
0.0
 11
31.15570279365884
 21
37.13319692101125
 31
0.0
  0
LINE
  5
69D7
330
50DF
100
AcDbEntity
  8
0
 62
     0
100
AcDbLine
 10
38.65570279365883
 20
40.71751203441148
 30
0.0
 11
38.65570279365883
 21
37.13319692101125
 31
0.0
  0
LINE
  5
69D8
330
50DF
100
AcDbEntity
  8
0
 62
     0
100
AcDbLine
 10
31.87570279365884
 20
37.49319692101125
 30
0.0
 11
32.16570279365884
 21
37.49319692101125
 31
0.0
  0
LINE
  5
69D9
330
50DF
100
AcDbEntity
  8
0
 62
     0
100
AcDbLine
 10
37.93570279365884
 20
37.49319692101125
 30
0.0
 11
37.64570279365883
 21
37.49319692101125
 31
0.0
  0
SOLID
  5
69DA
330
50DF
100
AcDbEntity
  8
0
 62
     0
100
AcDbTrace
 10
31.87570279365884
 20
37.61319692101125
 30
0.0
 11
31.87570279365884
 21
37.37319692101125
 31
0.0
 12
31.15570279365884
 22
37.49319692101125
 32
0.0
 13
31.15570279365884
 23
37.49319692101125
 33
0.0
  0
SOLID
  5
69DB
330
50DF
100
AcDbEntity
  8
0
 62
     0
100
AcDbTrace
 10
37.93570279365884
 20
37.61319692101125
 30
0.0
 11
37.93570279365884
 21
37.37319692101125
 31
0.0
 12
38.65570279365883
 22
37.49319692101125
 32
0.0
 13
38.65570279365883
 23
37.49319692101125
 33
0.0
  0
MTEXT
  5
69DC
330
50DF
100
AcDbEntity
  8
0
 62
     0
100
AcDbMText
 10
34.90570279365883
 20
37.49319692101125
 30
0.0
 40
0.5
 41
0.0
 71
     5
 72
     1
  1
\A1;7 1/2"\P [190.50mm]
 73
     1
 44
1.0
1001
ACAD
1000
MTEXTBEGIN
1070
    73
1070
     1
1070
    44
1040
1.0
1070
    74
1070
     0
1000
MTEXTEND
  0
POINT
  5
69DD
330
50DF
100
AcDbEntity
  8
DEFPOINTS
 62
     0
100
AcDbPoint
 10
31.15570279365884
 20
41.07751203441148
 30
0.0
  0
POINT
  5
69DE
330
50DF
100
AcDbEntity
  8
DEFPOINTS
 62
     0
100
AcDbPoint
 10
38.65570279365883
 20
41.07751203441148
 30
0.0
  0
POINT
  5
69DF
330
50DF
100
AcDbEntity
  8
DEFPOINTS
 62
     0
100
AcDbPoint
 10
38.65570279365883
 20
37.49319692101125
 30
0.0
  0
ENDBLK
  5
50EC
330
50DF
100
AcDbEntity
  8
0
100
AcDbBlockEnd
  0
BLOCK
  5
50FA
330
50EE
100
AcDbEntity
  8
0
100
AcDbBlockBegin
  2
*D12
 70
     1
 10
0.0
 20
0.0
 30
0.0
  3
*D12
  1

  0
LINE
  5
69E0
330
50EE
100
AcDbEntity
  8
0
 62
     0
100
AcDbLine
 10
41.40570279365883
 20
43.32612811074644
 30
0.0
 11
41.40570279365883
 21
33.76713959269473
 31
0.0
  0
LINE
  5
69E1
330
50EE
100
AcDbEntity
  8
0
 62
     0
100
AcDbLine
 10
28.78070279365884
 20
43.32612811074644
 30
0.0
 11
28.78070279365884
 21
33.76713959269473
 31
0.0
  0
LINE
  5
69E2
330
50EE
100
AcDbEntity
  8
0
 62
     0
100
AcDbLine
 10
40.68570279365883
 20
34.12713959269473
 30
0.0
 11
39.02638966936857
 21
34.12713959269473
 31
0.0
  0
LINE
  5
69E3
330
50EE
100
AcDbEntity
  8
0
 62
     0
100
AcDbLine
 10
29.50070279365884
 20
34.12713959269473
 30
0.0
 11
33.54638966936857
 21
34.12713959269473
 31
0.0
  0
SOLID
  5
69E4
330
50EE
100
AcDbEntity
  8
0
 62
     0
100
AcDbTrace
 10
40.68570279365883
 20
34.24713959269473
 30
0.0
 11
40.68570279365883
 21
34.00713959269474
 31
0.0
 12
41.40570279365883
 22
34.12713959269473
 32
0.0
 13
41.40570279365883
 23
34.12713959269473
 33
0.0
  0
SOLID
  5
69E5
330
50EE
100
AcDbEntity
  8
0
 62
     0
100
AcDbTrace
 10
29.50070279365884
 20
34.24713959269473
 30
0.0
 11
29.50070279365884
 21
34.00713959269474
 31
0.0
 12
28.78070279365884
 22
34.12713959269473
 32
0.0
 13
28.78070279365884
 23
34.12713959269473
 33
0.0
  0
MTEXT
  5
69E6
330
50EE
100
AcDbEntity
  8
0
 62
     0
100
AcDbMText
 10
36.28638966936857
 20
34.12713959269473
 30
0.0
 40
0.5
 41
0.0
 71
     5
 72
     1
  1
\A1;12 5/8"\P [320.68mm]
 73
     1
 44
1.0
1001
ACAD
1000
MTEXTBEGIN
1070
    73
1070
     1
1070
    44
1040
1.0
1070
    74
1070
     0
1000
MTEXTEND
  0
POINT
  5
69E7
330
50EE
100
AcDbEntity
  8
DEFPOINTS
 62
     0
100
AcDbPoint
 10
41.40570279365883
 20
43.68612811074644
 30
0.0
  0
POINT
  5
69E8
330
50EE
100
AcDbEntity
  8
DEFPOINTS
 62
     0
100
AcDbPoint
 10
28.78070279365884
 20
43.68612811074644
 30
0.0
  0
POINT
  5
69E9
330
50EE
100
AcDbEntity
  8
DEFPOINTS
 62
     0
100
AcDbPoint
 10
28.78070279365884
 20
34.12713959269473
 30
0.0
  0
ENDBLK
  5
50FB
330
50EE
100
AcDbEntity
  8
0
100
AcDbBlockEnd
  0
BLOCK
  5
5109
330
50FD
100
AcDbEntity
  8
0
100
AcDbBlockBegin
  2
*D13
 70
     1
 10
0.0
 20
0.0
 30
0.0
  3
*D13
  1

  0
LINE
  5
69EA
330
50FD
100
AcDbEntity
  8
0
 62
     0
100
AcDbLine
 10
41.40570279365883
 20
43.32612811074644
 30
0.0
 11
41.40570279365883
 21
37.13319692101125
 31
0.0
  0
LINE
  5
69EB
330
50FD
100
AcDbEntity
  8
0
 62
     0
100
AcDbLine
 10
38.65570279365883
 20
40.71751203441148
 30
0.0
 11
38.65570279365883
 21
37.13319692101125
 31
0.0
  0
LINE
  5
69EC
330
50FD
100
AcDbEntity
  8
0
 62
     0
100
AcDbLine
 10
39.37570279365883
 20
37.49319692101125
 30
0.0
 11
40.68570279365883
 21
37.49319692101125
 31
0.0
  0
LINE
  5
69ED
330
50FD
100
AcDbEntity
  8
0
 62
     0
100
AcDbLine
 10
41.40570279365883
 20
37.49319692101125
 30
0.0
 11
42.60063057127343
 21
37.49319692101125
 31
0.0
  0
SOLID
  5
69EE
330
50FD
100
AcDbEntity
  8
0
 62
     0
100
AcDbTrace
 10
39.37570279365883
 20
37.61319692101125
 30
0.0
 11
39.37570279365883
 21
37.37319692101125
 31
0.0
 12
38.65570279365883
 22
37.49319692101125
 32
0.0
 13
38.65570279365883
 23
37.49319692101125
 33
0.0
  0
SOLID
  5
69EF
330
50FD
100
AcDbEntity
  8
0
 62
     0
100
AcDbTrace
 10
40.68570279365883
 20
37.61319692101125
 30
0.0
 11
40.68570279365883
 21
37.37319692101125
 31
0.0
 12
41.40570279365883
 22
37.49319692101125
 32
0.0
 13
41.40570279365883
 23
37.49319692101125
 33
0.0
  0
MTEXT
  5
69F0
330
50FD
100
AcDbEntity
  8
0
 62
     0
100
AcDbMText
 10
45.10253533317819
 20
37.49319692101125
 30
0.0
 40
0.5
 41
0.0
 71
     5
 72
     1
  1
\A1;2 3/4"\P [69.85mm]
 73
     1
 44
1.0
1001
ACAD
1000
MTEXTBEGIN
1070
    73
1070
     1
1070
    44
1040
1.0
1070
    74
1070
     0
1000
MTEXTEND
  0
POINT
  5
69F1
330
50FD
100
AcDbEntity
  8
DEFPOINTS
 62
     0
100
AcDbPoint
 10
41.40570279365883
 20
43.68612811074644
 30
0.0
  0
POINT
  5
69F2
330
50FD
100
AcDbEntity
  8
DEFPOINTS
 62
     0
100
AcDbPoint
 10
38.65570279365883
 20
41.07751203441148
 30
0.0
  0
POINT
  5
69F3
330
50FD
100
AcDbEntity
  8
DEFPOINTS
 62
     0
100
AcDbPoint
 10
38.65570279365883
 20
37.49319692101125
 30
0.0
  0
ENDBLK
  5
510A
330
50FD
100
AcDbEntity
  8
0
100
AcDbBlockEnd
  0
BLOCK
  5
524A
330
523E
100
AcDbEntity
  8
0
100
AcDbBlockBegin
  2
*D14
 70
     1
 10
0.0
 20
0.0
 30
0.0
  3
*D14
  1

  0
LINE
  5
69F4
330
523E
100
AcDbEntity
  8
0
 62
     0
100
AcDbLine
 10
29.06070279365884
 20
62.55340627201514
 30
0.0
 11
29.06070279365884
 21
65.04208309118358
 31
0.0
  0
LINE
  5
69F5
330
523E
100
AcDbEntity
  8
0
 62
     0
100
AcDbLine
 10
40.75070279365883
 20
62.55340627201514
 30
0.0
 11
40.75070279365883
 21
65.04208309118358
 31
0.0
  0
LINE
  5
69F6
330
523E
100
AcDbEntity
  8
0
 62
     0
100
AcDbLine
 10
29.78070279365884
 20
64.68208309118359
 30
0.0
 11
32.16570279365884
 21
64.68208309118359
 31
0.0
  0
LINE
  5
69F7
330
523E
100
AcDbEntity
  8
0
 62
     0
100
AcDbLine
 10
40.03070279365883
 20
64.68208309118359
 30
0.0
 11
37.64570279365884
 21
64.68208309118359
 31
0.0
  0
SOLID
  5
69F8
330
523E
100
AcDbEntity
  8
0
 62
     0
100
AcDbTrace
 10
29.78070279365884
 20
64.80208309118359
 30
0.0
 11
29.78070279365884
 21
64.56208309118358
 31
0.0
 12
29.06070279365884
 22
64.68208309118359
 32
0.0
 13
29.06070279365884
 23
64.68208309118359
 33
0.0
  0
SOLID
  5
69F9
330
523E
100
AcDbEntity
  8
0
 62
     0
100
AcDbTrace
 10
40.03070279365883
 20
64.80208309118359
 30
0.0
 11
40.03070279365883
 21
64.56208309118358
 31
0.0
 12
40.75070279365883
 22
64.68208309118359
 32
0.0
 13
40.75070279365883
 23
64.68208309118359
 33
0.0
  0
MTEXT
  5
69FA
330
523E
100
AcDbEntity
  8
0
 62
     0
100
AcDbMText
 10
34.90570279365884
 20
64.68208309118359
 30
0.0
 40
0.5
 41
0.0
 71
     5
 72
     1
  1
\A1;11 11/16"\P [296.93mm]
 73
     1
 44
1.0
1001
ACAD
1000
MTEXTBEGIN
1070
    73
1070
     1
1070
    44
1040
1.0
1070
    74
1070
     0
1000
MTEXTEND
  0
POINT
  5
69FB
330
523E
100
AcDbEntity
  8
DEFPOINTS
 62
     0
100
AcDbPoint
 10
29.06070279365884
 20
62.19340627201514
 30
0.0
  0
POINT
  5
69FC
330
523E
100
AcDbEntity
  8
DEFPOINTS
 62
     0
100
AcDbPoint
 10
40.75070279365883
 20
62.19340627201514
 30
0.0
  0
POINT
  5
69FD
330
523E
100
AcDbEntity
  8
DEFPOINTS
 62
     0
100
AcDbPoint
 10
40.75070279365883
 20
64.68208309118359
 30
0.0
  0
ENDBLK
  5
524B
330
523E
100
AcDbEntity
  8
0
100
AcDbBlockEnd
  0
BLOCK
  5
5D12
330
5D06
100
AcDbEntity
  8
0
100
AcDbBlockBegin
  2
*D15
 70
     1
 10
0.0
 20
0.0
 30
0.0
  3
*D15
  1

  0
LINE
  5
69FE
330
5D06
100
AcDbEntity
  8
0
 62
     0
100
AcDbLine
 10
42.48407657244511
 20
61.55998667274291
 30
0.0
 11
42.48407657244511
 21
65.04208309118358
 31
0.0
  0
LINE
  5
69FF
330
5D06
100
AcDbEntity
  8
0
 62
     0
100
AcDbLine
 10
40.03070279365883
 20
64.68208309118359
 30
0.0
 11
39.31070279365883
 21
64.68208309118359
 31
0.0
  0
LINE
  5
6A00
330
5D06
100
AcDbEntity
  8
0
 62
     0
100
AcDbLine
 10
43.20407657244511
 20
64.68208309118359
 30
0.0
 11
43.9240765724451
 21
64.68208309118359
 31
0.0
  0
SOLID
  5
6A01
330
5D06
100
AcDbEntity
  8
0
 62
     0
100
AcDbTrace
 10
40.03070279365883
 20
64.80208309118359
 30
0.0
 11
40.03070279365883
 21
64.56208309118358
 31
0.0
 12
40.75070279365883
 22
64.68208309118359
 32
0.0
 13
40.75070279365883
 23
64.68208309118359
 33
0.0
  0
SOLID
  5
6A02
330
5D06
100
AcDbEntity
  8
0
 62
     0
100
AcDbTrace
 10
43.20407657244511
 20
64.80208309118359
 30
0.0
 11
43.20407657244511
 21
64.56208309118358
 31
0.0
 12
42.48407657244511
 22
64.68208309118359
 32
0.0
 13
42.48407657244511
 23
64.68208309118359
 33
0.0
  0
MTEXT
  5
6A03
330
5D06
100
AcDbEntity
  8
0
 62
     0
100
AcDbMText
 10
46.17598133434987
 20
65.30303547213596
 30
0.0
 40
0.5
 41
0.0
 71
     5
 72
     1
  1
\A1;1 3/4"
 73
     1
 44
1.0
1001
ACAD
1000
MTEXTBEGIN
1070
    73
1070
     1
1070
    44
1040
1.0
1070
    74
1070
     0
1000
MTEXTEND
  0
MTEXT
  5
6A04
330
5D06
100
AcDbEntity
  8
0
 62
     0
100
AcDbMText
 10
46.17598133434987
 20
64.06113071023121
 30
0.0
 40
0.5
 41
0.0
 71
     5
 72
     1
  1
\A1;[44.03mm]
 73
     1
 44
1.0
1001
ACAD
1000
MTEXTBEGIN
1070
    73
1070
     1
1070
    44
1040
1.0
1070
    74
1070
     0
1000
MTEXTEND
  0
POINT
  5
6A05
330
5D06
100
AcDbEntity
  8
DEFPOINTS
 62
     0
100
AcDbPoint
 10
40.75070279365883
 20
60.61937811074644
 30
0.0
  0
POINT
  5
6A06
330
5D06
100
AcDbEntity
  8
DEFPOINTS
 62
     0
100
AcDbPoint
 10
42.48407657244511
 20
61.19998667274291
 30
0.0
  0
POINT
  5
6A07
330
5D06
100
AcDbEntity
  8
DEFPOINTS
 62
     0
100
AcDbPoint
 10
42.48407657244511
 20
64.68208309118359
 30
0.0
  0
ENDBLK
  5
5D13
330
5D06
100
AcDbEntity
  8
0
100
AcDbBlockEnd
  0
ENDSEC
  0
SECTION
  2
ENTITIES
  0
ARC
  5
161
330
1F
100
AcDbEntity
  8
0
  6
Continuous
 62
     7
100
AcDbCircle
 10
42.51570267846702
 20
53.68437783638327
 30
0.0
 40
0.0300000000000047
100
AcDbArc
 50
83.42170942186148
 51
180.0
  0
ARC
  5
162
330
1F
100
AcDbEntity
  8
0
  6
Continuous
 62
     7
100
AcDbCircle
 10
42.51570267846702
 20
52.83437783638327
 30
0.0
 40
0.0299999999999994
100
AcDbArc
 50
180.0
 51
276.578290578141
  0
ARC
  5
163
330
1F
100
AcDbEntity
  8
0
  6
Continuous
 62
     7
100
AcDbCircle
 10
42.49049931293324
 20
53.4658262626855
 30
0.0
 40
0.2500000000000057
100
AcDbArc
 50
25.73479993317415
 51
83.42170942185738
  0
ARC
  5
164
330
1F
100
AcDbEntity
  8
0
  6
Continuous
 62
     7
100
AcDbCircle
 10
42.49049931293324
 20
53.05292941008104
 30
0.0
 40
0.2500000000000031
100
AcDbArc
 50
276.5782905781434
 51
334.2652000668284
  0
SPLINE
  5
16D
330
1F
100
AcDbEntity
  8
0
  6
Continuous
 62
     7
100
AcDbSpline
210
0.0
220
0.0
230
1.0
 70
    24
 71
     1
 72
     4
 73
     2
 74
     0
 42
0.0000000001
 43
0.0000000001
 40
0.0
 40
0.0
 40
1.0
 40
1.0
 10
27.25570289191736
 20
45.94937799574239
 30
0.0
 10
27.25570289191736
 20
45.6993775771019
 30
0.0
  0
SPLINE
  5
16E
330
1F
100
AcDbEntity
  8
0
  6
Continuous
 62
     7
100
AcDbSpline
210
0.0
220
0.0
230
1.0
 70
    24
 71
     1
 72
     4
 73
     2
 74
     0
 42
0.0000000001
 43
0.0000000001
 40
0.0
 40
0.0
 40
1.0
 40
1.0
 10
27.25570289191736
 20
46.94937791032471
 30
0.0
 10
27.25570289191736
 20
46.6993780783441
 30
0.0
  0
SPLINE
  5
16F
330
1F
100
AcDbEntity
  8
0
  6
Continuous
 62
     7
100
AcDbSpline
210
0.0
220
0.0
230
1.0
 70
    24
 71
     1
 72
     4
 73
     2
 74
     0
 42
0.0000000001
 43
0.0000000001
 40
0.0
 40
0.0
 40
1.0
 40
1.0
 10
27.25570289191736
 20
54.94937781364317
 30
0.0
 10
27.25570289191736
 20
54.69937783499759
 30
0.0
  0
SPLINE
  5
170
330
1F
100
AcDbEntity
  8
0
  6
Continuous
 62
     7
100
AcDbSpline
210
0.0
220
0.0
230
1.0
 70
    24
 71
     1
 72
     4
 73
     2
 74
     0
 42
0.0000000001
 43
0.0000000001
 40
0.0
 40
0.0
 40
1.0
 40
1.0
 10
27.25570289191736
 20
46.4493776597036
 30
0.0
 10
27.25570289191736
 20
46.199377827723
 30
0.0
  0
SPLINE
  5
171
330
1F
100
AcDbEntity
  8
0
  6
Continuous
 62
     7
100
AcDbSpline
210
0.0
220
0.0
230
1.0
 70
    24
 71
     1
 72
     4
 73
     2
 74
     0
 42
0.0000000001
 43
0.0000000001
 40
0.0
 40
0.0
 40
1.0
 40
1.0
 10
27.25570289191736
 20
55.44937777093433
 30
0.0
 10
27.25570289191736
 20
55.19937793895372
 30
0.0
  0
SPLINE
  5
172
330
1F
100
AcDbEntity
  8
0
  6
Continuous
 62
     7
100
AcDbSpline
210
0.0
220
0.0
230
1.0
 70
    24
 71
     1
 72
     4
 73
     2
 74
     0
 42
0.0000000001
 43
0.0000000001
 40
0.0
 40
0.0
 40
1.0
 40
1.0
 10
27.25570289191736
 20
50.94937786198394
 30
0.0
 10
27.25570289191736
 20
50.69937788333835
 30
0.0
  0
SPLINE
  5
173
330
1F
100
AcDbEntity
  8
0
  6
Continuous
 62
     7
100
AcDbSpline
210
0.0
220
0.0
230
1.0
 70
    24
 71
     1
 72
     4
 73
     2
 74
     0
 42
0.0000000001
 43
0.0000000001
 40
0.0
 40
0.0
 40
1.0
 40
1.0
 10
27.25570289191736
 20
55.94937772822548
 30
0.0
 10
27.25570289191736
 20
55.69937789624487
 30
0.0
  0
SPLINE
  5
174
330
1F
100
AcDbEntity
  8
0
  6
Continuous
 62
     7
100
AcDbSpline
210
0.0
220
0.0
230
1.0
 70
    24
 71
     1
 72
     4
 73
     2
 74
     0
 42
0.0000000001
 43
0.0000000001
 40
0.0
 40
0.0
 40
1.0
 40
1.0
 10
27.25570289191736
 20
45.44937774512129
 30
0.0
 10
27.25570289191736
 20
45.19937791314068
 30
0.0
  0
SPLINE
  5
175
330
1F
100
AcDbEntity
  8
0
  6
Continuous
 62
     7
100
AcDbSpline
210
0.0
220
0.0
230
1.0
 70
    24
 71
     1
 72
     4
 73
     2
 74
     0
 42
0.0000000001
 43
0.0000000001
 40
0.0
 40
0.0
 40
1.0
 40
1.0
 10
27.25570289191736
 20
59.94937797321465
 30
0.0
 10
27.25570289191736
 20
59.69937755457415
 30
0.0
  0
SPLINE
  5
176
330
1F
100
AcDbEntity
  8
0
  6
Continuous
 62
     7
100
AcDbSpline
210
0.0
220
0.0
230
1.0
 70
    24
 71
     1
 72
     4
 73
     2
 74
     0
 42
0.0000000001
 43
0.0000000001
 40
0.0
 40
0.0
 40
1.0
 40
1.0
 10
27.25570289191736
 20
59.44937772259355
 30
0.0
 10
27.25570289191736
 20
59.19937789061294
 30
0.0
  0
SPLINE
  5
177
330
1F
100
AcDbEntity
  8
0
  6
Continuous
 62
     7
100
AcDbSpline
210
0.0
220
0.0
230
1.0
 70
    24
 71
     1
 72
     4
 73
     2
 74
     0
 42
0.0000000001
 43
0.0000000001
 40
0.0
 40
0.0
 40
1.0
 40
1.0
 10
27.25570289191736
 20
50.44937775802781
 30
0.0
 10
27.25570289191736
 20
50.19937777938222
 30
0.0
  0
SPLINE
  5
178
330
1F
100
AcDbEntity
  8
0
  6
Continuous
 62
     7
100
AcDbSpline
210
0.0
220
0.0
230
1.0
 70
    24
 71
     1
 72
     4
 73
     2
 74
     0
 42
0.0000000001
 43
0.0000000001
 40
0.0
 40
0.0
 40
1.0
 40
1.0
 10
27.25570289191736
 20
51.44937781927509
 30
0.0
 10
27.25570289191736
 20
51.19937784062952
 30
0.0
  0
SPLINE
  5
179
330
1F
100
AcDbEntity
  8
0
  6
Continuous
 62
     7
100
AcDbSpline
210
0.0
220
0.0
230
1.0
 70
    24
 71
     1
 72
     4
 73
     2
 74
     0
 42
0.0000000001
 43
0.0000000001
 40
0.0
 40
0.0
 40
1.0
 40
1.0
 10
27.25570289191736
 20
60.44937763717587
 30
0.0
 10
27.25570289191736
 20
60.19937780519526
 30
0.0
  0
SPLINE
  5
17A
330
1F
100
AcDbEntity
  8
0
  6
Continuous
 62
     7
100
AcDbSpline
210
0.0
220
0.0
230
1.0
 70
    24
 71
     1
 72
     4
 73
     2
 74
     0
 42
0.0000000001
 43
0.0000000001
 40
0.0
 40
0.0
 40
1.0
 40
1.0
 10
27.25570289191736
 20
51.9493778132325
 30
0.0
 10
27.25570289191736
 20
51.69937779792068
 30
0.0
  0
SPLINE
  5
17B
330
1F
100
AcDbEntity
  8
0
  6
Continuous
 62
     7
100
AcDbSpline
210
0.0
220
0.0
230
1.0
 70
    24
 71
     1
 72
     4
 73
     2
 74
     0
 42
0.0000000001
 43
0.0000000001
 40
0.0
 40
0.0
 40
1.0
 40
1.0
 10
27.25570289191736
 20
56.94937793613775
 30
0.0
 10
27.25570289191736
 20
56.6993778108272
 30
0.0
  0
SPLINE
  5
17C
330
1F
100
AcDbEntity
  8
0
  6
Continuous
 62
     7
100
AcDbSpline
210
0.0
220
0.0
230
1.0
 70
    24
 71
     1
 72
     4
 73
     2
 74
     0
 42
0.0000000001
 43
0.0000000001
 40
0.0
 40
0.0
 40
1.0
 40
1.0
 10
27.25570289191736
 20
57.94937755739013
 30
0.0
 10
27.25570289191736
 20
57.69937772540952
 30
0.0
  0
SPLINE
  5
17D
330
1F
100
AcDbEntity
  8
0
  6
Continuous
 62
     7
100
AcDbSpline
210
0.0
220
0.0
230
1.0
 70
    24
 71
     1
 72
     4
 73
     2
 74
     0
 42
0.0000000001
 43
0.0000000001
 40
0.0
 40
0.0
 40
1.0
 40
1.0
 10
27.25570289191736
 20
47.44937786761587
 30
0.0
 10
27.25570289191736
 20
47.19937774230532
 30
0.0
  0
SPLINE
  5
17E
330
1F
100
AcDbEntity
  8
0
  6
Continuous
 62
     7
100
AcDbSpline
210
0.0
220
0.0
230
1.0
 70
    24
 71
     1
 72
     4
 73
     2
 74
     0
 42
0.0000000001
 43
0.0000000001
 40
0.0
 40
0.0
 40
1.0
 40
1.0
 10
27.25570289191736
 20
60.94937788779698
 30
0.0
 10
27.25570289191736
 20
60.69937805581637
 30
0.0
  0
SPLINE
  5
17F
330
1F
100
AcDbEntity
  8
0
  6
Continuous
 62
     7
100
AcDbSpline
210
0.0
220
0.0
230
1.0
 70
    24
 71
     1
 72
     4
 73
     2
 74
     0
 42
0.0000000001
 43
0.0000000001
 40
0.0
 40
0.0
 40
1.0
 40
1.0
 10
27.25570289191736
 20
48.44937778219819
 30
0.0
 10
27.25570289191736
 20
48.19937795021759
 30
0.0
  0
SPLINE
  5
180
330
1F
100
AcDbEntity
  8
0
  6
Continuous
 62
     7
100
AcDbSpline
210
0.0
220
0.0
230
1.0
 70
    24
 71
     1
 72
     4
 73
     2
 74
     0
 42
0.0000000001
 43
0.0000000001
 40
0.0
 40
0.0
 40
1.0
 40
1.0
 10
27.25570289191736
 20
57.44937789342891
 30
0.0
 10
27.25570289191736
 20
57.19937776811836
 30
0.0
  0
SPLINE
  5
181
330
1F
100
AcDbEntity
  8
0
  6
Continuous
 62
     7
100
AcDbSpline
210
0.0
220
0.0
230
1.0
 70
    24
 71
     1
 72
     4
 73
     2
 74
     0
 42
0.0000000001
 43
0.0000000001
 40
0.0
 40
0.0
 40
1.0
 40
1.0
 10
27.25570289191736
 20
47.94937782490703
 30
0.0
 10
27.25570289191736
 20
47.69937769959648
 30
0.0
  0
SPLINE
  5
182
330
1F
100
AcDbEntity
  8
0
  6
Continuous
 62
     7
100
AcDbSpline
210
0.0
220
0.0
230
1.0
 70
    24
 71
     1
 72
     4
 73
     2
 74
     0
 42
0.0000000001
 43
0.0000000001
 40
0.0
 40
0.0
 40
1.0
 40
1.0
 10
27.25570289191736
 20
48.94937773948935
 30
0.0
 10
27.25570289191736
 20
48.69937790750874
 30
0.0
  0
SPLINE
  5
183
330
1F
100
AcDbEntity
  8
0
  6
Continuous
 62
     7
100
AcDbSpline
210
0.0
220
0.0
230
1.0
 70
    24
 71
     1
 72
     4
 73
     2
 74
     0
 42
0.0000000001
 43
0.0000000001
 40
0.0
 40
0.0
 40
1.0
 40
1.0
 10
27.25570289191736
 20
49.44937769678052
 30
0.0
 10
27.25570289191736
 20
49.19937786479991
 30
0.0
  0
SPLINE
  5
184
330
1F
100
AcDbEntity
  8
0
  6
Continuous
 62
     7
100
AcDbSpline
210
0.0
220
0.0
230
1.0
 70
    24
 71
     1
 72
     4
 73
     2
 74
     0
 42
0.0000000001
 43
0.0000000001
 40
0.0
 40
0.0
 40
1.0
 40
1.0
 10
27.25570289191736
 20
58.44937780801123
 30
0.0
 10
27.25570289191736
 20
58.19937797603063
 30
0.0
  0
SPLINE
  5
185
330
1F
100
AcDbEntity
  8
0
  6
Continuous
 62
     7
100
AcDbSpline
210
0.0
220
0.0
230
1.0
 70
    24
 71
     1
 72
     4
 73
     2
 74
     0
 42
0.0000000001
 43
0.0000000001
 40
0.0
 40
0.0
 40
1.0
 40
1.0
 10
27.25570289191736
 20
49.94937780073665
 30
0.0
 10
27.25570289191736
 20
49.69937782209107
 30
0.0
  0
SPLINE
  5
186
330
1F
100
AcDbEntity
  8
0
  6
Continuous
 62
     7
100
AcDbSpline
210
0.0
220
0.0
230
1.0
 70
    24
 71
     1
 72
     4
 73
     2
 74
     0
 42
0.0000000001
 43
0.0000000001
 40
0.0
 40
0.0
 40
1.0
 40
1.0
 10
27.25570289191736
 20
56.44937768551664
 30
0.0
 10
27.25570289191736
 20
56.19937785353603
 30
0.0
  0
SPLINE
  5
187
330
1F
100
AcDbEntity
  8
0
  6
Continuous
 62
     7
100
AcDbSpline
210
0.0
220
0.0
230
1.0
 70
    24
 71
     1
 72
     4
 73
     2
 74
     0
 42
0.0000000001
 43
0.0000000001
 40
0.0
 40
0.0
 40
1.0
 40
1.0
 10
27.25570289191736
 20
52.44937783468959
 30
0.0
 10
27.25570289191736
 20
52.19937782854433
 30
0.0
  0
SPLINE
  5
188
330
1F
100
AcDbEntity
  8
0
  6
Continuous
 62
     7
100
AcDbSpline
210
0.0
220
0.0
230
1.0
 70
    24
 71
     1
 72
     4
 73
     2
 74
     0
 42
0.0000000001
 43
0.0000000001
 40
0.0
 40
0.0
 40
1.0
 40
1.0
 10
27.25570289191736
 20
52.94937783781355
 30
0.0
 10
27.25570289191736
 20
52.69937782250173
 30
0.0
  0
SPLINE
  5
189
330
1F
100
AcDbEntity
  8
0
  6
Continuous
 62
     7
100
AcDbSpline
210
0.0
220
0.0
230
1.0
 70
    24
 71
     1
 72
     4
 73
     2
 74
     0
 42
0.0000000001
 43
0.0000000001
 40
0.0
 40
0.0
 40
1.0
 40
1.0
 10
27.25570289191736
 20
53.44937779510471
 30
0.0
 10
27.25570289191736
 20
53.19937781645913
 30
0.0
  0
SPLINE
  5
18A
330
1F
100
AcDbEntity
  8
0
  6
Continuous
 62
     7
100
AcDbSpline
210
0.0
220
0.0
230
1.0
 70
    24
 71
     1
 72
     4
 73
     2
 74
     0
 42
0.0000000001
 43
0.0000000001
 40
0.0
 40
0.0
 40
1.0
 40
1.0
 10
27.25570289191736
 20
54.449377856352
 30
0.0
 10
27.25570289191736
 20
54.19937787770642
 30
0.0
  0
SPLINE
  5
18B
330
1F
100
AcDbEntity
  8
0
  6
Continuous
 62
     7
100
AcDbSpline
210
0.0
220
0.0
230
1.0
 70
    24
 71
     1
 72
     4
 73
     2
 74
     0
 42
0.0000000001
 43
0.0000000001
 40
0.0
 40
0.0
 40
1.0
 40
1.0
 10
27.25570289191736
 20
58.94937805863233
 30
0.0
 10
27.25570289191736
 20
58.69937763999184
 30
0.0
  0
SPLINE
  5
18C
330
1F
100
AcDbEntity
  8
0
  6
Continuous
 62
     7
100
AcDbSpline
210
0.0
220
0.0
230
1.0
 70
    24
 71
     1
 72
     4
 73
     2
 74
     0
 42
0.0000000001
 43
0.0000000001
 40
0.0
 40
0.0
 40
1.0
 40
1.0
 10
27.25570289191736
 20
53.94937789906084
 30
0.0
 10
27.25570289191736
 20
53.69937777375029
 30
0.0
  0
SPLINE
  5
18D
330
1F
100
AcDbEntity
  8
0
  6
Continuous
 62
     7
100
AcDbSpline
210
0.0
220
0.0
230
1.0
 70
    24
 71
     1
 72
     4
 73
     2
 74
     0
 42
0.0000000001
 43
0.0000000001
 40
0.0
 40
0.0
 40
1.0
 40
1.0
 10
27.25570289191736
 20
58.69937763999184
 30
0.0
 10
27.25570289191736
 20
58.44937780801123
 30
0.0
  0
SPLINE
  5
18E
330
1F
100
AcDbEntity
  8
0
  6
Continuous
 62
     7
100
AcDbSpline
210
0.0
220
0.0
230
1.0
 70
    24
 71
     1
 72
     4
 73
     2
 74
     0
 42
0.0000000001
 43
0.0000000001
 40
0.0
 40
0.0
 40
1.0
 40
1.0
 10
27.25570289191736
 20
52.19937782854433
 30
0.0
 10
27.25570289191736
 20
51.9493778132325
 30
0.0
  0
SPLINE
  5
18F
330
1F
100
AcDbEntity
  8
0
  6
Continuous
 62
     7
100
AcDbSpline
210
0.0
220
0.0
230
1.0
 70
    24
 71
     1
 72
     4
 73
     2
 74
     0
 42
0.0000000001
 43
0.0000000001
 40
0.0
 40
0.0
 40
1.0
 40
1.0
 10
27.25570289191736
 20
57.69937772540952
 30
0.0
 10
27.25570289191736
 20
57.44937789342891
 30
0.0
  0
SPLINE
  5
190
330
1F
100
AcDbEntity
  8
0
  6
Continuous
 62
     7
100
AcDbSpline
210
0.0
220
0.0
230
1.0
 70
    24
 71
     1
 72
     4
 73
     2
 74
     0
 42
0.0000000001
 43
0.0000000001
 40
0.0
 40
0.0
 40
1.0
 40
1.0
 10
27.25570289191736
 20
52.69937782250173
 30
0.0
 10
27.25570289191736
 20
52.44937783468959
 30
0.0
  0
SPLINE
  5
191
330
1F
100
AcDbEntity
  8
0
  6
Continuous
 62
     7
100
AcDbSpline
210
0.0
220
0.0
230
1.0
 70
    24
 71
     1
 72
     4
 73
     2
 74
     0
 42
0.0000000001
 43
0.0000000001
 40
0.0
 40
0.0
 40
1.0
 40
1.0
 10
27.25570289191736
 20
56.6993778108272
 30
0.0
 10
27.25570289191736
 20
56.44937768551664
 30
0.0
  0
SPLINE
  5
192
330
1F
100
AcDbEntity
  8
0
  6
Continuous
 62
     7
100
AcDbSpline
210
0.0
220
0.0
230
1.0
 70
    24
 71
     1
 72
     4
 73
     2
 74
     0
 42
0.0000000001
 43
0.0000000001
 40
0.0
 40
0.0
 40
1.0
 40
1.0
 10
27.25570289191736
 20
57.19937776811836
 30
0.0
 10
27.25570289191736
 20
56.94937793613775
 30
0.0
  0
SPLINE
  5
193
330
1F
100
AcDbEntity
  8
0
  6
Continuous
 62
     7
100
AcDbSpline
210
0.0
220
0.0
230
1.0
 70
    24
 71
     1
 72
     4
 73
     2
 74
     0
 42
0.0000000001
 43
0.0000000001
 40
0.0
 40
0.0
 40
1.0
 40
1.0
 10
27.25570289191736
 20
51.19937784062952
 30
0.0
 10
27.25570289191736
 20
50.94937786198394
 30
0.0
  0
SPLINE
  5
194
330
1F
100
AcDbEntity
  8
0
  6
Continuous
 62
     7
100
AcDbSpline
210
0.0
220
0.0
230
1.0
 70
    24
 71
     1
 72
     4
 73
     2
 74
     0
 42
0.0000000001
 43
0.0000000001
 40
0.0
 40
0.0
 40
1.0
 40
1.0
 10
27.25570289191736
 20
49.69937782209107
 30
0.0
 10
27.25570289191736
 20
49.44937769678052
 30
0.0
  0
SPLINE
  5
195
330
1F
100
AcDbEntity
  8
0
  6
Continuous
 62
     7
100
AcDbSpline
210
0.0
220
0.0
230
1.0
 70
    24
 71
     1
 72
     4
 73
     2
 74
     0
 42
0.0000000001
 43
0.0000000001
 40
0.0
 40
0.0
 40
1.0
 40
1.0
 10
27.25570289191736
 20
58.19937797603063
 30
0.0
 10
27.25570289191736
 20
57.94937755739013
 30
0.0
  0
SPLINE
  5
196
330
1F
100
AcDbEntity
  8
0
  6
Continuous
 62
     7
100
AcDbSpline
210
0.0
220
0.0
230
1.0
 70
    24
 71
     1
 72
     4
 73
     2
 74
     0
 42
0.0000000001
 43
0.0000000001
 40
0.0
 40
0.0
 40
1.0
 40
1.0
 10
27.25570289191736
 20
47.19937774230532
 30
0.0
 10
27.25570289191736
 20
46.94937791032471
 30
0.0
  0
SPLINE
  5
197
330
1F
100
AcDbEntity
  8
0
  6
Continuous
 62
     7
100
AcDbSpline
210
0.0
220
0.0
230
1.0
 70
    24
 71
     1
 72
     4
 73
     2
 74
     0
 42
0.0000000001
 43
0.0000000001
 40
0.0
 40
0.0
 40
1.0
 40
1.0
 10
27.25570289191736
 20
54.19937787770642
 30
0.0
 10
27.25570289191736
 20
53.94937789906084
 30
0.0
  0
SPLINE
  5
198
330
1F
100
AcDbEntity
  8
0
  6
Continuous
 62
     7
100
AcDbSpline
210
0.0
220
0.0
230
1.0
 70
    24
 71
     1
 72
     4
 73
     2
 74
     0
 42
0.0000000001
 43
0.0000000001
 40
0.0
 40
0.0
 40
1.0
 40
1.0
 10
27.25570289191736
 20
60.69937805581637
 30
0.0
 10
27.25570289191736
 20
60.44937763717587
 30
0.0
  0
SPLINE
  5
199
330
1F
100
AcDbEntity
  8
0
  6
Continuous
 62
     7
100
AcDbSpline
210
0.0
220
0.0
230
1.0
 70
    24
 71
     1
 72
     4
 73
     2
 74
     0
 42
0.0000000001
 43
0.0000000001
 40
0.0
 40
0.0
 40
1.0
 40
1.0
 10
27.25570289191736
 20
56.19937785353603
 30
0.0
 10
27.25570289191736
 20
55.94937772822548
 30
0.0
  0
SPLINE
  5
19A
330
1F
100
AcDbEntity
  8
0
  6
Continuous
 62
     7
100
AcDbSpline
210
0.0
220
0.0
230
1.0
 70
    24
 71
     1
 72
     4
 73
     2
 74
     0
 42
0.0000000001
 43
0.0000000001
 40
0.0
 40
0.0
 40
1.0
 40
1.0
 10
27.25570289191736
 20
53.69937777375029
 30
0.0
 10
27.25570289191736
 20
53.44937779510471
 30
0.0
  0
SPLINE
  5
19B
330
1F
100
AcDbEntity
  8
0
  6
Continuous
 62
     7
100
AcDbSpline
210
0.0
220
0.0
230
1.0
 70
    24
 71
     1
 72
     4
 73
     2
 74
     0
 42
0.0000000001
 43
0.0000000001
 40
0.0
 40
0.0
 40
1.0
 40
1.0
 10
27.25570289191736
 20
53.19937781645913
 30
0.0
 10
27.25570289191736
 20
52.94937783781355
 30
0.0
  0
SPLINE
  5
19C
330
1F
100
AcDbEntity
  8
0
  6
Continuous
 62
     7
100
AcDbSpline
210
0.0
220
0.0
230
1.0
 70
    24
 71
     1
 72
     4
 73
     2
 74
     0
 42
0.0000000001
 43
0.0000000001
 40
0.0
 40
0.0
 40
1.0
 40
1.0
 10
27.25570289191736
 20
51.69937779792068
 30
0.0
 10
27.25570289191736
 20
51.44937781927509
 30
0.0
  0
SPLINE
  5
19D
330
1F
100
AcDbEntity
  8
0
  6
Continuous
 62
     7
100
AcDbSpline
210
0.0
220
0.0
230
1.0
 70
    24
 71
     1
 72
     4
 73
     2
 74
     0
 42
0.0000000001
 43
0.0000000001
 40
0.0
 40
0.0
 40
1.0
 40
1.0
 10
27.25570289191736
 20
45.6993775771019
 30
0.0
 10
27.25570289191736
 20
45.44937774512129
 30
0.0
  0
SPLINE
  5
19E
330
1F
100
AcDbEntity
  8
0
  6
Continuous
 62
     7
100
AcDbSpline
210
0.0
220
0.0
230
1.0
 70
    24
 71
     1
 72
     4
 73
     2
 74
     0
 42
0.0000000001
 43
0.0000000001
 40
0.0
 40
0.0
 40
1.0
 40
1.0
 10
27.25570289191736
 20
59.19937789061294
 30
0.0
 10
27.25570289191736
 20
58.94937805863233
 30
0.0
  0
SPLINE
  5
19F
330
1F
100
AcDbEntity
  8
0
  6
Continuous
 62
     7
100
AcDbSpline
210
0.0
220
0.0
230
1.0
 70
    24
 71
     1
 72
     4
 73
     2
 74
     0
 42
0.0000000001
 43
0.0000000001
 40
0.0
 40
0.0
 40
1.0
 40
1.0
 10
27.25570289191736
 20
49.19937786479991
 30
0.0
 10
27.25570289191736
 20
48.94937773948935
 30
0.0
  0
SPLINE
  5
1A0
330
1F
100
AcDbEntity
  8
0
  6
Continuous
 62
     7
100
AcDbSpline
210
0.0
220
0.0
230
1.0
 70
    24
 71
     1
 72
     4
 73
     2
 74
     0
 42
0.0000000001
 43
0.0000000001
 40
0.0
 40
0.0
 40
1.0
 40
1.0
 10
27.25570289191736
 20
47.69937769959648
 30
0.0
 10
27.25570289191736
 20
47.44937786761587
 30
0.0
  0
SPLINE
  5
1A1
330
1F
100
AcDbEntity
  8
0
  6
Continuous
 62
     7
100
AcDbSpline
210
0.0
220
0.0
230
1.0
 70
    24
 71
     1
 72
     4
 73
     2
 74
     0
 42
0.0000000001
 43
0.0000000001
 40
0.0
 40
0.0
 40
1.0
 40
1.0
 10
27.25570289191736
 20
46.6993780783441
 30
0.0
 10
27.25570289191736
 20
46.4493776597036
 30
0.0
  0
SPLINE
  5
1A2
330
1F
100
AcDbEntity
  8
0
  6
Continuous
 62
     7
100
AcDbSpline
210
0.0
220
0.0
230
1.0
 70
    24
 71
     1
 72
     4
 73
     2
 74
     0
 42
0.0000000001
 43
0.0000000001
 40
0.0
 40
0.0
 40
1.0
 40
1.0
 10
27.25570289191736
 20
50.19937777938222
 30
0.0
 10
27.25570289191736
 20
49.94937780073665
 30
0.0
  0
SPLINE
  5
1A3
330
1F
100
AcDbEntity
  8
0
  6
Continuous
 62
     7
100
AcDbSpline
210
0.0
220
0.0
230
1.0
 70
    24
 71
     1
 72
     4
 73
     2
 74
     0
 42
0.0000000001
 43
0.0000000001
 40
0.0
 40
0.0
 40
1.0
 40
1.0
 10
27.25570289191736
 20
54.69937783499759
 30
0.0
 10
27.25570289191736
 20
54.449377856352
 30
0.0
  0
SPLINE
  5
1A4
330
1F
100
AcDbEntity
  8
0
  6
Continuous
 62
     7
100
AcDbSpline
210
0.0
220
0.0
230
1.0
 70
    24
 71
     1
 72
     4
 73
     2
 74
     0
 42
0.0000000001
 43
0.0000000001
 40
0.0
 40
0.0
 40
1.0
 40
1.0
 10
27.25570289191736
 20
48.69937790750874
 30
0.0
 10
27.25570289191736
 20
48.44937778219819
 30
0.0
  0
SPLINE
  5
1A5
330
1F
100
AcDbEntity
  8
0
  6
Continuous
 62
     7
100
AcDbSpline
210
0.0
220
0.0
230
1.0
 70
    24
 71
     1
 72
     4
 73
     2
 74
     0
 42
0.0000000001
 43
0.0000000001
 40
0.0
 40
0.0
 40
1.0
 40
1.0
 10
27.25570289191736
 20
48.19937795021759
 30
0.0
 10
27.25570289191736
 20
47.94937782490703
 30
0.0
  0
SPLINE
  5
1A6
330
1F
100
AcDbEntity
  8
0
  6
Continuous
 62
     7
100
AcDbSpline
210
0.0
220
0.0
230
1.0
 70
    24
 71
     1
 72
     4
 73
     2
 74
     0
 42
0.0000000001
 43
0.0000000001
 40
0.0
 40
0.0
 40
1.0
 40
1.0
 10
27.25570289191736
 20
55.69937789624487
 30
0.0
 10
27.25570289191736
 20
55.44937777093433
 30
0.0
  0
SPLINE
  5
1A7
330
1F
100
AcDbEntity
  8
0
  6
Continuous
 62
     7
100
AcDbSpline
210
0.0
220
0.0
230
1.0
 70
    24
 71
     1
 72
     4
 73
     2
 74
     0
 42
0.0000000001
 43
0.0000000001
 40
0.0
 40
0.0
 40
1.0
 40
1.0
 10
27.25570289191736
 20
60.19937780519526
 30
0.0
 10
27.25570289191736
 20
59.94937797321465
 30
0.0
  0
SPLINE
  5
1A8
330
1F
100
AcDbEntity
  8
0
  6
Continuous
 62
     7
100
AcDbSpline
210
0.0
220
0.0
230
1.0
 70
    24
 71
     1
 72
     4
 73
     2
 74
     0
 42
0.0000000001
 43
0.0000000001
 40
0.0
 40
0.0
 40
1.0
 40
1.0
 10
27.25570289191736
 20
45.19937791314068
 30
0.0
 10
27.25570289191736
 20
44.94937808116008
 30
0.0
  0
SPLINE
  5
1A9
330
1F
100
AcDbEntity
  8
0
  6
Continuous
 62
     7
100
AcDbSpline
210
0.0
220
0.0
230
1.0
 70
    24
 71
     1
 72
     4
 73
     2
 74
     0
 42
0.0000000001
 43
0.0000000001
 40
0.0
 40
0.0
 40
1.0
 40
1.0
 10
27.25570289191736
 20
59.69937755457415
 30
0.0
 10
27.25570289191736
 20
59.44937772259355
 30
0.0
  0
SPLINE
  5
1AA
330
1F
100
AcDbEntity
  8
0
  6
Continuous
 62
     7
100
AcDbSpline
210
0.0
220
0.0
230
1.0
 70
    24
 71
     1
 72
     4
 73
     2
 74
     0
 42
0.0000000001
 43
0.0000000001
 40
0.0
 40
0.0
 40
1.0
 40
1.0
 10
27.25570289191736
 20
46.199377827723
 30
0.0
 10
27.25570289191736
 20
45.94937799574239
 30
0.0
  0
SPLINE
  5
1AB
330
1F
100
AcDbEntity
  8
0
  6
Continuous
 62
     7
100
AcDbSpline
210
0.0
220
0.0
230
1.0
 70
    24
 71
     1
 72
     4
 73
     2
 74
     0
 42
0.0000000001
 43
0.0000000001
 40
0.0
 40
0.0
 40
1.0
 40
1.0
 10
27.25570289191736
 20
55.19937793895372
 30
0.0
 10
27.25570289191736
 20
54.94937781364317
 30
0.0
  0
SPLINE
  5
1AC
330
1F
100
AcDbEntity
  8
0
  6
Continuous
 62
     7
100
AcDbSpline
210
0.0
220
0.0
230
1.0
 70
    24
 71
     1
 72
     4
 73
     2
 74
     0
 42
0.0000000001
 43
0.0000000001
 40
0.0
 40
0.0
 40
1.0
 40
1.0
 10
27.25570289191736
 20
50.69937788333835
 30
0.0
 10
27.25570289191736
 20
50.44937775802781
 30
0.0
  0
ELLIPSE
  5
1F1
330
1F
100
AcDbEntity
  8
0
  6
Continuous
 62
     7
100
AcDbEllipse
 10
42.23346629254798
 20
44.88998830577265
 30
0.0
 11
-0.1776389876667963
 21
0.1776389876668105
 31
-0.0000000000000018
210
-0.000000000000005
220
0.000000000000005
230
1.0
 40
0.995145815783507
 41
2.358627482608301
 42
3.924557824571378
  0
ELLIPSE
  5
1F2
330
1F
100
AcDbEntity
  8
0
  6
Continuous
 62
     7
100
AcDbEllipse
 10
42.23346629254798
 20
61.19876735673205
 30
0.0
 11
-0.1776389876668016
 21
-0.1776389876668034
 31
-0.0000000000000018
210
-0.000000000000005
220
-0.000000000000005
230
1.0
 40
0.9951458157835167
 41
2.358627482608233
 42
3.924557824571328
  0
ELLIPSE
  5
1F3
330
1F
100
AcDbEntity
  8
0
  6
Continuous
 62
     7
100
AcDbEllipse
 10
27.57468724158858
 20
44.88998830577265
 30
0.0
 11
0.1776389876667963
 21
0.1776389876668034
 31
0.0000000000000018
210
-0.000000000000005
220
-0.000000000000005
230
0.9999999999999998
 40
0.9951458157835318
 41
2.358627482608253
 42
3.924557824571292
  0
ELLIPSE
  5
1F4
330
1F
100
AcDbEntity
  8
0
  6
Continuous
 62
     7
100
AcDbEllipse
 10
27.57468724158858
 20
61.19876735673206
 30
0.0
 11
0.1776389876668069
 21
-0.1776389876668034
 31
0.0000000000000018
210
-0.000000000000005
220
0.000000000000005
230
1.0
 40
0.9951458157834721
 41
2.358627482608219
 42
3.924557824571346
  0
LINE
  5
1F5
330
1F
100
AcDbEntity
  8
0
  6
Continuous
 62
     7
100
AcDbLine
 10
42.48407657244511
 20
61.19998667274291
 30
0.0
 11
42.48407657244511
 21
44.88876907465382
 31
0.0
  0
LINE
  5
1F6
330
1F
100
AcDbEntity
  8
0
  6
Continuous
 62
     7
100
AcDbLine
 10
27.5734678077366
 20
44.63937760897865
 30
0.0
 11
42.23468569342982
 21
44.63937760897865
 31
0.0
  0
LINE
  5
1F7
330
1F
100
AcDbEntity
  8
0
  6
Continuous
 62
     7
100
AcDbLine
 10
27.5734678077366
 20
61.44937755175819
 30
0.0
 11
42.23468569342982
 21
61.44937755175819
 31
0.0
  0
LINE
  5
1F8
330
1F
100
AcDbEntity
  8
0
  6
Continuous
 62
     7
100
AcDbLine
 10
27.32407692872132
 20
61.19998667274291
 30
0.0
 11
27.32407692872132
 21
44.88876907465382
 31
0.0
  0
LINE
  5
1F9
330
1F
100
AcDbEntity
  8
0
  6
Continuous
 62
     7
100
AcDbLine
 10
42.71570280334579
 20
53.25937787000006
 30
0.0
 11
42.71570280334579
 21
52.94437784557389
 31
0.0
  0
LINE
  5
1FA
330
1F
100
AcDbEntity
  8
0
  6
Continuous
 62
     7
100
AcDbLine
 10
42.71570280334579
 20
53.57437785775999
 30
0.0
 11
42.71570280334579
 21
53.25937787000006
 31
0.0
  0
LINE
  5
20D
330
1F
100
AcDbEntity
  8
0
  6
Continuous
 62
     7
100
AcDbLine
 10
27.39007792627216
 20
44.71960745548995
 30
0.0
 11
27.39007792627216
 21
43.39739984974504
 31
0.0
  0
LINE
  5
20E
330
1F
100
AcDbEntity
  8
0
  6
Continuous
 62
     7
100
AcDbLine
 10
42.42132743066188
 20
43.39739984974504
 30
0.0
 11
42.42132743066188
 21
44.72320368061271
 31
0.0
  0
LINE
  5
20F
330
1F
100
AcDbEntity
  8
0
  6
Continuous
 62
     7
100
AcDbLine
 10
42.42132743066188
 20
43.19937808397604
 30
0.0
 11
42.42132743066188
 21
43.39739984974504
 31
0.0
  0
LINE
  5
210
330
1F
100
AcDbEntity
  8
0
  6
Continuous
 62
     7
100
AcDbLine
 10
42.42132743066188
 20
43.19937808397604
 30
0.0
 11
40.22928565998213
 21
43.19937808397604
 31
0.0
  0
LINE
  5
211
330
1F
100
AcDbEntity
  8
0
  6
Continuous
 62
     7
100
AcDbLine
 10
27.39007792627216
 20
43.39739984974504
 30
0.0
 11
27.39007792627216
 21
43.19937808397604
 31
0.0
  0
LINE
  5
212
330
1F
100
AcDbEntity
  8
0
  6
Continuous
 62
     7
100
AcDbLine
 10
29.57928788966519
 20
43.19937808397604
 30
0.0
 11
27.39007792627216
 21
43.19937808397604
 31
0.0
  0
LINE
  5
213
330
1F
100
AcDbEntity
  8
0
  6
Continuous
 62
     7
100
AcDbLine
 10
27.32407692872132
 20
45.6993775771019
 30
0.0
 11
27.25570289191736
 21
45.6993775771019
 31
0.0
  0
LINE
  5
214
330
1F
100
AcDbEntity
  8
0
  6
Continuous
 62
     7
100
AcDbLine
 10
27.25570289191736
 20
45.94937799574239
 30
0.0
 11
27.32407692872132
 21
45.94937799574239
 31
0.0
  0
LINE
  5
215
330
1F
100
AcDbEntity
  8
0
  6
Continuous
 62
     7
100
AcDbLine
 10
27.25570289191736
 20
46.94937791032471
 30
0.0
 11
27.32407692872132
 21
46.94937791032471
 31
0.0
  0
LINE
  5
216
330
1F
100
AcDbEntity
  8
0
  6
Continuous
 62
     7
100
AcDbLine
 10
27.32407692872132
 20
46.6993780783441
 30
0.0
 11
27.25570289191736
 21
46.6993780783441
 31
0.0
  0
LINE
  5
217
330
1F
100
AcDbEntity
  8
0
  6
Continuous
 62
     7
100
AcDbLine
 10
27.32407692872132
 20
54.69937783499759
 30
0.0
 11
27.25570289191736
 21
54.69937783499759
 31
0.0
  0
LINE
  5
218
330
1F
100
AcDbEntity
  8
0
  6
Continuous
 62
     7
100
AcDbLine
 10
27.25570289191736
 20
54.94937781364317
 30
0.0
 11
27.32407692872132
 21
54.94937781364317
 31
0.0
  0
LINE
  5
219
330
1F
100
AcDbEntity
  8
0
  6
Continuous
 62
     7
100
AcDbLine
 10
27.32407692872132
 20
46.199377827723
 30
0.0
 11
27.25570289191736
 21
46.199377827723
 31
0.0
  0
LINE
  5
21A
330
1F
100
AcDbEntity
  8
0
  6
Continuous
 62
     7
100
AcDbLine
 10
27.25570289191736
 20
46.4493776597036
 30
0.0
 11
27.32407692872132
 21
46.4493776597036
 31
0.0
  0
LINE
  5
21B
330
1F
100
AcDbEntity
  8
0
  6
Continuous
 62
     7
100
AcDbLine
 10
27.32407692872132
 20
55.19937793895372
 30
0.0
 11
27.25570289191736
 21
55.19937793895372
 31
0.0
  0
LINE
  5
21C
330
1F
100
AcDbEntity
  8
0
  6
Continuous
 62
     7
100
AcDbLine
 10
27.25570289191736
 20
55.44937777093433
 30
0.0
 11
27.32407692872132
 21
55.44937777093433
 31
0.0
  0
LINE
  5
21D
330
1F
100
AcDbEntity
  8
0
  6
Continuous
 62
     7
100
AcDbLine
 10
27.32407692872132
 20
50.69937788333835
 30
0.0
 11
27.25570289191736
 21
50.69937788333835
 31
0.0
  0
LINE
  5
21E
330
1F
100
AcDbEntity
  8
0
  6
Continuous
 62
     7
100
AcDbLine
 10
27.25570289191736
 20
50.94937786198394
 30
0.0
 11
27.32407692872132
 21
50.94937786198394
 31
0.0
  0
LINE
  5
21F
330
1F
100
AcDbEntity
  8
0
  6
Continuous
 62
     7
100
AcDbLine
 10
27.25570289191736
 20
55.94937772822548
 30
0.0
 11
27.32407692872132
 21
55.94937772822548
 31
0.0
  0
LINE
  5
220
330
1F
100
AcDbEntity
  8
0
  6
Continuous
 62
     7
100
AcDbLine
 10
27.32407692872132
 20
55.69937789624487
 30
0.0
 11
27.25570289191736
 21
55.69937789624487
 31
0.0
  0
LINE
  5
221
330
1F
100
AcDbEntity
  8
0
  6
Continuous
 62
     7
100
AcDbLine
 10
27.25570289191736
 20
45.44937774512129
 30
0.0
 11
27.32407692872132
 21
45.44937774512129
 31
0.0
  0
LINE
  5
222
330
1F
100
AcDbEntity
  8
0
  6
Continuous
 62
     7
100
AcDbLine
 10
27.32407692872132
 20
45.19937791314068
 30
0.0
 11
27.25570289191736
 21
45.19937791314068
 31
0.0
  0
LINE
  5
223
330
1F
100
AcDbEntity
  8
0
  6
Continuous
 62
     7
100
AcDbLine
 10
27.32407692872132
 20
59.69937755457415
 30
0.0
 11
27.25570289191736
 21
59.69937755457415
 31
0.0
  0
LINE
  5
224
330
1F
100
AcDbEntity
  8
0
  6
Continuous
 62
     7
100
AcDbLine
 10
27.25570289191736
 20
59.94937797321465
 30
0.0
 11
27.32407692872132
 21
59.94937797321465
 31
0.0
  0
LINE
  5
225
330
1F
100
AcDbEntity
  8
0
  6
Continuous
 62
     7
100
AcDbLine
 10
27.32407692872132
 20
59.19937789061294
 30
0.0
 11
27.25570289191736
 21
59.19937789061294
 31
0.0
  0
LINE
  5
226
330
1F
100
AcDbEntity
  8
0
  6
Continuous
 62
     7
100
AcDbLine
 10
27.25570289191736
 20
59.44937772259355
 30
0.0
 11
27.32407692872132
 21
59.44937772259355
 31
0.0
  0
LINE
  5
227
330
1F
100
AcDbEntity
  8
0
  6
Continuous
 62
     7
100
AcDbLine
 10
27.32407692872132
 20
50.19937777938222
 30
0.0
 11
27.25570289191736
 21
50.19937777938222
 31
0.0
  0
LINE
  5
228
330
1F
100
AcDbEntity
  8
0
  6
Continuous
 62
     7
100
AcDbLine
 10
27.25570289191736
 20
50.44937775802781
 30
0.0
 11
27.32407692872132
 21
50.44937775802781
 31
0.0
  0
LINE
  5
229
330
1F
100
AcDbEntity
  8
0
  6
Continuous
 62
     7
100
AcDbLine
 10
27.25570289191736
 20
51.44937781927509
 30
0.0
 11
27.32407692872132
 21
51.44937781927509
 31
0.0
  0
LINE
  5
22A
330
1F
100
AcDbEntity
  8
0
  6
Continuous
 62
     7
100
AcDbLine
 10
27.32407692872132
 20
51.19937784062952
 30
0.0
 11
27.25570289191736
 21
51.19937784062952
 31
0.0
  0
LINE
  5
22B
330
1F
100
AcDbEntity
  8
0
  6
Continuous
 62
     7
100
AcDbLine
 10
27.25570289191736
 20
60.44937763717587
 30
0.0
 11
27.32407692872132
 21
60.44937763717587
 31
0.0
  0
LINE
  5
22C
330
1F
100
AcDbEntity
  8
0
  6
Continuous
 62
     7
100
AcDbLine
 10
27.32407692872132
 20
60.19937780519526
 30
0.0
 11
27.25570289191736
 21
60.19937780519526
 31
0.0
  0
LINE
  5
22D
330
1F
100
AcDbEntity
  8
0
  6
Continuous
 62
     7
100
AcDbLine
 10
27.32407692872132
 20
51.69937779792068
 30
0.0
 11
27.25570289191736
 21
51.69937779792068
 31
0.0
  0
LINE
  5
22E
330
1F
100
AcDbEntity
  8
0
  6
Continuous
 62
     7
100
AcDbLine
 10
27.25570289191736
 20
51.9493778132325
 30
0.0
 11
27.32407692872132
 21
51.9493778132325
 31
0.0
  0
LINE
  5
22F
330
1F
100
AcDbEntity
  8
0
  6
Continuous
 62
     7
100
AcDbLine
 10
27.25570289191736
 20
56.94937793613775
 30
0.0
 11
27.32407692872132
 21
56.94937793613775
 31
0.0
  0
LINE
  5
230
330
1F
100
AcDbEntity
  8
0
  6
Continuous
 62
     7
100
AcDbLine
 10
27.32407692872132
 20
56.6993778108272
 30
0.0
 11
27.25570289191736
 21
56.6993778108272
 31
0.0
  0
LINE
  5
231
330
1F
100
AcDbEntity
  8
0
  6
Continuous
 62
     7
100
AcDbLine
 10
27.32407692872132
 20
57.69937772540952
 30
0.0
 11
27.25570289191736
 21
57.69937772540952
 31
0.0
  0
LINE
  5
232
330
1F
100
AcDbEntity
  8
0
  6
Continuous
 62
     7
100
AcDbLine
 10
27.25570289191736
 20
57.94937755739013
 30
0.0
 11
27.32407692872132
 21
57.94937755739013
 31
0.0
  0
LINE
  5
233
330
1F
100
AcDbEntity
  8
0
  6
Continuous
 62
     7
100
AcDbLine
 10
27.25570289191736
 20
47.44937786761587
 30
0.0
 11
27.32407692872132
 21
47.44937786761587
 31
0.0
  0
LINE
  5
234
330
1F
100
AcDbEntity
  8
0
  6
Continuous
 62
     7
100
AcDbLine
 10
27.32407692872132
 20
47.19937774230532
 30
0.0
 11
27.25570289191736
 21
47.19937774230532
 31
0.0
  0
LINE
  5
235
330
1F
100
AcDbEntity
  8
0
  6
Continuous
 62
     7
100
AcDbLine
 10
27.25570289191736
 20
60.94937788779698
 30
0.0
 11
27.32407692872132
 21
60.94937788779698
 31
0.0
  0
LINE
  5
236
330
1F
100
AcDbEntity
  8
0
  6
Continuous
 62
     7
100
AcDbLine
 10
27.32407692872132
 20
60.69937805581637
 30
0.0
 11
27.25570289191736
 21
60.69937805581637
 31
0.0
  0
LINE
  5
237
330
1F
100
AcDbEntity
  8
0
  6
Continuous
 62
     7
100
AcDbLine
 10
27.32407692872132
 20
48.19937795021759
 30
0.0
 11
27.25570289191736
 21
48.19937795021759
 31
0.0
  0
LINE
  5
238
330
1F
100
AcDbEntity
  8
0
  6
Continuous
 62
     7
100
AcDbLine
 10
27.25570289191736
 20
48.44937778219819
 30
0.0
 11
27.32407692872132
 21
48.44937778219819
 31
0.0
  0
LINE
  5
239
330
1F
100
AcDbEntity
  8
0
  6
Continuous
 62
     7
100
AcDbLine
 10
27.25570289191736
 20
57.44937789342891
 30
0.0
 11
27.32407692872132
 21
57.44937789342891
 31
0.0
  0
LINE
  5
23A
330
1F
100
AcDbEntity
  8
0
  6
Continuous
 62
     7
100
AcDbLine
 10
27.32407692872132
 20
57.19937776811836
 30
0.0
 11
27.25570289191736
 21
57.19937776811836
 31
0.0
  0
LINE
  5
23B
330
1F
100
AcDbEntity
  8
0
  6
Continuous
 62
     7
100
AcDbLine
 10
27.25570289191736
 20
47.94937782490703
 30
0.0
 11
27.32407692872132
 21
47.94937782490703
 31
0.0
  0
LINE
  5
23C
330
1F
100
AcDbEntity
  8
0
  6
Continuous
 62
     7
100
AcDbLine
 10
27.32407692872132
 20
47.69937769959648
 30
0.0
 11
27.25570289191736
 21
47.69937769959648
 31
0.0
  0
LINE
  5
23D
330
1F
100
AcDbEntity
  8
0
  6
Continuous
 62
     7
100
AcDbLine
 10
27.25570289191736
 20
48.94937773948935
 30
0.0
 11
27.32407692872132
 21
48.94937773948935
 31
0.0
  0
LINE
  5
23E
330
1F
100
AcDbEntity
  8
0
  6
Continuous
 62
     7
100
AcDbLine
 10
27.32407692872132
 20
48.69937790750874
 30
0.0
 11
27.25570289191736
 21
48.69937790750874
 31
0.0
  0
LINE
  5
23F
330
1F
100
AcDbEntity
  8
0
  6
Continuous
 62
     7
100
AcDbLine
 10
27.32407692872132
 20
49.19937786479991
 30
0.0
 11
27.25570289191736
 21
49.19937786479991
 31
0.0
  0
LINE
  5
240
330
1F
100
AcDbEntity
  8
0
  6
Continuous
 62
     7
100
AcDbLine
 10
27.25570289191736
 20
49.44937769678052
 30
0.0
 11
27.32407692872132
 21
49.44937769678052
 31
0.0
  0
LINE
  5
241
330
1F
100
AcDbEntity
  8
0
  6
Continuous
 62
     7
100
AcDbLine
 10
27.32407692872132
 20
58.19937797603063
 30
0.0
 11
27.25570289191736
 21
58.19937797603063
 31
0.0
  0
LINE
  5
242
330
1F
100
AcDbEntity
  8
0
  6
Continuous
 62
     7
100
AcDbLine
 10
27.25570289191736
 20
58.44937780801123
 30
0.0
 11
27.32407692872132
 21
58.44937780801123
 31
0.0
  0
LINE
  5
243
330
1F
100
AcDbEntity
  8
0
  6
Continuous
 62
     7
100
AcDbLine
 10
27.32407692872132
 20
49.69937782209107
 30
0.0
 11
27.25570289191736
 21
49.69937782209107
 31
0.0
  0
LINE
  5
244
330
1F
100
AcDbEntity
  8
0
  6
Continuous
 62
     7
100
AcDbLine
 10
27.25570289191736
 20
49.94937780073665
 30
0.0
 11
27.32407692872132
 21
49.94937780073665
 31
0.0
  0
LINE
  5
245
330
1F
100
AcDbEntity
  8
0
  6
Continuous
 62
     7
100
AcDbLine
 10
27.32407692872132
 20
56.19937785353603
 30
0.0
 11
27.25570289191736
 21
56.19937785353603
 31
0.0
  0
LINE
  5
246
330
1F
100
AcDbEntity
  8
0
  6
Continuous
 62
     7
100
AcDbLine
 10
27.25570289191736
 20
56.44937768551664
 30
0.0
 11
27.32407692872132
 21
56.44937768551664
 31
0.0
  0
LINE
  5
247
330
1F
100
AcDbEntity
  8
0
  6
Continuous
 62
     7
100
AcDbLine
 10
27.32407692872132
 20
52.19937782854433
 30
0.0
 11
27.25570289191736
 21
52.19937782854433
 31
0.0
  0
LINE
  5
248
330
1F
100
AcDbEntity
  8
0
  6
Continuous
 62
     7
100
AcDbLine
 10
27.25570289191736
 20
52.44937783468959
 30
0.0
 11
27.32407692872132
 21
52.44937783468959
 31
0.0
  0
LINE
  5
249
330
1F
100
AcDbEntity
  8
0
  6
Continuous
 62
     7
100
AcDbLine
 10
27.32407692872132
 20
52.69937782250173
 30
0.0
 11
27.25570289191736
 21
52.69937782250173
 31
0.0
  0
LINE
  5
24A
330
1F
100
AcDbEntity
  8
0
  6
Continuous
 62
     7
100
AcDbLine
 10
27.25570289191736
 20
52.94937783781355
 30
0.0
 11
27.32407692872132
 21
52.94937783781355
 31
0.0
  0
LINE
  5
24B
330
1F
100
AcDbEntity
  8
0
  6
Continuous
 62
     7
100
AcDbLine
 10
27.32407692872132
 20
53.19937781645913
 30
0.0
 11
27.25570289191736
 21
53.19937781645913
 31
0.0
  0
LINE
  5
24C
330
1F
100
AcDbEntity
  8
0
  6
Continuous
 62
     7
100
AcDbLine
 10
27.25570289191736
 20
53.44937779510471
 30
0.0
 11
27.32407692872132
 21
53.44937779510471
 31
0.0
  0
LINE
  5
24D
330
1F
100
AcDbEntity
  8
0
  6
Continuous
 62
     7
100
AcDbLine
 10
27.25570289191736
 20
54.449377856352
 30
0.0
 11
27.32407692872132
 21
54.449377856352
 31
0.0
  0
LINE
  5
24E
330
1F
100
AcDbEntity
  8
0
  6
Continuous
 62
     7
100
AcDbLine
 10
27.32407692872132
 20
54.19937787770642
 30
0.0
 11
27.25570289191736
 21
54.19937787770642
 31
0.0
  0
LINE
  5
24F
330
1F
100
AcDbEntity
  8
0
  6
Continuous
 62
     7
100
AcDbLine
 10
27.32407692872132
 20
58.69937763999184
 30
0.0
 11
27.25570289191736
 21
58.69937763999184
 31
0.0
  0
LINE
  5
250
330
1F
100
AcDbEntity
  8
0
  6
Continuous
 62
     7
100
AcDbLine
 10
27.25570289191736
 20
58.94937805863233
 30
0.0
 11
27.32407692872132
 21
58.94937805863233
 31
0.0
  0
LINE
  5
251
330
1F
100
AcDbEntity
  8
0
  6
Continuous
 62
     7
100
AcDbLine
 10
27.25570289191736
 20
53.94937789906084
 30
0.0
 11
27.32407692872132
 21
53.94937789906084
 31
0.0
  0
LINE
  5
252
330
1F
100
AcDbEntity
  8
0
  6
Continuous
 62
     7
100
AcDbLine
 10
27.32407692872132
 20
53.69937777375029
 30
0.0
 11
27.25570289191736
 21
53.69937777375029
 31
0.0
  0
LINE
  5
253
330
1F
100
AcDbEntity
  8
0
  6
Continuous
 62
     7
100
AcDbLine
 10
27.25570289191736
 20
58.69937763999184
 30
0.0
 11
27.32407692872132
 21
58.69937763999184
 31
0.0
  0
LINE
  5
254
330
1F
100
AcDbEntity
  8
0
  6
Continuous
 62
     7
100
AcDbLine
 10
27.32407692872132
 20
58.44937780801123
 30
0.0
 11
27.25570289191736
 21
58.44937780801123
 31
0.0
  0
LINE
  5
255
330
1F
100
AcDbEntity
  8
0
  6
Continuous
 62
     7
100
AcDbLine
 10
27.25570289191736
 20
52.19937782854433
 30
0.0
 11
27.32407692872132
 21
52.19937782854433
 31
0.0
  0
LINE
  5
256
330
1F
100
AcDbEntity
  8
0
  6
Continuous
 62
     7
100
AcDbLine
 10
27.32407692872132
 20
51.9493778132325
 30
0.0
 11
27.25570289191736
 21
51.9493778132325
 31
0.0
  0
LINE
  5
257
330
1F
100
AcDbEntity
  8
0
  6
Continuous
 62
     7
100
AcDbLine
 10
27.32407692872132
 20
57.44937789342891
 30
0.0
 11
27.25570289191736
 21
57.44937789342891
 31
0.0
  0
LINE
  5
258
330
1F
100
AcDbEntity
  8
0
  6
Continuous
 62
     7
100
AcDbLine
 10
27.25570289191736
 20
57.69937772540952
 30
0.0
 11
27.32407692872132
 21
57.69937772540952
 31
0.0
  0
LINE
  5
259
330
1F
100
AcDbEntity
  8
0
  6
Continuous
 62
     7
100
AcDbLine
 10
27.32407692872132
 20
52.44937783468959
 30
0.0
 11
27.25570289191736
 21
52.44937783468959
 31
0.0
  0
LINE
  5
25A
330
1F
100
AcDbEntity
  8
0
  6
Continuous
 62
     7
100
AcDbLine
 10
27.25570289191736
 20
52.69937782250173
 30
0.0
 11
27.32407692872132
 21
52.69937782250173
 31
0.0
  0
LINE
  5
25B
330
1F
100
AcDbEntity
  8
0
  6
Continuous
 62
     7
100
AcDbLine
 10
27.25570289191736
 20
56.6993778108272
 30
0.0
 11
27.32407692872132
 21
56.6993778108272
 31
0.0
  0
LINE
  5
25C
330
1F
100
AcDbEntity
  8
0
  6
Continuous
 62
     7
100
AcDbLine
 10
27.32407692872132
 20
56.44937768551664
 30
0.0
 11
27.25570289191736
 21
56.44937768551664
 31
0.0
  0
LINE
  5
25D
330
1F
100
AcDbEntity
  8
0
  6
Continuous
 62
     7
100
AcDbLine
 10
27.25570289191736
 20
57.19937776811836
 30
0.0
 11
27.32407692872132
 21
57.19937776811836
 31
0.0
  0
LINE
  5
25E
330
1F
100
AcDbEntity
  8
0
  6
Continuous
 62
     7
100
AcDbLine
 10
27.32407692872132
 20
56.94937793613775
 30
0.0
 11
27.25570289191736
 21
56.94937793613775
 31
0.0
  0
LINE
  5
25F
330
1F
100
AcDbEntity
  8
0
  6
Continuous
 62
     7
100
AcDbLine
 10
27.25570289191736
 20
51.19937784062952
 30
0.0
 11
27.32407692872132
 21
51.19937784062952
 31
0.0
  0
LINE
  5
260
330
1F
100
AcDbEntity
  8
0
  6
Continuous
 62
     7
100
AcDbLine
 10
27.32407692872132
 20
50.94937786198394
 30
0.0
 11
27.25570289191736
 21
50.94937786198394
 31
0.0
  0
LINE
  5
261
330
1F
100
AcDbEntity
  8
0
  6
Continuous
 62
     7
100
AcDbLine
 10
27.25570289191736
 20
49.69937782209107
 30
0.0
 11
27.32407692872132
 21
49.69937782209107
 31
0.0
  0
LINE
  5
262
330
1F
100
AcDbEntity
  8
0
  6
Continuous
 62
     7
100
AcDbLine
 10
27.32407692872132
 20
49.44937769678052
 30
0.0
 11
27.25570289191736
 21
49.44937769678052
 31
0.0
  0
LINE
  5
263
330
1F
100
AcDbEntity
  8
0
  6
Continuous
 62
     7
100
AcDbLine
 10
27.25570289191736
 20
58.19937797603063
 30
0.0
 11
27.32407692872132
 21
58.19937797603063
 31
0.0
  0
LINE
  5
264
330
1F
100
AcDbEntity
  8
0
  6
Continuous
 62
     7
100
AcDbLine
 10
27.32407692872132
 20
57.94937755739013
 30
0.0
 11
27.25570289191736
 21
57.94937755739013
 31
0.0
  0
LINE
  5
265
330
1F
100
AcDbEntity
  8
0
  6
Continuous
 62
     7
100
AcDbLine
 10
27.25570289191736
 20
47.19937774230532
 30
0.0
 11
27.32407692872132
 21
47.19937774230532
 31
0.0
  0
LINE
  5
266
330
1F
100
AcDbEntity
  8
0
  6
Continuous
 62
     7
100
AcDbLine
 10
27.32407692872132
 20
46.94937791032471
 30
0.0
 11
27.25570289191736
 21
46.94937791032471
 31
0.0
  0
LINE
  5
267
330
1F
100
AcDbEntity
  8
0
  6
Continuous
 62
     7
100
AcDbLine
 10
27.25570289191736
 20
54.19937787770642
 30
0.0
 11
27.32407692872132
 21
54.19937787770642
 31
0.0
  0
LINE
  5
268
330
1F
100
AcDbEntity
  8
0
  6
Continuous
 62
     7
100
AcDbLine
 10
27.32407692872132
 20
53.94937789906084
 30
0.0
 11
27.25570289191736
 21
53.94937789906084
 31
0.0
  0
LINE
  5
269
330
1F
100
AcDbEntity
  8
0
  6
Continuous
 62
     7
100
AcDbLine
 10
27.25570289191736
 20
60.69937805581637
 30
0.0
 11
27.32407692872132
 21
60.69937805581637
 31
0.0
  0
LINE
  5
26A
330
1F
100
AcDbEntity
  8
0
  6
Continuous
 62
     7
100
AcDbLine
 10
27.32407692872132
 20
60.44937763717587
 30
0.0
 11
27.25570289191736
 21
60.44937763717587
 31
0.0
  0
LINE
  5
26B
330
1F
100
AcDbEntity
  8
0
  6
Continuous
 62
     7
100
AcDbLine
 10
27.25570289191736
 20
56.19937785353603
 30
0.0
 11
27.32407692872132
 21
56.19937785353603
 31
0.0
  0
LINE
  5
26C
330
1F
100
AcDbEntity
  8
0
  6
Continuous
 62
     7
100
AcDbLine
 10
27.32407692872132
 20
55.94937772822548
 30
0.0
 11
27.25570289191736
 21
55.94937772822548
 31
0.0
  0
LINE
  5
26D
330
1F
100
AcDbEntity
  8
0
  6
Continuous
 62
     7
100
AcDbLine
 10
27.25570289191736
 20
53.69937777375029
 30
0.0
 11
27.32407692872132
 21
53.69937777375029
 31
0.0
  0
LINE
  5
26E
330
1F
100
AcDbEntity
  8
0
  6
Continuous
 62
     7
100
AcDbLine
 10
27.32407692872132
 20
53.44937779510471
 30
0.0
 11
27.25570289191736
 21
53.44937779510471
 31
0.0
  0
LINE
  5
26F
330
1F
100
AcDbEntity
  8
0
  6
Continuous
 62
     7
100
AcDbLine
 10
27.25570289191736
 20
53.19937781645913
 30
0.0
 11
27.32407692872132
 21
53.19937781645913
 31
0.0
  0
LINE
  5
270
330
1F
100
AcDbEntity
  8
0
  6
Continuous
 62
     7
100
AcDbLine
 10
27.32407692872132
 20
52.94937783781355
 30
0.0
 11
27.25570289191736
 21
52.94937783781355
 31
0.0
  0
LINE
  5
271
330
1F
100
AcDbEntity
  8
0
  6
Continuous
 62
     7
100
AcDbLine
 10
27.32407692872132
 20
51.44937781927509
 30
0.0
 11
27.25570289191736
 21
51.44937781927509
 31
0.0
  0
LINE
  5
272
330
1F
100
AcDbEntity
  8
0
  6
Continuous
 62
     7
100
AcDbLine
 10
27.25570289191736
 20
51.69937779792068
 30
0.0
 11
27.32407692872132
 21
51.69937779792068
 31
0.0
  0
LINE
  5
273
330
1F
100
AcDbEntity
  8
0
  6
Continuous
 62
     7
100
AcDbLine
 10
27.25570289191736
 20
45.6993775771019
 30
0.0
 11
27.32407692872132
 21
45.6993775771019
 31
0.0
  0
LINE
  5
274
330
1F
100
AcDbEntity
  8
0
  6
Continuous
 62
     7
100
AcDbLine
 10
27.32407692872132
 20
45.44937774512129
 30
0.0
 11
27.25570289191736
 21
45.44937774512129
 31
0.0
  0
LINE
  5
275
330
1F
100
AcDbEntity
  8
0
  6
Continuous
 62
     7
100
AcDbLine
 10
27.25570289191736
 20
59.19937789061294
 30
0.0
 11
27.32407692872132
 21
59.19937789061294
 31
0.0
  0
LINE
  5
276
330
1F
100
AcDbEntity
  8
0
  6
Continuous
 62
     7
100
AcDbLine
 10
27.32407692872132
 20
58.94937805863233
 30
0.0
 11
27.25570289191736
 21
58.94937805863233
 31
0.0
  0
LINE
  5
277
330
1F
100
AcDbEntity
  8
0
  6
Continuous
 62
     7
100
AcDbLine
 10
27.25570289191736
 20
49.19937786479991
 30
0.0
 11
27.32407692872132
 21
49.19937786479991
 31
0.0
  0
LINE
  5
278
330
1F
100
AcDbEntity
  8
0
  6
Continuous
 62
     7
100
AcDbLine
 10
27.32407692872132
 20
48.94937773948935
 30
0.0
 11
27.25570289191736
 21
48.94937773948935
 31
0.0
  0
LINE
  5
279
330
1F
100
AcDbEntity
  8
0
  6
Continuous
 62
     7
100
AcDbLine
 10
27.25570289191736
 20
47.69937769959648
 30
0.0
 11
27.32407692872132
 21
47.69937769959648
 31
0.0
  0
LINE
  5
27A
330
1F
100
AcDbEntity
  8
0
  6
Continuous
 62
     7
100
AcDbLine
 10
27.32407692872132
 20
47.44937786761587
 30
0.0
 11
27.25570289191736
 21
47.44937786761587
 31
0.0
  0
LINE
  5
27B
330
1F
100
AcDbEntity
  8
0
  6
Continuous
 62
     7
100
AcDbLine
 10
27.25570289191736
 20
46.6993780783441
 30
0.0
 11
27.32407692872132
 21
46.6993780783441
 31
0.0
  0
LINE
  5
27C
330
1F
100
AcDbEntity
  8
0
  6
Continuous
 62
     7
100
AcDbLine
 10
27.32407692872132
 20
46.4493776597036
 30
0.0
 11
27.25570289191736
 21
46.4493776597036
 31
0.0
  0
LINE
  5
27D
330
1F
100
AcDbEntity
  8
0
  6
Continuous
 62
     7
100
AcDbLine
 10
27.25570289191736
 20
50.19937777938222
 30
0.0
 11
27.32407692872132
 21
50.19937777938222
 31
0.0
  0
LINE
  5
27E
330
1F
100
AcDbEntity
  8
0
  6
Continuous
 62
     7
100
AcDbLine
 10
27.32407692872132
 20
49.94937780073665
 30
0.0
 11
27.25570289191736
 21
49.94937780073665
 31
0.0
  0
LINE
  5
27F
330
1F
100
AcDbEntity
  8
0
  6
Continuous
 62
     7
100
AcDbLine
 10
27.25570289191736
 20
54.69937783499759
 30
0.0
 11
27.32407692872132
 21
54.69937783499759
 31
0.0
  0
LINE
  5
280
330
1F
100
AcDbEntity
  8
0
  6
Continuous
 62
     7
100
AcDbLine
 10
27.32407692872132
 20
54.449377856352
 30
0.0
 11
27.25570289191736
 21
54.449377856352
 31
0.0
  0
LINE
  5
281
330
1F
100
AcDbEntity
  8
0
  6
Continuous
 62
     7
100
AcDbLine
 10
27.25570289191736
 20
48.69937790750874
 30
0.0
 11
27.32407692872132
 21
48.69937790750874
 31
0.0
  0
LINE
  5
282
330
1F
100
AcDbEntity
  8
0
  6
Continuous
 62
     7
100
AcDbLine
 10
27.32407692872132
 20
48.44937778219819
 30
0.0
 11
27.25570289191736
 21
48.44937778219819
 31
0.0
  0
LINE
  5
283
330
1F
100
AcDbEntity
  8
0
  6
Continuous
 62
     7
100
AcDbLine
 10
27.25570289191736
 20
48.19937795021759
 30
0.0
 11
27.32407692872132
 21
48.19937795021759
 31
0.0
  0
LINE
  5
284
330
1F
100
AcDbEntity
  8
0
  6
Continuous
 62
     7
100
AcDbLine
 10
27.32407692872132
 20
47.94937782490703
 30
0.0
 11
27.25570289191736
 21
47.94937782490703
 31
0.0
  0
LINE
  5
285
330
1F
100
AcDbEntity
  8
0
  6
Continuous
 62
     7
100
AcDbLine
 10
27.25570289191736
 20
55.69937789624487
 30
0.0
 11
27.32407692872132
 21
55.69937789624487
 31
0.0
  0
LINE
  5
286
330
1F
100
AcDbEntity
  8
0
  6
Continuous
 62
     7
100
AcDbLine
 10
27.32407692872132
 20
55.44937777093433
 30
0.0
 11
27.25570289191736
 21
55.44937777093433
 31
0.0
  0
LINE
  5
287
330
1F
100
AcDbEntity
  8
0
  6
Continuous
 62
     7
100
AcDbLine
 10
27.32407692872132
 20
59.94937797321465
 30
0.0
 11
27.25570289191736
 21
59.94937797321465
 31
0.0
  0
LINE
  5
288
330
1F
100
AcDbEntity
  8
0
  6
Continuous
 62
     7
100
AcDbLine
 10
27.25570289191736
 20
60.19937780519526
 30
0.0
 11
27.32407692872132
 21
60.19937780519526
 31
0.0
  0
LINE
  5
289
330
1F
100
AcDbEntity
  8
0
  6
Continuous
 62
     7
100
AcDbLine
 10
27.25570289191736
 20
45.19937791314068
 30
0.0
 11
27.32407692872132
 21
45.19937791314068
 31
0.0
  0
LINE
  5
28A
330
1F
100
AcDbEntity
  8
0
  6
Continuous
 62
     7
100
AcDbLine
 10
27.32407692872132
 20
44.94937808116008
 30
0.0
 11
27.25570289191736
 21
44.94937808116008
 31
0.0
  0
LINE
  5
28B
330
1F
100
AcDbEntity
  8
0
  6
Continuous
 62
     7
100
AcDbLine
 10
27.25570289191736
 20
59.69937755457415
 30
0.0
 11
27.32407692872132
 21
59.69937755457415
 31
0.0
  0
LINE
  5
28C
330
1F
100
AcDbEntity
  8
0
  6
Continuous
 62
     7
100
AcDbLine
 10
27.32407692872132
 20
59.44937772259355
 30
0.0
 11
27.25570289191736
 21
59.44937772259355
 31
0.0
  0
LINE
  5
28D
330
1F
100
AcDbEntity
  8
0
  6
Continuous
 62
     7
100
AcDbLine
 10
27.25570289191736
 20
46.199377827723
 30
0.0
 11
27.32407692872132
 21
46.199377827723
 31
0.0
  0
LINE
  5
28E
330
1F
100
AcDbEntity
  8
0
  6
Continuous
 62
     7
100
AcDbLine
 10
27.32407692872132
 20
45.94937799574239
 30
0.0
 11
27.25570289191736
 21
45.94937799574239
 31
0.0
  0
LINE
  5
28F
330
1F
100
AcDbEntity
  8
0
  6
Continuous
 62
     7
100
AcDbLine
 10
27.25570289191736
 20
55.19937793895372
 30
0.0
 11
27.32407692872132
 21
55.19937793895372
 31
0.0
  0
LINE
  5
290
330
1F
100
AcDbEntity
  8
0
  6
Continuous
 62
     7
100
AcDbLine
 10
27.32407692872132
 20
54.94937781364317
 30
0.0
 11
27.25570289191736
 21
54.94937781364317
 31
0.0
  0
LINE
  5
291
330
1F
100
AcDbEntity
  8
0
  6
Continuous
 62
     7
100
AcDbLine
 10
27.25570289191736
 20
50.69937788333835
 30
0.0
 11
27.32407692872132
 21
50.69937788333835
 31
0.0
  0
LINE
  5
292
330
1F
100
AcDbEntity
  8
0
  6
Continuous
 62
     7
100
AcDbLine
 10
27.32407692872132
 20
50.44937775802781
 30
0.0
 11
27.25570289191736
 21
50.44937775802781
 31
0.0
  0
LINE
  5
294
330
1F
100
AcDbEntity
  8
0
  6
Continuous
 62
     7
100
AcDbLine
 10
42.48570279365886
 20
44.91687770994047
 30
0.0
 11
42.48407657244511
 21
44.91687770994047
 31
0.0
  0
LINE
  5
299
330
1F
100
AcDbEntity
  8
0
  6
Continuous
 62
     7
100
AcDbLine
 10
42.23570296167825
 20
61.44937755175819
 30
0.0
 11
42.23468569342982
 21
61.44937755175819
 31
0.0
  0
LINE
  5
2A1
330
1F
100
AcDbEntity
  8
0
  6
Continuous
 62
     7
100
AcDbLine
 10
27.39007792627216
 20
43.40363721769043
 30
0.0
 11
27.38570261681611
 21
43.40363721769043
 31
0.0
  0
LINE
  5
2A2
330
1F
100
AcDbEntity
  8
0
  6
Continuous
 62
     7
100
AcDbLine
 10
42.42570274011794
 20
43.40363721769043
 30
0.0
 11
42.42132743066188
 21
43.40363721769043
 31
0.0
  0
ARC
  5
2A3
330
1F
100
AcDbEntity
  8
0
  6
Continuous
 62
     7
100
AcDbCircle
 10
42.45937699743456
 20
43.44216108672348
 30
0.0
 40
0.0370351844103315
100
AcDbArc
 50
264.3063662046129
 51
315.3026539549506
  0
ARC
  5
2A4
330
1F
100
AcDbEntity
  8
0
  6
Continuous
 62
     7
100
AcDbCircle
 10
42.42647540378487
 20
43.65984110794361
 30
0.0
 40
0.2562050553560703
100
AcDbArc
 50
269.827207023124
 51
276.5504489991279
  0
LINE
  5
2A5
330
1F
100
AcDbEntity
  8
0
  6
Continuous
 62
     7
100
AcDbLine
 10
42.48570279365886
 20
44.88562809760533
 30
0.0
 11
42.48570279365886
 21
43.41611195358122
 31
0.0
  0
LINE
  5
2A6
330
1F
100
AcDbEntity
  8
0
  6
Continuous
 62
     7
100
AcDbLine
 10
42.48405721266876
 20
44.88562809760533
 30
0.0
 11
42.48570279365886
 21
44.88562809760533
 31
0.0
  0
SPLINE
  5
2A7
330
1F
100
AcDbEntity
  8
0
  6
Continuous
 62
     7
100
AcDbSpline
210
0.0
220
0.0
230
1.0
 70
     8
 71
     3
 72
     8
 73
     4
 74
     0
 42
0.0000000001
 43
0.0000000001
 40
0.0
 40
0.0
 40
0.0
 40
0.0
 40
1.0
 40
1.0
 40
1.0
 40
1.0
 10
27.32570267320309
 20
44.80556833263133
 30
0.0
 10
27.32570267320309
 20
44.79393075713298
 30
0.0
 10
27.32595605967307
 20
44.7822932394335
 30
0.0
 10
27.32645964339413
 20
44.77066400599808
 30
0.0
  0
SPLINE
  5
2A8
330
1F
100
AcDbEntity
  8
0
  6
Continuous
 62
     7
100
AcDbSpline
210
0.0
220
0.0
230
1.0
 70
     8
 71
     3
 72
    28
 73
    24
 74
     0
 42
0.0000000001
 43
0.0000000001
 40
0.0
 40
0.0
 40
0.0
 40
0.0
 40
0.25
 40
0.25
 40
0.375
 40
0.375
 40
0.4375
 40
0.4375
 40
0.46875
 40
0.46875
 40
0.484375
 40
0.484375
 40
0.4921875
 40
0.4921875
 40
0.49609375
 40
0.49609375
 40
0.498046875
 40
0.498046875
 40
0.5
 40
0.5
 40
0.75
 40
0.75
 40
0.9822278856563047
 40
0.9822278856563047
 40
0.9822278856563047
 40
0.9822278856563047
 10
27.32645964339413
 20
44.77066400599808
 30
0.0
 10
27.32690077446947
 20
44.76448940903672
 30
0.0
 10
27.32763298980483
 20
44.75917139853259
 30
0.0
 10
27.32966193621553
 20
44.75252962498093
 30
0.0
 10
27.33049506941082
 20
44.75053825455633
 30
0.0
 10
27.33205130817201
 20
44.7478958482487
 30
0.0
 10
27.33262117881797
 20
44.74707253392207
 30
0.0
 10
27.3335616087104
 20
44.7459256055054
 30
0.0
 10
27.33388935458002
 20
44.74555797330003
 30
0.0
 10
27.33440347062674
 20
44.74502879929186
 30
0.0
 10
27.33457859195745
 20
44.74485612056751
 30
0.0
 10
27.33484703219324
 20
44.74460270578702
 30
0.0
 10
27.3349374719597
 20
44.74451916809254
 30
0.0
 10
27.3350745877433
 20
44.744395266831
 30
0.0
 10
27.33512053569217
 20
44.74435420062477
 30
0.0
 10
27.3351898237099
 20
44.74429295319923
 30
0.0
 10
27.33521298073146
 20
44.74427259603807
 30
0.0
 10
27.33525941714864
 20
44.74423199910489
 30
0.0
 10
27.33526920027306
 20
44.74422342856421
 30
0.0
 10
27.34002117647995
 20
44.74011474485248
 30
0.0
 10
27.3459943280291
 20
44.73817391455528
 30
0.0
 10
27.35809860169585
 20
44.73854877331574
 30
0.0
 10
27.3641898387419
 20
44.74057270608747
 30
0.0
 10
27.3700210972109
 20
44.74436570161603
 30
0.0
  0
ARC
  5
2A9
330
1F
100
AcDbEntity
  8
0
  6
Continuous
 62
     7
100
AcDbCircle
 10
27.38492995314917
 20
43.65984110794364
 30
0.0
 40
0.2562050553561057
100
AcDbArc
 50
263.4495510008751
 51
270.1727929768781
  0
ARC
  5
2AA
330
1F
100
AcDbEntity
  8
0
  6
Continuous
 62
     7
100
AcDbCircle
 10
27.35202835949948
 20
43.44216108672347
 30
0.0
 40
0.0370351844103177
100
AcDbArc
 50
224.6973460450413
 51
275.6936337953966
  0
LINE
  5
2AB
330
1F
100
AcDbEntity
  8
0
  6
Continuous
 62
     7
100
AcDbLine
 10
27.32570256327518
 20
43.41611195358122
 30
0.0
 11
27.32570256327518
 21
44.80556838246198
 31
0.0
  0
LINE
  5
2AF
330
1F
100
AcDbEntity
  8
0
  6
Continuous
 62
     7
100
AcDbLine
 10
27.32570256327518
 20
44.86027617713953
 30
0.0
 11
27.32570256327518
 21
44.80556838246198
 31
0.0
  0
LINE
  5
2B0
330
1F
100
AcDbEntity
  8
0
  6
Continuous
 62
     7
100
AcDbLine
 10
42.48570279365886
 20
44.88562809760533
 30
0.0
 11
42.48570279365886
 21
44.91687770994047
 31
0.0
  0
LINE
  5
2B1
330
1F
100
AcDbEntity
  8
0
  6
Continuous
 62
     7
100
AcDbLine
 10
27.32570256327518
 20
43.40363721769043
 30
0.0
 11
27.35570259004564
 21
43.40363721769043
 31
0.0
  0
LINE
  5
2B2
330
1F
100
AcDbEntity
  8
0
  6
Continuous
 62
     7
100
AcDbLine
 10
27.35570259004564
 20
43.22937811074651
 30
0.0
 11
27.32570256327518
 21
43.22937811074651
 31
0.0
  0
LINE
  5
2B3
330
1F
100
AcDbEntity
  8
0
  6
Continuous
 62
     7
100
AcDbLine
 10
27.32570256327518
 20
43.22937811074651
 30
0.0
 11
27.32570256327518
 21
43.40363721769043
 31
0.0
  0
LINE
  5
2B4
330
1F
100
AcDbEntity
  8
0
  6
Continuous
 62
     7
100
AcDbLine
 10
27.35570259004564
 20
43.40363721769043
 30
0.0
 11
27.35570259004564
 21
43.22937811074651
 31
0.0
  0
LINE
  5
2B5
330
1F
100
AcDbEntity
  8
0
  6
Continuous
 62
     7
100
AcDbLine
 10
27.32570256327518
 20
43.40363721769043
 30
0.0
 11
27.32570256327518
 21
43.41611195358122
 31
0.0
  0
LINE
  5
2B6
330
1F
100
AcDbEntity
  8
0
  6
Continuous
 62
     7
100
AcDbLine
 10
27.35570259004564
 20
43.40363721769043
 30
0.0
 11
27.35570259004564
 21
43.40530861171568
 31
0.0
  0
LINE
  5
2B7
330
1F
100
AcDbEntity
  8
0
  6
Continuous
 62
     7
100
AcDbLine
 10
42.4557027668884
 20
43.40363721769043
 30
0.0
 11
42.48570279365886
 21
43.40363721769043
 31
0.0
  0
LINE
  5
2B8
330
1F
100
AcDbEntity
  8
0
  6
Continuous
 62
     7
100
AcDbLine
 10
42.48570279365886
 20
43.22937811074651
 30
0.0
 11
42.4557027668884
 21
43.22937811074651
 31
0.0
  0
LINE
  5
2B9
330
1F
100
AcDbEntity
  8
0
  6
Continuous
 62
     7
100
AcDbLine
 10
42.48570279365886
 20
43.40363721769043
 30
0.0
 11
42.48570279365886
 21
43.22937811074651
 31
0.0
  0
LINE
  5
2BA
330
1F
100
AcDbEntity
  8
0
  6
Continuous
 62
     7
100
AcDbLine
 10
42.4557027668884
 20
43.22937811074651
 30
0.0
 11
42.4557027668884
 21
43.40363721769043
 31
0.0
  0
LINE
  5
2BB
330
1F
100
AcDbEntity
  8
0
  6
Continuous
 62
     7
100
AcDbLine
 10
42.48570279365886
 20
43.41611195358122
 30
0.0
 11
42.48570279365886
 21
43.40363721769043
 31
0.0
  0
LINE
  5
2BC
330
1F
100
AcDbEntity
  8
0
  6
Continuous
 62
     7
100
AcDbLine
 10
42.4557027668884
 20
43.40530861171568
 30
0.0
 11
42.4557027668884
 21
43.40363721769043
 31
0.0
  0
LINE
  5
2BD
330
1F
100
AcDbEntity
  8
0
  6
Continuous
 62
     7
100
AcDbLine
 10
42.42132743066188
 20
43.25937755085708
 30
0.0
 11
42.42570274011794
 21
43.25937755085708
 31
0.0
  0
LINE
  5
2BE
330
1F
100
AcDbEntity
  8
0
  6
Continuous
 62
     7
100
AcDbLine
 10
42.42132743066188
 20
43.22937811074651
 30
0.0
 11
42.42570274011794
 21
43.22937811074651
 31
0.0
  0
LINE
  5
2BF
330
1F
100
AcDbEntity
  8
0
  6
Continuous
 62
     7
100
AcDbLine
 10
27.38570261681611
 20
43.25937755085708
 30
0.0
 11
27.39007792627216
 21
43.25937755085708
 31
0.0
  0
LINE
  5
2C0
330
1F
100
AcDbEntity
  8
0
  6
Continuous
 62
     7
100
AcDbLine
 10
27.38570261681611
 20
43.22937811074651
 30
0.0
 11
27.39007792627216
 21
43.22937811074651
 31
0.0
  0
ARC
  5
2C1
330
1F
100
AcDbEntity
  8
0
  6
Continuous
 62
     7
100
AcDbCircle
 10
42.42570267846701
 20
43.28937783125234
 30
0.0
 40
0.0300000000000011
100
AcDbArc
 50
270.0000000000008
 51
0.0
  0
ARC
  5
2C2
330
1F
100
AcDbEntity
  8
0
  6
Continuous
 62
     7
100
AcDbCircle
 10
42.42570267846701
 20
43.28937783125234
 30
0.0
 40
0.0599999999999954
100
AcDbArc
 50
270.0000000000008
 51
300.0000000000047
  0
ARC
  5
2C3
330
1F
100
AcDbEntity
  8
0
  6
Continuous
 62
     7
100
AcDbCircle
 10
27.38570267846703
 20
43.28937783125233
 30
0.0
 40
0.0300000000000011
100
AcDbArc
 50
180.0
 51
270.0000000000008
  0
ARC
  5
2C4
330
1F
100
AcDbEntity
  8
0
  6
Continuous
 62
     7
100
AcDbCircle
 10
27.38570267846703
 20
43.28937783125233
 30
0.0
 40
0.0600000000000023
100
AcDbArc
 50
240.0000000000033
 51
270.0000000000008
  0
LINE
  5
2C5
330
1F
100
AcDbEntity
  8
0
  6
Continuous
 62
     7
100
AcDbLine
 10
27.35570259004564
 20
43.28937757762754
 30
0.0
 11
27.38570261681611
 21
43.28937757762754
 31
0.0
  0
LINE
  5
2C6
330
1F
100
AcDbEntity
  8
0
  6
Continuous
 62
     7
100
AcDbLine
 10
42.42570274011794
 20
43.28937757762754
 30
0.0
 11
42.4557027668884
 21
43.28937757762754
 31
0.0
  0
LINE
  5
2C7
330
1F
100
AcDbEntity
  8
0
  6
Continuous
 62
     7
100
AcDbLine
 10
27.38570261681611
 20
43.28937757762754
 30
0.0
 11
27.39007792627216
 21
43.2937528870836
 31
0.0
  0
LINE
  5
2C8
330
1F
100
AcDbEntity
  8
0
  6
Continuous
 62
     7
100
AcDbLine
 10
42.42132743066188
 20
43.2937528870836
 30
0.0
 11
42.42570274011794
 21
43.28937757762754
 31
0.0
  0
LINE
  5
326
330
1F
100
AcDbEntity
  8
0
  6
DOT2
 62
     7
100
AcDbLine
 10
27.32407692872132
 20
44.88876907465382
 30
0.0
 11
27.3497708719027
 21
44.91446243117531
 31
0.0
  0
LINE
  5
347
330
1F
100
AcDbEntity
  8
0
  6
DOT2
 62
     7
100
AcDbLine
 10
42.42570274011794
 20
43.25937755085708
 30
0.0
 11
42.42570274011794
 21
43.22937811074651
 31
0.0
  0
LINE
  5
348
330
1F
100
AcDbEntity
  8
0
  6
DOT2
 62
     7
100
AcDbLine
 10
27.38570261681611
 20
43.25937755085708
 30
0.0
 11
27.38570261681611
 21
43.22937811074651
 31
0.0
  0
LINE
  5
349
330
1F
100
AcDbEntity
  8
0
  6
DOT2
 62
     7
100
AcDbLine
 10
27.38570261681611
 20
43.28937757762754
 30
0.0
 11
27.38570261681611
 21
43.40363721769043
 31
0.0
  0
LINE
  5
34A
330
1F
100
AcDbEntity
  8
0
  6
DOT2
 62
     7
100
AcDbLine
 10
42.42570274011794
 20
43.40363721769043
 30
0.0
 11
42.42570274011794
 21
43.28937757762754
 31
0.0
  0
LINE
  5
46A
330
1F
100
AcDbEntity
  8
0
  6
Continuous
 62
     7
100
AcDbLine
 10
64.2463926544975
 20
61.44937755175819
 30
0.0
 11
55.83714236887438
 21
61.44937755175819
 31
0.0
  0
LINE
  5
47D
330
1F
100
AcDbEntity
  8
0
  6
Continuous
 62
     7
100
AcDbLine
 10
64.2463926544975
 20
43.1993779108113
 30
0.0
 11
64.2463926544975
 21
61.19937771977758
 31
0.0
  0
LINE
  5
551
330
1F
100
AcDbEntity
  8
0
  6
Continuous
 62
     7
100
AcDbLine
 10
64.2463926544975
 20
61.19937771977758
 30
0.0
 11
64.2463926544975
 21
61.44937755175819
 31
0.0
  0
LINE
  5
B70
330
1F
100
AcDbEntity
  8
Object_Dim
  6
Continuous
 62
     7
100
AcDbLine
 10
64.24639265449748
 20
69.78932676028397
 30
0.0
 11
66.04147327941991
 21
72.75396288385429
 31
0.0
  0
LINE
  5
B71
330
1F
100
AcDbEntity
  8
Object_Dim
  6
Continuous
 62
     7
100
AcDbLine
 10
64.2463926544975
 20
68.82398180633555
 30
0.0
 11
66.04147327941987
 21
71.78861792990584
 31
0.0
  0
LINE
  5
B72
330
1F
100
AcDbEntity
  8
Object_Dim
  6
Continuous
 62
     7
100
AcDbLine
 10
64.24639265449748
 20
67.85863685238708
 30
0.0
 11
66.04147327941991
 21
70.82327297595741
 31
0.0
  0
LINE
  5
B73
330
1F
100
AcDbEntity
  8
Object_Dim
  6
Continuous
 62
     7
100
AcDbLine
 10
64.24639265449748
 20
66.89329189843864
 30
0.0
 11
66.04147327941991
 21
69.85792802200892
 31
0.0
  0
MTEXT
  5
C39
330
1F
100
AcDbEntity
  8
Object_Dim
  6
Continuous
 62
     7
100
AcDbMText
 10
38.84643539722747
 20
28.81658492975235
 30
0.0
 40
2.879999999999999
 41
0.0
 71
     1
 72
     1
  1
\A1;B-2974
 73
     1
 44
1.0
1001
ACAD
1000
MTEXTBEGIN
1070
    73
1070
     1
1070
    44
1040
1.0
1070
    74
1070
     0
1000
MTEXTEND
  0
ARC
  5
D48
330
1F
100
AcDbEntity
  8
Object
  6
Continuous
 62
     7
100
AcDbCircle
 10
29.90428674867168
 20
43.79499633855384
 30
0.0
 40
0.7565441176470609
100
AcDbArc
 50
250.7039093678037
 51
270.0000000000008
  0
ARC
  5
D49
330
1F
100
AcDbEntity
  8
Object
  6
Continuous
 62
     7
100
AcDbCircle
 10
29.90428674867168
 20
43.79499633855384
 30
0.0
 40
0.7565441176470565
100
AcDbArc
 50
270.0000000000008
 51
289.2960906321961
  0
SPLINE
  5
D4A
330
1F
100
AcDbEntity
  8
Object
  6
Continuous
 62
     7
100
AcDbSpline
210
0.0
220
0.0
230
1.0
 70
    24
 71
     1
 72
     4
 73
     2
 74
     0
 42
0.0000000001
 43
0.0000000001
 40
0.0
 40
0.0
 40
1.0
 40
1.0
 10
29.65428648994161
 20
43.10095239433134
 30
0.0
 10
29.65428648994161
 20
43.08095198537778
 30
0.0
  0
SPLINE
  5
D4B
330
1F
100
AcDbEntity
  8
Object
  6
Continuous
 62
     7
100
AcDbSpline
210
0.0
220
0.0
230
1.0
 70
    24
 71
     1
 72
     4
 73
     2
 74
     0
 42
0.0000000001
 43
0.0000000001
 40
0.0
 40
0.0
 40
1.0
 40
1.0
 10
30.15428674056273
 20
43.08095198537778
 30
0.0
 10
30.15428674056273
 20
43.10095239433134
 30
0.0
  0
SPLINE
  5
D4C
330
1F
100
AcDbEntity
  8
Object
  6
Continuous
 62
     7
100
AcDbSpline
210
0.0
220
0.0
230
1.0
 70
     8
 71
     3
 72
    12
 73
     8
 74
     0
 42
0.0000000001
 43
0.0000000001
 40
0.0
 40
0.0
 40
0.0
 40
0.0
 40
0.1451910565670035
 40
0.4044770947876569
 40
0.6399392468039793
 40
0.838291404524171
 40
1.0
 40
1.0
 40
1.0
 40
1.0
 10
30.43291088187287
 20
44.31437507010239
 30
0.0
 10
30.43291141716237
 20
44.31913269026726
 30
0.0
 10
30.43291290838605
 20
44.3323865946598
 30
0.0
 10
30.44135597830639
 20
44.35134621738758
 30
0.0
 10
30.45643421212822
 20
44.3681198895896
 30
0.0
 10
30.47424009045356
 20
44.37821724131647
 30
0.0
 10
30.48654183630794
 20
44.37856494241337
 30
0.0
 10
30.49206673183276
 20
44.3787211001049
 30
0.0
  0
LINE
  5
D4D
330
1F
100
AcDbEntity
  8
Object
  6
Continuous
 62
     7
100
AcDbLine
 10
30.15428674056273
 20
43.08095198537778
 30
0.0
 11
29.65428648994161
 21
43.08095198537778
 31
0.0
  0
ELLIPSE
  5
D4E
330
1F
100
AcDbEntity
  8
Object
  6
Continuous
 62
     7
100
AcDbEllipse
 10
29.63976832797911
 20
44.56127486331969
 30
0.0
 11
-0.0036807636226825
 21
0.0628685656927885
 31
0.0
210
0.0
220
0.0
230
1.0
 40
0.9376840584800866
 41
6.228341805314763
 42
7.791624746265807
  0
LINE
  5
D4F
330
1F
100
AcDbEntity
  8
Object
  6
Continuous
 62
     7
100
AcDbLine
 10
29.5807029133187
 20
44.56174842575761
 30
0.0
 11
29.5807029133187
 21
43.19937787712109
 31
0.0
  0
LINE
  5
D50
330
1F
100
AcDbEntity
  8
Object
  6
Continuous
 62
     7
100
AcDbLine
 10
29.64100099008351
 20
43.10095239433134
 30
0.0
 11
30.3296320482921
 21
43.10095239433134
 31
0.0
  0
LINE
  5
D51
330
1F
100
AcDbEntity
  8
Object
  6
Continuous
 62
     7
100
AcDbLine
 10
29.58182578034725
 20
43.16299754424714
 30
0.0
 11
29.5807029133187
 21
43.19937749731617
 31
0.0
  0
ARC
  5
D52
330
1F
100
AcDbEntity
  8
Object
  6
Continuous
 62
     7
100
AcDbCircle
 10
29.64100125805909
 20
43.16000733901701
 30
0.0
 40
0.0590551181102527
100
AcDbArc
 50
181.768124956998
 51
270.0000000000008
  0
LWPOLYLINE
  5
D53
330
1F
100
AcDbEntity
  8
Object
  6
Continuous
 62
     7
100
AcDbPolyline
 90
        4
 70
   128
 43
0.0
 10
29.58182578034725
 20
43.16299754424714
 10
29.58190791273178
 20
43.16032706843005
 10
29.58195777882238
 20
43.15872138031243
 10
29.58197420529931
 20
43.15818517317341
  0
SPLINE
  5
D54
330
1F
100
AcDbEntity
  8
Object
  6
Continuous
 62
     7
100
AcDbSpline
210
0.0
220
0.0
230
1.0
 70
    24
 71
     3
 72
    11
 73
     7
 74
     0
 42
0.0000000001
 43
0.0000000001
 40
0.0
 40
0.0
 40
0.0
 40
0.0
 40
0.3400007714917049
 40
0.560000526769679
 40
0.7800002633848396
 40
1.0
 40
1.0
 40
1.0
 40
1.0
 10
30.3296320482921
 20
43.10095239433134
 30
0.0
 10
30.33000099564828
 20
43.10095239433134
 30
0.0
 10
30.33060867283943
 20
43.10095239433134
 30
0.0
 10
30.33145577941449
 20
43.10095239433137
 30
0.0
 10
30.33217196756478
 20
43.10095239433134
 30
0.0
 10
30.33264952519417
 20
43.10095239433134
 30
0.0
 10
30.33288830400889
 20
43.10095239433134
 30
0.0
  0
SPLINE
  5
D55
330
1F
100
AcDbEntity
  8
Object
  6
Continuous
 62
     7
100
AcDbSpline
210
0.0
220
0.0
230
1.0
 70
     8
 71
     3
 72
    13
 73
     9
 74
     0
 42
0.0000000001
 43
0.0000000001
 40
0.0
 40
0.0
 40
0.0
 40
0.0
 40
0.2395918731927858
 40
0.3684496423990129
 40
0.5000007449037208
 40
0.6315533552147499
 40
0.760406641952904
 40
1.0
 40
1.0
 40
1.0
 40
1.0
 10
30.43129844716651
 20
43.1984059885391
 30
0.0
 10
30.42987775309767
 20
43.18610918202525
 30
0.0
 10
30.42769297856985
 20
43.16719888301419
 30
0.0
 10
30.41534173223306
 20
43.14451559047812
 30
0.0
 10
30.40263849396351
 20
43.12892781440952
 30
0.0
 10
30.38692776093217
 20
43.11637808174519
 30
0.0
 10
30.36412626791996
 20
43.10424974615445
 30
0.0
 10
30.34519737682834
 20
43.10225168975974
 30
0.0
 10
30.33288830400889
 20
43.10095239433134
 30
0.0
  0
SPLINE
  5
D56
330
1F
100
AcDbEntity
  8
Object
  6
Continuous
 62
     7
100
AcDbSpline
210
0.0
220
0.0
230
1.0
 70
     8
 71
     3
 72
    15
 73
    11
 74
     0
 42
0.0000000001
 43
0.0000000001
 40
0.0
 40
0.0
 40
0.0
 40
0.0
 40
0.1287809880615643
 40
0.2475138296673999
 40
0.3711488089915647
 40
0.4948086741330502
 40
0.6196916344753633
 40
0.7556388782929722
 40
0.8776244731728885
 40
1.0
 40
1.0
 40
1.0
 40
1.0
 10
30.53233975992865
 20
43.10095239433134
 30
0.0
 10
30.53183055864975
 20
43.10356224505587
 30
0.0
 10
30.53085188656068
 20
43.1085783127023
 30
0.0
 10
30.52986172821209
 20
43.14688675003411
 30
0.0
 10
30.52978851056947
 20
43.2025139490518
 30
0.0
 10
30.52892020029422
 20
43.27481319914245
 30
0.0
 10
30.54508928217592
 20
43.35627544406229
 30
0.0
 10
30.56672893027259
 20
43.43546013766136
 30
0.0
 10
30.58804202114242
 20
43.50814173094893
 30
0.0
 10
30.5927049994055
 20
43.54351698540336
 30
0.0
 10
30.59504020894105
 20
43.5612328371324
 30
0.0
  0
SPLINE
  5
D57
330
1F
100
AcDbEntity
  8
Object
  6
Continuous
 62
     7
100
AcDbSpline
210
0.0
220
0.0
230
1.0
 70
    24
 71
     1
 72
     4
 73
     2
 74
     0
 42
0.0000000001
 43
0.0000000001
 40
0.0
 40
0.0
 40
1.0
 40
1.0
 10
30.53126001240199
 20
43.10095239433134
 30
0.0
 10
30.53233975992865
 20
43.10095239433134
 30
0.0
  0
SPLINE
  5
D58
330
1F
100
AcDbEntity
  8
Object
  6
Continuous
 62
     7
100
AcDbSpline
210
0.0
220
0.0
230
1.0
 70
    24
 71
     3
 72
    11
 73
     7
 74
     0
 42
0.0000000001
 43
0.0000000001
 40
0.0
 40
0.0
 40
0.0
 40
0.0
 40
0.2635243871433005
 40
0.5862924249197494
 40
0.8916603154976224
 40
1.0
 40
1.0
 40
1.0
 40
1.0
 10
30.33288830400889
 20
43.10095239433134
 30
0.0
 10
30.33745750431803
 20
43.10095239433134
 30
0.0
 10
30.34762311956987
 20
43.10095239433137
 30
0.0
 10
30.41348226428325
 20
43.10095239433134
 30
0.0
 10
30.4810521201909
 20
43.10095239433134
 30
0.0
 10
30.52001173957284
 20
43.10095239433134
 30
0.0
 10
30.53021429114891
 20
43.10095239433134
 30
0.0
  0
SPLINE
  5
D59
330
1F
100
AcDbEntity
  8
Object
  6
Continuous
 62
     7
100
AcDbSpline
210
0.0
220
0.0
230
1.0
 70
    24
 71
     1
 72
     4
 73
     2
 74
     0
 42
0.0000000001
 43
0.0000000001
 40
0.0
 40
0.0
 40
1.0
 40
1.0
 10
30.53021429114891
 20
43.10095239433134
 30
0.0
 10
30.53126001240199
 20
43.10095239433134
 30
0.0
  0
LINE
  5
D5A
330
1F
100
AcDbEntity
  8
Object
  6
Continuous
 62
     7
100
AcDbLine
 10
39.21635106815563
 20
43.5612328371324
 30
0.0
 11
30.59505428877839
 21
43.5612328371324
 31
0.0
  0
LINE
  5
D5B
330
1F
100
AcDbEntity
  8
Object
  6
Continuous
 62
     7
100
AcDbLine
 10
39.2790655970054
 20
43.10095239433134
 30
0.0
 11
30.53233975992865
 21
43.10095239433134
 31
0.0
  0
SPLINE
  5
D5C
330
1F
100
AcDbEntity
  8
Object
  6
Continuous
 62
     7
100
AcDbSpline
210
0.0
220
0.0
230
1.0
 70
     8
 71
     3
 72
    10
 73
     6
 74
     0
 42
0.0000000001
 43
0.0000000001
 40
0.0
 40
0.0
 40
0.0
 40
0.0
 40
0.279208061619024
 40
0.5603105437047029
 40
1.0
 40
1.0
 40
1.0
 40
1.0
 10
30.59509946158988
 20
43.5612328371324
 30
0.0
 10
30.59599284889215
 20
43.58274728354847
 30
0.0
 10
30.59778568510956
 20
43.6259221514194
 30
0.0
 10
30.61819950521301
 20
43.70221704026251
 30
0.0
 10
30.62349142921077
 20
43.75767039417503
 30
0.0
 10
30.62671954964526
 20
43.79149743042951
 30
0.0
  0
SPLINE
  5
D5D
330
1F
100
AcDbEntity
  8
Object
  6
Continuous
 62
     7
100
AcDbSpline
210
0.0
220
0.0
230
1.0
 70
     8
 71
     3
 72
    11
 73
     7
 74
     0
 42
0.0000000001
 43
0.0000000001
 40
0.0
 40
0.0
 40
0.0
 40
0.0
 40
0.2780223920511308
 40
0.5560459964979211
 40
0.8340378947231116
 40
1.0
 40
1.0
 40
1.0
 40
1.0
 10
30.62671954964526
 20
43.79149743042951
 30
0.0
 10
30.60457632350298
 20
43.79327538011033
 30
0.0
 10
30.56028977465655
 20
43.79683128722525
 30
0.0
 10
30.50163851745161
 20
43.82467472382034
 30
0.0
 10
30.46208278400927
 20
43.85990483110124
 30
0.0
 10
30.44776998113386
 20
43.88633352237055
 30
0.0
 10
30.44241946536224
 20
43.89621328740965
 30
0.0
  0
LINE
  5
D5E
330
1F
100
AcDbEntity
  8
Object
  6
Continuous
 62
     7
100
AcDbLine
 10
39.18468580728876
 20
43.79149743042951
 30
0.0
 11
30.62671954964526
 21
43.79149743042951
 31
0.0
  0
LINE
  5
D5F
330
1F
100
AcDbEntity
  8
Object
  6
Continuous
 62
     7
100
AcDbLine
 10
30.43129844716651
 20
43.1984059885391
 30
0.0
 11
30.43291088187287
 21
44.31437507010239
 31
0.0
  0
ARC
  5
D60
330
1F
100
AcDbEntity
  8
Object
  6
Continuous
 62
     7
100
AcDbCircle
 10
39.90386675249475
 20
43.79499633855384
 30
0.0
 40
0.7565441176470609
100
AcDbArc
 50
270.0
 51
289.2960906321961
  0
ARC
  5
D61
330
1F
100
AcDbEntity
  8
Object
  6
Continuous
 62
     7
100
AcDbCircle
 10
39.90386675249475
 20
43.79499633855384
 30
0.0
 40
0.7565441176470565
100
AcDbArc
 50
250.7039093678037
 51
270.0
  0
SPLINE
  5
D62
330
1F
100
AcDbEntity
  8
Object
  6
Continuous
 62
     7
100
AcDbSpline
210
0.0
220
0.0
230
1.0
 70
    24
 71
     1
 72
     4
 73
     2
 74
     0
 42
0.0000000001
 43
0.0000000001
 40
0.0
 40
0.0
 40
1.0
 40
1.0
 10
40.15386701122482
 20
43.10095239433134
 30
0.0
 10
40.15386701122482
 20
43.08095198537778
 30
0.0
  0
SPLINE
  5
D63
330
1F
100
AcDbEntity
  8
Object
  6
Continuous
 62
     7
100
AcDbSpline
210
0.0
220
0.0
230
1.0
 70
    24
 71
     1
 72
     4
 73
     2
 74
     0
 42
0.0000000001
 43
0.0000000001
 40
0.0
 40
0.0
 40
1.0
 40
1.0
 10
39.65386676060371
 20
43.08095198537778
 30
0.0
 10
39.65386676060371
 20
43.10095239433134
 30
0.0
  0
SPLINE
  5
D64
330
1F
100
AcDbEntity
  8
Object
  6
Continuous
 62
     7
100
AcDbSpline
210
0.0
220
0.0
230
1.0
 70
     8
 71
     3
 72
    12
 73
     8
 74
     0
 42
0.0000000001
 43
0.0000000001
 40
0.0
 40
0.0
 40
0.0
 40
0.0
 40
0.1451910565670035
 40
0.4044770947876569
 40
0.6399392468039793
 40
0.838291404524171
 40
1.0
 40
1.0
 40
1.0
 40
1.0
 10
39.37524261929356
 20
44.31437507010239
 30
0.0
 10
39.37524208400406
 20
44.31913269026726
 30
0.0
 10
39.37524059278039
 20
44.3323865946598
 30
0.0
 10
39.36679752286004
 20
44.35134621738758
 30
0.0
 10
39.35171928903822
 20
44.3681198895896
 30
0.0
 10
39.33391341071287
 20
44.37821724131647
 30
0.0
 10
39.3216116648585
 20
44.37856494241337
 30
0.0
 10
39.31608676933367
 20
44.3787211001049
 30
0.0
  0
LINE
  5
D65
330
1F
100
AcDbEntity
  8
Object
  6
Continuous
 62
     7
100
AcDbLine
 10
39.65386676060371
 20
43.08095198537778
 30
0.0
 11
40.15386701122482
 21
43.08095198537778
 31
0.0
  0
ELLIPSE
  5
D66
330
1F
100
AcDbEntity
  8
Object
  6
Continuous
 62
     7
100
AcDbEllipse
 10
40.16838517318731
 20
44.56127486331969
 30
0.0
 11
0.0036807636226825
 21
0.0628685656927885
 31
0.0
210
0.0
220
0.0
230
-1.0
 40
0.9376840584800866
 41
6.228341805314763
 42
7.791624746265807
  0
LINE
  5
D67
330
1F
100
AcDbEntity
  8
Object
  6
Continuous
 62
     7
100
AcDbLine
 10
40.22745058784773
 20
44.56174842575761
 30
0.0
 11
40.22745058784773
 21
43.19937787712103
 31
0.0
  0
LINE
  5
D68
330
1F
100
AcDbEntity
  8
Object
  6
Continuous
 62
     7
100
AcDbLine
 10
40.16715251108291
 20
43.10095239433134
 30
0.0
 11
39.47852145287433
 21
43.10095239433134
 31
0.0
  0
LINE
  5
D69
330
1F
100
AcDbEntity
  8
Object
  6
Continuous
 62
     7
100
AcDbLine
 10
40.22632772081919
 20
43.16299754424714
 30
0.0
 11
40.22745058784773
 21
43.19937749731617
 31
0.0
  0
ARC
  5
D6A
330
1F
100
AcDbEntity
  8
Object
  6
Continuous
 62
     7
100
AcDbCircle
 10
40.16715224310734
 20
43.16000733901701
 30
0.0
 40
0.0590551181102527
100
AcDbArc
 50
270.0
 51
358.231875043002
  0
LWPOLYLINE
  5
D6B
330
1F
100
AcDbEntity
  8
Object
  6
Continuous
 62
     7
100
AcDbPolyline
 90
        4
 70
   128
 43
0.0
 10
40.22632772081919
 20
43.16299754424714
 10
40.22624558843465
 20
43.16032706843005
 10
40.22619572234404
 20
43.15872138031243
 10
40.22617929586712
 20
43.15818517317341
  0
SPLINE
  5
D6C
330
1F
100
AcDbEntity
  8
Object
  6
Continuous
 62
     7
100
AcDbSpline
210
0.0
220
0.0
230
1.0
 70
    24
 71
     3
 72
    11
 73
     7
 74
     0
 42
0.0000000001
 43
0.0000000001
 40
0.0
 40
0.0
 40
0.0
 40
0.0
 40
0.3400007714917049
 40
0.560000526769679
 40
0.7800002633848396
 40
1.0
 40
1.0
 40
1.0
 40
1.0
 10
39.47852145287433
 20
43.10095239433134
 30
0.0
 10
39.47815250551816
 20
43.10095239433134
 30
0.0
 10
39.477544828327
 20
43.10095239433134
 30
0.0
 10
39.47669772175195
 20
43.10095239433137
 30
0.0
 10
39.47598153360166
 20
43.10095239433134
 30
0.0
 10
39.47550397597226
 20
43.10095239433134
 30
0.0
 10
39.47526519715754
 20
43.10095239433134
 30
0.0
  0
SPLINE
  5
D6D
330
1F
100
AcDbEntity
  8
Object
  6
Continuous
 62
     7
100
AcDbSpline
210
0.0
220
0.0
230
1.0
 70
     8
 71
     3
 72
    13
 73
     9
 74
     0
 42
0.0000000001
 43
0.0000000001
 40
0.0
 40
0.0
 40
0.0
 40
0.0
 40
0.2395918731927858
 40
0.3684496423990129
 40
0.5000007449037208
 40
0.6315533552147499
 40
0.760406641952904
 40
1.0
 40
1.0
 40
1.0
 40
1.0
 10
39.37685505399992
 20
43.1984059885391
 30
0.0
 10
39.37827574806876
 20
43.18610918202525
 30
0.0
 10
39.38046052259658
 20
43.16719888301419
 30
0.0
 10
39.39281176893337
 20
43.14451559047812
 30
0.0
 10
39.40551500720292
 20
43.12892781440952
 30
0.0
 10
39.42122574023427
 20
43.11637808174519
 30
0.0
 10
39.44402723324648
 20
43.10424974615445
 30
0.0
 10
39.46295612433809
 20
43.10225168975974
 30
0.0
 10
39.47526519715754
 20
43.10095239433134
 30
0.0
  0
SPLINE
  5
D6E
330
1F
100
AcDbEntity
  8
Object
  6
Continuous
 62
     7
100
AcDbSpline
210
0.0
220
0.0
230
1.0
 70
     8
 71
     3
 72
    15
 73
    11
 74
     0
 42
0.0000000001
 43
0.0000000001
 40
0.0
 40
0.0
 40
0.0
 40
0.0
 40
0.1287809880615643
 40
0.2475138296673999
 40
0.3711488089915647
 40
0.4948086741330502
 40
0.6196916344753633
 40
0.7556388782929722
 40
0.8776244731728885
 40
1.0
 40
1.0
 40
1.0
 40
1.0
 10
39.27581374123779
 20
43.10095239433134
 30
0.0
 10
39.27632294251669
 20
43.10356224505587
 30
0.0
 10
39.27730161460575
 20
43.1085783127023
 30
0.0
 10
39.27829177295435
 20
43.14688675003411
 30
0.0
 10
39.27836499059696
 20
43.2025139490518
 30
0.0
 10
39.27923330087221
 20
43.27481319914245
 30
0.0
 10
39.26306421899051
 20
43.35627544406229
 30
0.0
 10
39.24142457089384
 20
43.43546013766136
 30
0.0
 10
39.22011148002402
 20
43.50814173094893
 30
0.0
 10
39.21544850176093
 20
43.54351698540336
 30
0.0
 10
39.21311329222539
 20
43.5612328371324
 30
0.0
  0
SPLINE
  5
D6F
330
1F
100
AcDbEntity
  8
Object
  6
Continuous
 62
     7
100
AcDbSpline
210
0.0
220
0.0
230
1.0
 70
    24
 71
     1
 72
     4
 73
     2
 74
     0
 42
0.0000000001
 43
0.0000000001
 40
0.0
 40
0.0
 40
1.0
 40
1.0
 10
39.27689348876445
 20
43.10095239433134
 30
0.0
 10
39.27581374123779
 20
43.10095239433134
 30
0.0
  0
SPLINE
  5
D70
330
1F
100
AcDbEntity
  8
Object
  6
Continuous
 62
     7
100
AcDbSpline
210
0.0
220
0.0
230
1.0
 70
    24
 71
     3
 72
    11
 73
     7
 74
     0
 42
0.0000000001
 43
0.0000000001
 40
0.0
 40
0.0
 40
0.0
 40
0.0
 40
0.2635243871433005
 40
0.5862924249197494
 40
0.8916603154976224
 40
1.0
 40
1.0
 40
1.0
 40
1.0
 10
39.47526519715754
 20
43.10095239433134
 30
0.0
 10
39.47069599684841
 20
43.10095239433134
 30
0.0
 10
39.46053038159656
 20
43.10095239433137
 30
0.0
 10
39.39467123688319
 20
43.10095239433134
 30
0.0
 10
39.32710138097553
 20
43.10095239433134
 30
0.0
 10
39.2881417615936
 20
43.10095239433134
 30
0.0
 10
39.27793921001752
 20
43.10095239433134
 30
0.0
  0
SPLINE
  5
D71
330
1F
100
AcDbEntity
  8
Object
  6
Continuous
 62
     7
100
AcDbSpline
210
0.0
220
0.0
230
1.0
 70
    24
 71
     1
 72
     4
 73
     2
 74
     0
 42
0.0000000001
 43
0.0000000001
 40
0.0
 40
0.0
 40
1.0
 40
1.0
 10
39.27793921001752
 20
43.10095239433134
 30
0.0
 10
39.27689348876445
 20
43.10095239433134
 30
0.0
  0
SPLINE
  5
D72
330
1F
100
AcDbEntity
  8
Object
  6
Continuous
 62
     7
100
AcDbSpline
210
0.0
220
0.0
230
1.0
 70
     8
 71
     3
 72
    10
 73
     6
 74
     0
 42
0.0000000001
 43
0.0000000001
 40
0.0
 40
0.0
 40
0.0
 40
0.0
 40
0.279208061619024
 40
0.5603105437047029
 40
1.0
 40
1.0
 40
1.0
 40
1.0
 10
39.21305403957655
 20
43.5612328371324
 30
0.0
 10
39.21216065227428
 20
43.58274728354847
 30
0.0
 10
39.21036781605688
 20
43.6259221514194
 30
0.0
 10
39.18995399595342
 20
43.70221704026251
 30
0.0
 10
39.18466207195566
 20
43.75767039417503
 30
0.0
 10
39.18143395152117
 20
43.79149743042951
 30
0.0
  0
SPLINE
  5
D73
330
1F
100
AcDbEntity
  8
Object
  6
Continuous
 62
     7
100
AcDbSpline
210
0.0
220
0.0
230
1.0
 70
     8
 71
     3
 72
    11
 73
     7
 74
     0
 42
0.0000000001
 43
0.0000000001
 40
0.0
 40
0.0
 40
0.0
 40
0.0
 40
0.2780223920511308
 40
0.5560459964979211
 40
0.8340378947231116
 40
1.0
 40
1.0
 40
1.0
 40
1.0
 10
39.18143395152117
 20
43.79149743042951
 30
0.0
 10
39.20357717766345
 20
43.79327538011033
 30
0.0
 10
39.24786372650988
 20
43.79683128722525
 30
0.0
 10
39.30651498371482
 20
43.82467472382034
 30
0.0
 10
39.34607071715716
 20
43.85990483110124
 30
0.0
 10
39.36038352003257
 20
43.88633352237055
 30
0.0
 10
39.3657340358042
 20
43.89621328740965
 30
0.0
  0
LINE
  5
D74
330
1F
100
AcDbEntity
  8
Object
  6
Continuous
 62
     7
100
AcDbLine
 10
39.37685505399992
 20
43.1984059885391
 30
0.0
 11
39.37524261929356
 21
44.31437507010239
 31
0.0
  0
LINE
  5
D75
330
1F
100
AcDbEntity
  8
Object
  6
Continuous
 62
     7
100
AcDbLine
 10
30.49206673183276
 20
44.3787211001049
 30
0.0
 11
39.31608676933367
 21
44.3787211001049
 31
0.0
  0
LINE
  5
D76
330
1F
100
AcDbEntity
  8
Object
  6
Continuous
 62
     7
100
AcDbLine
 10
29.63932454913953
 20
44.62423809599144
 30
0.0
 11
40.1688289520269
 21
44.62423809599144
 31
0.0
  0
ARC
  5
D77
330
1F
100
AcDbEntity
  8
Object
  6
Continuous
 62
     7
100
AcDbCircle
 10
30.63863503166452
 20
43.98413865065748
 30
0.0
 40
0.2150149249740321
100
AcDbArc
 50
196.3791443206245
 51
204.1374352913673
  0
ARC
  5
D78
330
1F
100
AcDbEntity
  8
Object
  6
Continuous
 62
     7
100
AcDbCircle
 10
39.16951875222952
 20
43.98413865065748
 30
0.0
 40
0.2150149249740321
100
AcDbArc
 50
335.8625647086327
 51
343.6208556793755
  0
CIRCLE
  5
EA6
330
1F
100
AcDbEntity
  8
Object
  6
Continuous
 62
     7
100
AcDbCircle
 10
57.18714236637521
 20
53.25937783638322
 30
0.0
 40
0.4549999999999841
  0
ARC
  5
EBE
330
1F
100
AcDbEntity
  8
Object
  6
Continuous
 62
     7
100
AcDbCircle
 10
57.18714236637521
 20
53.2593778363832
 30
0.0
 40
0.087531161066833
100
AcDbArc
 50
297.9307865344646
 51
62.06921346549761
  0
LINE
  5
EBF
330
1F
100
AcDbEntity
  8
Object
  6
Continuous
 62
     7
100
AcDbLine
 10
57.22814236637522
 20
53.33671284887886
 30
0.0
 11
57.22814236637519
 21
53.37529596592422
 31
0.0
  0
ARC
  5
EC0
330
1F
100
AcDbEntity
  8
Object
  6
Continuous
 62
     7
100
AcDbCircle
 10
57.18714236637521
 20
53.2593778363832
 30
0.0
 40
0.1229553282956432
100
AcDbArc
 50
289.478580547315
 51
70.52141945268627
  0
LINE
  5
EC1
330
1F
100
AcDbEntity
  8
Object
  6
Continuous
 62
     7
100
AcDbLine
 10
57.22814236637519
 20
53.14345970684216
 30
0.0
 11
57.22814236637519
 21
53.1820428238875
 31
0.0
  0
ARC
  5
EC2
330
1F
100
AcDbEntity
  8
Object
  6
Continuous
 62
     7
100
AcDbCircle
 10
57.18714236637521
 20
53.2593778363832
 30
0.0
 40
0.1229553282956479
100
AcDbArc
 50
109.4785805473206
 51
250.5214194526794
  0
ARC
  5
EC3
330
1F
100
AcDbEntity
  8
Object
  6
Continuous
 62
     7
100
AcDbCircle
 10
57.18714236637521
 20
53.2593778363832
 30
0.0
 40
0.0875311610668396
100
AcDbArc
 50
117.9307865345512
 51
242.069213465528
  0
LINE
  5
EC4
330
1F
100
AcDbEntity
  8
Object
  6
Continuous
 62
     7
100
AcDbLine
 10
57.14614236637522
 20
53.37529596592422
 30
0.0
 11
57.14614236637522
 21
53.33671284887883
 31
0.0
  0
LINE
  5
EC5
330
1F
100
AcDbEntity
  8
Object
  6
Continuous
 62
     7
100
AcDbLine
 10
57.14614236637522
 20
53.1820428238875
 30
0.0
 11
57.14614236637522
 21
53.14345970684216
 31
0.0
  0
CIRCLE
  5
EC6
330
1F
100
AcDbEntity
  8
Object
  6
Continuous
 62
     7
100
AcDbCircle
 10
57.18714236637521
 20
53.2593778363832
 30
0.0
 40
0.2800000000000011
  0
LINE
  5
EC7
330
1F
100
AcDbEntity
  8
Object
  6
Continuous
 62
     7
100
AcDbLine
 10
57.14614236637522
 20
53.01937783638321
 30
0.0
 11
57.22814236637519
 21
53.01937783638319
 31
0.0
  0
LINE
  5
EC8
330
1F
100
AcDbEntity
  8
Object
  6
Continuous
 62
     7
100
AcDbLine
 10
57.22814236637519
 20
53.4093778363832
 30
0.0
 11
57.14614236637522
 21
53.4093778363832
 31
0.0
  0
LINE
  5
EC9
330
1F
100
AcDbEntity
  8
Object
  6
Continuous
 62
     7
100
AcDbLine
 10
57.14614236637522
 20
53.4093778363832
 30
0.0
 11
57.14614236637522
 21
53.37529596592422
 31
0.0
  0
LINE
  5
ECA
330
1F
100
AcDbEntity
  8
Object
  6
Continuous
 62
     7
100
AcDbLine
 10
57.14614236637522
 20
53.14345970684216
 30
0.0
 11
57.14614236637522
 21
53.01937783638321
 31
0.0
  0
LINE
  5
ECB
330
1F
100
AcDbEntity
  8
Object
  6
Continuous
 62
     7
100
AcDbLine
 10
57.22814236637519
 20
53.01937783638319
 30
0.0
 11
57.22814236637519
 21
53.14345970684216
 31
0.0
  0
LINE
  5
ECC
330
1F
100
AcDbEntity
  8
Object
  6
Continuous
 62
     7
100
AcDbLine
 10
57.22814236637519
 20
53.37529596592422
 30
0.0
 11
57.22814236637519
 21
53.4093778363832
 31
0.0
  0
CIRCLE
  5
ECD
330
1F
100
AcDbEntity
  8
Object
  6
Continuous
 62
     7
100
AcDbCircle
 10
57.18714236637521
 20
53.2593778363832
 30
0.0
 40
0.3100000000000023
  0
LINE
  5
ECE
330
1F
100
AcDbEntity
  8
Object
  6
Continuous
 62
     7
100
AcDbLine
 10
57.14614236637522
 20
53.33671284887883
 30
0.0
 11
57.14614236637522
 21
53.1820428238875
 31
0.0
  0
LINE
  5
ECF
330
1F
100
AcDbEntity
  8
Object
  6
Continuous
 62
     7
100
AcDbLine
 10
57.22814236637519
 20
53.1820428238875
 30
0.0
 11
57.22814236637522
 21
53.33671284887886
 31
0.0
  0
CIRCLE
  5
ED0
330
1F
100
AcDbEntity
  8
Object
  6
Continuous
 62
     7
100
AcDbCircle
 10
57.18714236637521
 20
53.25937783638328
 30
0.0
 40
0.4548024873224108
  0
LINE
  5
ED1
330
1F
100
AcDbEntity
  8
Object
  6
Continuous
 62
     7
100
AcDbLine
 10
55.79714236615618
 20
61.19998681868736
 30
0.0
 11
55.79714236615618
 21
44.88876884381729
 31
0.0
  0
LINE
  5
ED2
330
1F
100
AcDbEntity
  8
Object
  6
Continuous
 62
     7
100
AcDbLine
 10
55.79714236615618
 20
44.63937783125233
 30
0.0
 11
55.42970324772014
 21
44.66507167738789
 31
0.0
  0
LINE
  5
ED3
330
1F
100
AcDbEntity
  8
Object
  6
Continuous
 62
     7
100
AcDbLine
 10
55.79714236615618
 20
44.88876884381729
 30
0.0
 11
55.79714236615618
 21
44.63937783125234
 31
0.0
  0
LINE
  5
ED4
330
1F
100
AcDbEntity
  8
Object
  6
Continuous
 62
     7
100
AcDbLine
 10
55.42970324772014
 20
61.42368398511677
 30
0.0
 11
55.79714236615618
 21
61.44937783125232
 31
0.0
  0
LINE
  5
ED5
330
1F
100
AcDbEntity
  8
Object
  6
Continuous
 62
     7
100
AcDbLine
 10
55.79714236615618
 20
61.44937783125232
 30
0.0
 11
55.79714236615618
 21
61.19998681868736
 31
0.0
  0
LINE
  5
ED6
330
1F
100
AcDbEntity
  8
Object
  6
Continuous
 62
     7
100
AcDbLine
 10
55.19714236615616
 20
44.91446268995285
 30
0.0
 11
55.19714236615616
 21
61.17429297255181
 31
0.0
  0
ARC
  5
ED7
330
1F
100
AcDbEntity
  8
Object
  6
Continuous
 62
     7
100
AcDbCircle
 10
55.44714236615618
 20
44.91446268995285
 30
0.0
 40
0.2500000000000284
100
AcDbArc
 50
180.0000000000004
 51
265.9999999999986
  0
ARC
  5
ED8
330
1F
100
AcDbEntity
  8
Object
  6
Continuous
 62
     7
100
AcDbCircle
 10
55.44714236615618
 20
61.17429297255181
 30
0.0
 40
0.2500000000000284
100
AcDbArc
 50
94.00000000000302
 51
180.0000000000004
  0
ARC
  5
ED9
330
1F
100
AcDbEntity
  8
Object
  6
Continuous
 62
     7
100
AcDbCircle
 10
56.37302690252923
 20
43.44937783116833
 30
0.0
 40
0.2500000001336403
100
AcDbArc
 50
191.9999999880461
 51
270.0000000000008
  0
LINE
  5
EDA
330
1F
100
AcDbEntity
  8
Object
  6
Continuous
 62
     7
100
AcDbLine
 10
56.12849000220421
 20
43.39739990848713
 30
0.0
 11
55.82631781548198
 21
44.81900827638741
 31
0.0
  0
LINE
  5
EDB
330
1F
100
AcDbEntity
  8
Object
  6
Continuous
 62
     7
100
AcDbLine
 10
55.82631781548198
 20
44.81900827638741
 30
0.0
 11
55.82411257898503
 21
44.8293830984096
 31
0.0
  0
LINE
  5
EDD
330
1F
100
AcDbEntity
  8
Object
  6
Continuous
 62
     7
100
AcDbLine
 10
55.82411257898503
 20
44.8293830984096
 30
0.0
 11
55.81088802287471
 21
44.8915997432707
 31
0.0
  0
LINE
  5
EDE
330
1F
100
AcDbEntity
  8
Object
  6
Continuous
 62
     7
100
AcDbLine
 10
55.81088802287471
 20
44.8915997432707
 30
0.0
 11
55.80933215424721
 21
44.89891952966199
 31
0.0
  0
LINE
  5
EDF
330
1F
100
AcDbEntity
  8
Object
  6
Continuous
 62
     7
100
AcDbLine
 10
55.80933215424721
 20
44.89891952966199
 30
0.0
 11
55.80551499940773
 21
44.91687783125233
 31
0.0
  0
LINE
  5
EE0
330
1F
100
AcDbEntity
  8
Object
  6
Continuous
 62
     7
100
AcDbLine
 10
60.15139236637522
 20
61.44937783125235
 30
0.0
 11
55.83714236637522
 21
61.44937783097233
 31
0.0
  0
ARC
  5
EE1
330
1F
100
AcDbEntity
  8
Object
  6
Continuous
 62
     7
100
AcDbCircle
 10
55.83714236637522
 20
61.40937783125234
 30
0.0
 40
0.0399999997199956
100
AcDbArc
 50
90.0
 51
138.5903672340598
  0
ARC
  5
EE2
330
1F
100
AcDbEntity
  8
Object
  6
Continuous
 62
     7
100
AcDbCircle
 10
55.83714236637522
 20
61.40937783125234
 30
0.0
 40
0.0399999955103689
100
AcDbArc
 50
138.5903709459674
 51
179.9897396027076
  0
SPLINE
  5
EEF
330
1F
100
AcDbEntity
  8
Object
  6
Continuous
 62
     7
100
AcDbSpline
210
0.0
220
0.0
230
1.0
 70
    24
 71
     1
 72
     4
 73
     2
 74
     0
 42
0.0000000001
 43
0.0000000001
 40
0.0
 40
0.0
 40
1.0
 40
1.0
 10
57.03540007193604
 20
43.10095280782649
 30
0.0
 10
57.03540007193604
 20
43.08095239887292
 30
0.0
  0
SPLINE
  5
EF0
330
1F
100
AcDbEntity
  8
Object
  6
Continuous
 62
     7
100
AcDbSpline
210
0.0
220
0.0
230
1.0
 70
    24
 71
     1
 72
     4
 73
     2
 74
     0
 42
0.0000000001
 43
0.0000000001
 40
0.0
 40
0.0
 40
1.0
 40
1.0
 10
57.53539973589723
 20
43.08095239887292
 30
0.0
 10
57.53539973589723
 20
43.10095280782649
 30
0.0
  0
ARC
  5
EF1
330
1F
100
AcDbEntity
  8
Object
  6
Continuous
 62
     7
100
AcDbCircle
 10
57.28539997795332
 20
43.79499675204899
 30
0.0
 40
0.7565441176470609
100
AcDbArc
 50
250.7039093678046
 51
289.296090632198
  0
SPLINE
  5
EF2
330
1F
100
AcDbEntity
  8
Object
  6
Continuous
 62
     7
100
AcDbSpline
210
0.0
220
0.0
230
1.0
 70
    24
 71
     1
 72
     4
 73
     2
 74
     0
 42
0.0000000001
 43
0.0000000001
 40
0.0
 40
0.0
 40
1.0
 40
1.0
 10
59.45690007189473
 20
43.09209776345404
 30
0.0
 10
59.45690007189473
 20
43.07795280685779
 30
0.0
  0
SPLINE
  5
EF3
330
1F
100
AcDbEntity
  8
Object
  6
Continuous
 62
     7
100
AcDbSpline
210
0.0
220
0.0
230
1.0
 70
    24
 71
     1
 72
     4
 73
     2
 74
     0
 42
0.0000000001
 43
0.0000000001
 40
0.0
 40
0.0
 40
1.0
 40
1.0
 10
59.83789988388572
 20
43.07795280685779
 30
0.0
 10
59.83789988388572
 20
43.10095280782649
 30
0.0
  0
ARC
  5
EF4
330
1F
100
AcDbEntity
  8
Object
  6
Continuous
 62
     7
100
AcDbCircle
 10
59.6473999779533
 20
43.14925818995748
 30
0.0
 40
0.1782824975137847
100
AcDbArc
 50
297.383506638765
 51
331.0468441552504
  0
ARC
  5
EF5
330
1F
100
AcDbEntity
  8
Object
  6
Continuous
 62
     7
100
AcDbCircle
 10
59.6473999779533
 20
43.14925818995748
 30
0.0
 40
0.1782824975137907
100
AcDbArc
 50
208.9531558447506
 51
242.6164933612339
  0
SPLINE
  5
EF6
330
1F
100
AcDbEntity
  8
Object
  6
Continuous
 62
     7
100
AcDbSpline
210
0.0
220
0.0
230
1.0
 70
    24
 71
     1
 72
     4
 73
     2
 74
     0
 42
0.0000000001
 43
0.0000000001
 40
0.0
 40
0.0
 40
1.0
 40
1.0
 10
59.49140007334775
 20
43.07282246612394
 30
0.0
 10
59.49140007334775
 20
43.06295250014263
 30
0.0
  0
SPLINE
  5
EF7
330
1F
100
AcDbEntity
  8
Object
  6
Continuous
 62
     7
100
AcDbSpline
210
0.0
220
0.0
230
1.0
 70
    24
 71
     1
 72
     4
 73
     2
 74
     0
 42
0.0000000001
 43
0.0000000001
 40
0.0
 40
0.0
 40
1.0
 40
1.0
 10
59.80339988243271
 20
43.06295250014263
 30
0.0
 10
59.80339988243271
 20
43.07725526824916
 30
0.0
  0
LINE
  5
EF8
330
1F
100
AcDbEntity
  8
Object
  6
Continuous
 62
     7
100
AcDbLine
 10
57.53539973589723
 20
43.08095239887292
 30
0.0
 11
57.03540007193604
 21
43.08095239887292
 31
0.0
  0
SPLINE
  5
EF9
330
1F
100
AcDbEntity
  8
Object
  6
Continuous
 62
     7
100
AcDbSpline
210
0.0
220
0.0
230
1.0
 70
     8
 71
     3
 72
    11
 73
     7
 74
     0
 42
0.0000000001
 43
0.0000000001
 40
0.0
 40
0.0
 40
0.0
 40
0.0
 40
0.2998688885827144
 40
0.5997390554253097
 40
0.8996181925675305
 40
1.0
 40
1.0
 40
1.0
 40
1.0
 10
56.31505740672929
 20
43.10672730111905
 30
0.0
 10
56.27654777159375
 20
43.11774200276064
 30
0.0
 10
56.19952833716656
 20
43.13977145299652
 30
0.0
 10
56.10650330785373
 20
43.21895337792066
 30
0.0
 10
56.05642610941561
 20
43.29899643989572
 30
0.0
 10
56.04077449095334
 20
43.34962025027897
 30
0.0
 10
56.03684920728082
 20
43.36231624186713
 30
0.0
  0
LINE
  5
EFA
330
1F
100
AcDbEntity
  8
Object
  6
Continuous
 62
     7
100
AcDbLine
 10
60.10854603735829
 20
43.1993779108113
 30
0.0
 11
60.10854603735829
 21
43.1600077522854
 31
0.0
  0
LINE
  5
EFB
330
1F
100
AcDbEntity
  8
Object
  6
Continuous
 62
     7
100
AcDbLine
 10
55.81284955494393
 20
44.58449833644862
 30
0.0
 11
55.86867435005112
 21
44.6242386773648
 31
0.0
  0
ARC
  5
EFC
330
1F
100
AcDbEntity
  8
Object
  6
Continuous
 62
     7
100
AcDbCircle
 10
56.37876624066868
 20
43.45528334306334
 30
0.0
 40
0.3543307086614127
100
AcDbArc
 50
192.0000000000012
 51
195.2110104715241
  0
LINE
  5
EFD
330
1F
100
AcDbEntity
  8
Object
  6
Continuous
 62
     7
100
AcDbLine
 10
56.03217822124046
 20
43.38161383227306
 30
0.0
 11
55.78933329327245
 21
44.52410991406082
 31
0.0
  0
ARC
  5
EFE
330
1F
100
AcDbEntity
  8
Object
  6
Continuous
 62
     7
100
AcDbCircle
 10
55.8470980754735
 20
44.53638825225316
 30
0.0
 40
0.0590551181102387
100
AcDbArc
 50
125.4461862720123
 51
192.0000000000004
  0
ARC
  5
EFF
330
1F
100
AcDbEntity
  8
Object
  6
Continuous
 62
     7
100
AcDbCircle
 10
56.37876624066868
 20
43.45528334306334
 30
0.0
 40
0.3543307086614185
100
AcDbArc
 50
259.6418738369609
 51
270.0000000000008
  0
ARC
  5
F00
330
1F
100
AcDbEntity
  8
Object
  6
Continuous
 62
     7
100
AcDbCircle
 10
60.04949079910303
 20
43.16000775251215
 30
0.0
 40
0.059055118110237
100
AcDbArc
 50
270.0000000000008
 51
0.0
  0
LINE
  5
F01
330
1F
100
AcDbEntity
  8
Object
  6
Continuous
 62
     7
100
AcDbLine
 10
60.04949079956943
 20
43.10095280782649
 30
0.0
 11
56.37876632409177
 21
43.10095280782649
 31
0.0
  0
SPLINE
  5
F02
330
1F
100
AcDbEntity
  8
Object
  6
Continuous
 62
     7
100
AcDbSpline
210
0.0
220
0.0
230
1.0
 70
    24
 71
     3
 72
    11
 73
     7
 74
     0
 42
0.0000000001
 43
0.0000000001
 40
0.0
 40
0.0
 40
0.0
 40
0.0
 40
0.2635243871433005
 40
0.5862924249197494
 40
0.8916603154976224
 40
1.0
 40
1.0
 40
1.0
 40
1.0
 10
56.60498531079077
 20
43.10095280782649
 30
0.0
 10
56.63844493284702
 20
43.10095280782649
 30
0.0
 10
56.71288632768301
 20
43.1009528078265
 30
0.0
 10
56.80925945584698
 20
43.10095280782649
 30
0.0
 10
56.87327297594368
 20
43.10095280782649
 30
0.0
 10
56.90842407677578
 20
43.10095280782649
 30
0.0
 10
56.9176292724344
 20
43.10095280782649
 30
0.0
  0
SPLINE
  5
F03
330
1F
100
AcDbEntity
  8
Object
  6
Continuous
 62
     7
100
AcDbSpline
210
0.0
220
0.0
230
1.0
 70
    24
 71
     3
 72
    11
 73
     7
 74
     0
 42
0.0000000001
 43
0.0000000001
 40
0.0
 40
0.0
 40
0.0
 40
0.0
 40
0.3400007714917049
 40
0.560000526769679
 40
0.7800002633848396
 40
1.0
 40
1.0
 40
1.0
 40
1.0
 10
56.37876632409183
 20
43.10095280782649
 30
0.0
 10
56.40440453547211
 20
43.10095280782649
 30
0.0
 10
56.44663212164909
 20
43.10095280782649
 30
0.0
 10
56.50544907114451
 20
43.1009528078265
 30
0.0
 10
56.55521719273884
 20
43.10095280782649
 30
0.0
 10
56.5883959381068
 20
43.10095280782649
 30
0.0
 10
56.60498531079077
 20
43.10095280782649
 30
0.0
  0
LINE
  5
F04
330
1F
100
AcDbEntity
  8
Object
  6
Continuous
 62
     7
100
AcDbLine
 10
55.86867446516007
 20
44.62423875931015
 30
0.0
 11
55.83240644902105
 21
44.59841977562696
 31
0.0
  0
SPLINE
  5
F05
330
1F
100
AcDbEntity
  8
Object
  6
Continuous
 62
     7
100
AcDbSpline
210
0.0
220
0.0
230
1.0
 70
    24
 71
     1
 72
     4
 73
     2
 74
     0
 42
0.0000000001
 43
0.0000000001
 40
0.0
 40
0.0
 40
1.0
 40
1.0
 10
59.66239999127544
 20
43.10090528837544
 30
0.0
 10
59.66239999127544
 20
43.07795280685779
 30
0.0
  0
SPLINE
  5
F06
330
1F
100
AcDbEntity
  8
Object
  6
Continuous
 62
     7
100
AcDbSpline
210
0.0
220
0.0
230
1.0
 70
    24
 71
     1
 72
     4
 73
     2
 74
     0
 42
0.0000000001
 43
0.0000000001
 40
0.0
 40
0.0
 40
1.0
 40
1.0
 10
59.63239996450501
 20
43.10095280782649
 30
0.0
 10
59.63239996450501
 20
43.07795280685779
 30
0.0
  0
LINE
  5
F07
330
1F
100
AcDbEntity
  8
Object
  6
Continuous
 62
     7
100
AcDbLine
 10
59.63239996450501
 20
43.07795280685779
 30
0.0
 11
59.66239999127544
 21
43.07795280685779
 31
0.0
  0
LINE
  5
F08
330
1F
100
AcDbEntity
  8
Object
  6
Continuous
 62
     7
100
AcDbLine
 10
59.66405701213343
 20
43.07734972049137
 30
0.0
 11
59.67192324126206
 21
43.09896227082134
 31
0.0
  0
ARC
  5
F09
330
1F
100
AcDbEntity
  8
Object
  6
Continuous
 62
     7
100
AcDbCircle
 10
59.66063670814619
 20
43.06795263440192
 30
0.0
 40
0.009999999999998
100
AcDbArc
 50
69.99999999998784
 51
90.0
  0
SPLINE
  5
F0A
330
1F
100
AcDbEntity
  8
Object
  6
Continuous
 62
     7
100
AcDbSpline
210
0.0
220
0.0
230
1.0
 70
    24
 71
     1
 72
     4
 73
     2
 74
     0
 42
0.0000000001
 43
0.0000000001
 40
0.0
 40
0.0
 40
1.0
 40
1.0
 10
59.67192324126206
 20
43.09896227082134
 30
0.0
 10
59.66239999127544
 20
43.10090528837544
 30
0.0
  0
SPLINE
  5
F0B
330
1F
100
AcDbEntity
  8
Object
  6
Continuous
 62
     7
100
AcDbSpline
210
0.0
220
0.0
230
1.0
 70
    24
 71
     1
 72
     4
 73
     2
 74
     0
 42
0.0000000001
 43
0.0000000001
 40
0.0
 40
0.0
 40
1.0
 40
1.0
 10
59.62287671451839
 20
43.07994275720306
 30
0.0
 10
59.63239996450501
 20
43.07799973964896
 30
0.0
  0
LINE
  5
F0C
330
1F
100
AcDbEntity
  8
Object
  6
Continuous
 62
     7
100
AcDbLine
 10
59.68436189756967
 20
43.09443501645391
 30
0.0
 11
59.67649537511103
 21
43.07282246612394
 31
0.0
  0
LINE
  5
F0D
330
1F
100
AcDbEntity
  8
Object
  6
Continuous
 62
     7
100
AcDbLine
 10
59.67649537511103
 20
43.07282246612394
 30
0.0
 11
59.66405701213343
 21
43.07734972049137
 31
0.0
  0
LINE
  5
F0E
330
1F
100
AcDbEntity
  8
Object
  6
Continuous
 62
     7
100
AcDbLine
 10
59.68436189756967
 20
43.09443501645391
 30
0.0
 11
59.67192324126206
 21
43.09896227082134
 31
0.0
  0
LINE
  5
F0F
330
1F
100
AcDbEntity
  8
Object
  6
Continuous
 62
     7
100
AcDbLine
 10
59.61043805821079
 20
43.0844700115705
 30
0.0
 11
59.61643724224105
 21
43.10095280782649
 31
0.0
  0
LINE
  5
F10
330
1F
100
AcDbEntity
  8
Object
  6
Continuous
 62
     7
100
AcDbLine
 10
59.61043805821079
 20
43.0844700115705
 30
0.0
 11
59.62287671451839
 21
43.07994275720306
 31
0.0
  0
LINE
  5
F11
330
1F
100
AcDbEntity
  8
Object
  6
Continuous
 62
     7
100
AcDbLine
 10
59.7154208454407
 20
43.0844700115705
 30
0.0
 11
59.75554955520376
 21
43.0844700115705
 31
0.0
  0
LINE
  5
F12
330
1F
100
AcDbEntity
  8
Object
  6
Continuous
 62
     7
100
AcDbLine
 10
59.75554955520376
 20
43.0844700115705
 30
0.0
 11
59.76434505359738
 21
43.07994275720306
 31
0.0
  0
LINE
  5
F13
330
1F
100
AcDbEntity
  8
Object
  6
Continuous
 62
     7
100
AcDbLine
 10
59.72421605050438
 20
43.07994275720306
 30
0.0
 11
59.76434505359738
 21
43.07994275720306
 31
0.0
  0
LINE
  5
F14
330
1F
100
AcDbEntity
  8
Object
  6
Continuous
 62
     7
100
AcDbLine
 10
59.72421605050438
 20
43.07994275720306
 30
0.0
 11
59.7154208454407
 21
43.0844700115705
 31
0.0
  0
LINE
  5
F15
330
1F
100
AcDbEntity
  8
Object
  6
Continuous
 62
     7
100
AcDbLine
 10
59.75554955520376
 20
43.0844700115705
 30
0.0
 11
59.75979169286491
 21
43.10095280782649
 31
0.0
  0
LINE
  5
F16
330
1F
100
AcDbEntity
  8
Object
  6
Continuous
 62
     7
100
AcDbLine
 10
59.57058390527608
 20
43.09896227082134
 30
0.0
 11
59.57937911033976
 21
43.09443501645391
 31
0.0
  0
LINE
  5
F17
330
1F
100
AcDbEntity
  8
Object
  6
Continuous
 62
     7
100
AcDbLine
 10
59.57937911033976
 20
43.09443501645391
 30
0.0
 11
59.5392504005767
 21
43.09443501645391
 31
0.0
  0
LINE
  5
F18
330
1F
100
AcDbEntity
  8
Object
  6
Continuous
 62
     7
100
AcDbLine
 10
59.5392504005767
 20
43.09443501645391
 30
0.0
 11
59.53045490218308
 21
43.09896227082134
 31
0.0
  0
LINE
  5
F19
330
1F
100
AcDbEntity
  8
Object
  6
Continuous
 62
     7
100
AcDbLine
 10
59.53045490218308
 20
43.09896227082134
 30
0.0
 11
59.57058390527608
 21
43.09896227082134
 31
0.0
  0
LINE
  5
F1A
330
1F
100
AcDbEntity
  8
Object
  6
Continuous
 62
     7
100
AcDbLine
 10
59.5392504005767
 20
43.09443501645391
 30
0.0
 11
59.53368798483423
 21
43.07282246612394
 31
0.0
  0
LINE
  5
F1B
330
1F
100
AcDbEntity
  8
Object
  6
Continuous
 62
     7
100
AcDbLine
 10
59.53368798483423
 20
43.07282246612394
 30
0.0
 11
59.52489248644055
 21
43.07734972049137
 31
0.0
  0
LINE
  5
F1C
330
1F
100
AcDbEntity
  8
Object
  6
Continuous
 62
     7
100
AcDbLine
 10
59.52489248644055
 20
43.07734972049137
 30
0.0
 11
59.53045490218308
 21
43.09896227082134
 31
0.0
  0
LINE
  5
F1D
330
1F
100
AcDbEntity
  8
Object
  6
Continuous
 62
     7
100
AcDbLine
 10
59.7154208454407
 20
43.0844700115705
 30
0.0
 11
59.71966298310185
 21
43.10095280782649
 31
0.0
  0
LINE
  5
F1E
330
1F
100
AcDbEntity
  8
Object
  6
Continuous
 62
     7
100
AcDbLine
 10
59.57937911033976
 20
43.09443501645391
 30
0.0
 11
59.5751369726786
 21
43.07795280685779
 31
0.0
  0
LINE
  5
F1F
330
1F
100
AcDbEntity
  8
Object
  6
Continuous
 62
     7
100
AcDbLine
 10
59.55960045882445
 20
43.07282246612394
 30
0.0
 11
59.53368798483423
 21
43.07282246612394
 31
0.0
  0
SPLINE
  5
F20
330
1F
100
AcDbEntity
  8
Object
  6
Continuous
 62
     7
100
AcDbSpline
210
0.0
220
0.0
230
1.0
 70
    24
 71
     1
 72
     4
 73
     2
 74
     0
 42
0.0000000001
 43
0.0000000001
 40
0.0
 40
0.0
 40
1.0
 40
1.0
 10
59.76434505359738
 20
43.07994275720306
 30
0.0
 10
59.7710790291393
 20
43.07799973964896
 30
0.0
  0
SPLINE
  5
F21
330
1F
100
AcDbEntity
  8
Object
  6
Continuous
 62
     7
100
AcDbSpline
210
0.0
220
0.0
230
1.0
 70
    24
 71
     1
 72
     4
 73
     2
 74
     0
 42
0.0000000001
 43
0.0000000001
 40
0.0
 40
0.0
 40
1.0
 40
1.0
 10
59.7710790291393
 20
43.10095280782649
 30
0.0
 10
59.7710790291393
 20
43.07795280685779
 30
0.0
  0
SPLINE
  5
F22
330
1F
100
AcDbEntity
  8
Object
  6
Continuous
 62
     7
100
AcDbSpline
210
0.0
220
0.0
230
1.0
 70
    24
 71
     1
 72
     4
 73
     2
 74
     0
 42
0.0000000001
 43
0.0000000001
 40
0.0
 40
0.0
 40
1.0
 40
1.0
 10
59.7309500260463
 20
43.07799973964896
 30
0.0
 10
59.72421605050438
 20
43.07994275720306
 30
0.0
  0
SPLINE
  5
F23
330
1F
100
AcDbEntity
  8
Object
  6
Continuous
 62
     7
100
AcDbSpline
210
0.0
220
0.0
230
1.0
 70
    24
 71
     1
 72
     4
 73
     2
 74
     0
 42
0.0000000001
 43
0.0000000001
 40
0.0
 40
0.0
 40
1.0
 40
1.0
 10
59.73219697164144
 20
43.07795280685779
 30
0.0
 10
59.7309500260463
 20
43.07795280685779
 30
0.0
  0
LINE
  5
F24
330
1F
100
AcDbEntity
  8
Object
  6
Continuous
 62
     7
100
AcDbLine
 10
59.7723256814045
 20
43.07795280685779
 30
0.0
 11
59.74795113631468
 21
43.07795280685779
 31
0.0
  0
SPLINE
  5
F25
330
1F
100
AcDbEntity
  8
Object
  6
Continuous
 62
     7
100
AcDbSpline
210
0.0
220
0.0
230
1.0
 70
    24
 71
     1
 72
     4
 73
     2
 74
     0
 42
0.0000000001
 43
0.0000000001
 40
0.0
 40
0.0
 40
1.0
 40
1.0
 10
59.56384992973416
 20
43.10090528837544
 30
0.0
 10
59.57058390527608
 20
43.09896227082134
 30
0.0
  0
SPLINE
  5
F26
330
1F
100
AcDbEntity
  8
Object
  6
Continuous
 62
     7
100
AcDbSpline
210
0.0
220
0.0
230
1.0
 70
    24
 71
     1
 72
     4
 73
     2
 74
     0
 42
0.0000000001
 43
0.0000000001
 40
0.0
 40
0.0
 40
1.0
 40
1.0
 10
59.53045490218308
 20
43.09896227082134
 30
0.0
 10
59.52372092664116
 20
43.10090528837544
 30
0.0
  0
ARC
  5
F27
330
1F
100
AcDbEntity
  8
Object
  6
Continuous
 62
     7
100
AcDbCircle
 10
59.52244468808813
 20
43.07268444485778
 30
0.0
 40
0.0052684450753149
100
AcDbArc
 50
62.31469478888537
 51
89.67823934568135
  0
SPLINE
  5
F28
330
1F
100
AcDbEntity
  8
Object
  6
Continuous
 62
     7
100
AcDbSpline
210
0.0
220
0.0
230
1.0
 70
    24
 71
     1
 72
     4
 73
     2
 74
     0
 42
0.0000000001
 43
0.0000000001
 40
0.0
 40
0.0
 40
1.0
 40
1.0
 10
59.52372092664116
 20
43.10090528837544
 30
0.0
 10
59.52372092664116
 20
43.07795280685779
 30
0.0
  0
SPLINE
  5
F29
330
1F
100
AcDbEntity
  8
Object
  6
Continuous
 62
     7
100
AcDbSpline
210
0.0
220
0.0
230
1.0
 70
    24
 71
     1
 72
     4
 73
     2
 74
     0
 42
0.0000000001
 43
0.0000000001
 40
0.0
 40
0.0
 40
1.0
 40
1.0
 10
59.79229206408446
 20
43.10090528837544
 30
0.0
 10
59.79229206408446
 20
43.07795280685779
 30
0.0
  0
LINE
  5
F2A
330
1F
100
AcDbEntity
  8
Object
  6
Continuous
 62
     7
100
AcDbLine
 10
59.7710790291393
 20
43.07795280685779
 30
0.0
 11
59.79229206408446
 21
43.07795280685779
 31
0.0
  0
SPLINE
  5
F2B
330
1F
100
AcDbEntity
  8
Object
  6
Continuous
 62
     7
100
AcDbSpline
210
0.0
220
0.0
230
1.0
 70
    24
 71
     1
 72
     4
 73
     2
 74
     0
 42
0.0000000001
 43
0.0000000001
 40
0.0
 40
0.0
 40
1.0
 40
1.0
 10
59.502507891696
 20
43.10095280782649
 30
0.0
 10
59.502507891696
 20
43.07795280685779
 30
0.0
  0
LINE
  5
F2C
330
1F
100
AcDbEntity
  8
Object
  6
Continuous
 62
     7
100
AcDbLine
 10
59.502507891696
 20
43.07795280685779
 30
0.0
 11
59.52372092664116
 21
43.07795280685779
 31
0.0
  0
SPLINE
  5
F2D
330
1F
100
AcDbEntity
  8
Object
  6
Continuous
 62
     7
100
AcDbSpline
210
0.0
220
0.0
230
1.0
 70
    24
 71
     1
 72
     4
 73
     2
 74
     0
 42
0.0000000001
 43
0.0000000001
 40
0.0
 40
0.0
 40
1.0
 40
1.0
 10
59.79902633295633
 20
43.09896227082134
 30
0.0
 10
59.79229206408446
 20
43.10090528837544
 30
0.0
  0
SPLINE
  5
F2E
330
1F
100
AcDbEntity
  8
Object
  6
Continuous
 62
     7
100
AcDbSpline
210
0.0
220
0.0
230
1.0
 70
    24
 71
     1
 72
     4
 73
     2
 74
     0
 42
0.0000000001
 43
0.0000000001
 40
0.0
 40
0.0
 40
1.0
 40
1.0
 10
59.49577362282413
 20
43.07994275720306
 30
0.0
 10
59.502507891696
 20
43.07799973964896
 30
0.0
  0
LINE
  5
F2F
330
1F
100
AcDbEntity
  8
Object
  6
Continuous
 62
     7
100
AcDbLine
 10
59.7934639172138
 20
43.07734972049137
 30
0.0
 11
59.79902633295633
 21
43.09896227082134
 31
0.0
  0
ARC
  5
F30
330
1F
100
AcDbEntity
  8
Object
  6
Continuous
 62
     7
100
AcDbCircle
 10
59.79101540135805
 20
43.07268155319699
 30
0.0
 40
0.0052713390883324
100
AcDbArc
 50
62.32239189031675
 51
89.6738054545117
  0
LINE
  5
F31
330
1F
100
AcDbEntity
  8
Object
  6
Continuous
 62
     7
100
AcDbLine
 10
59.80782153802
 20
43.09443501645391
 30
0.0
 11
59.80225912227753
 21
43.07282246612394
 31
0.0
  0
LINE
  5
F32
330
1F
100
AcDbEntity
  8
Object
  6
Continuous
 62
     7
100
AcDbLine
 10
59.80225912227753
 20
43.07282246612394
 30
0.0
 11
59.7934639172138
 21
43.07734972049137
 31
0.0
  0
LINE
  5
F33
330
1F
100
AcDbEntity
  8
Object
  6
Continuous
 62
     7
100
AcDbLine
 10
59.80782153802
 20
43.09443501645391
 30
0.0
 11
59.79902633295633
 21
43.09896227082134
 31
0.0
  0
LINE
  5
F34
330
1F
100
AcDbEntity
  8
Object
  6
Continuous
 62
     7
100
AcDbLine
 10
59.48697841776045
 20
43.0844700115705
 30
0.0
 11
59.49122055542161
 21
43.10095280782649
 31
0.0
  0
LINE
  5
F35
330
1F
100
AcDbEntity
  8
Object
  6
Continuous
 62
     7
100
AcDbLine
 10
59.48697841776045
 20
43.0844700115705
 30
0.0
 11
59.49577362282413
 21
43.07994275720306
 31
0.0
  0
LINE
  5
F36
330
1F
100
AcDbEntity
  8
Object
  6
Continuous
 62
     7
100
AcDbLine
 10
59.77634664828731
 20
43.07282246612394
 30
0.0
 11
59.80225912227753
 21
43.07282246612394
 31
0.0
  0
LINE
  5
F37
330
1F
100
AcDbEntity
  8
Object
  6
Continuous
 62
     7
100
AcDbLine
 10
59.48954300146751
 20
43.09443501645391
 30
0.0
 11
59.4574914250634
 21
43.09443501645391
 31
0.0
  0
LINE
  5
F38
330
1F
100
AcDbEntity
  8
Object
  6
Continuous
 62
     7
100
AcDbLine
 10
59.4574914250634
 20
43.09443501645391
 30
0.0
 11
59.4574914250634
 21
43.09896227082134
 31
0.0
  0
LINE
  5
F39
330
1F
100
AcDbEntity
  8
Object
  6
Continuous
 62
     7
100
AcDbLine
 10
59.80525695431295
 20
43.0844700115705
 30
0.0
 11
59.83730853071707
 21
43.0844700115705
 31
0.0
  0
LINE
  5
F3A
330
1F
100
AcDbEntity
  8
Object
  6
Continuous
 62
     7
100
AcDbLine
 10
59.83730853071707
 20
43.0844700115705
 30
0.0
 11
59.83730853071707
 21
43.07994275720306
 31
0.0
  0
LINE
  5
F3B
330
1F
100
AcDbEntity
  8
Object
  6
Continuous
 62
     7
100
AcDbLine
 10
59.83730853071707
 20
43.0844700115705
 30
0.0
 11
59.83730853071707
 21
43.10095280782649
 31
0.0
  0
LINE
  5
F3C
330
1F
100
AcDbEntity
  8
Object
  6
Continuous
 62
     7
100
AcDbLine
 10
59.49413713506233
 20
43.07282246612394
 30
0.0
 11
59.4574914250634
 21
43.07282246612394
 31
0.0
  0
LINE
  5
F3D
330
1F
100
AcDbEntity
  8
Object
  6
Continuous
 62
     7
100
AcDbLine
 10
59.4574914250634
 20
43.09443501645391
 30
0.0
 11
59.4574914250634
 21
43.07282246612394
 31
0.0
  0
LINE
  5
F3E
330
1F
100
AcDbEntity
  8
Object
  6
Continuous
 62
     7
100
AcDbLine
 10
59.78055769297426
 20
43.07795280685779
 30
0.0
 11
59.78055769297426
 21
43.07994275720306
 31
0.0
  0
LINE
  5
F3F
330
1F
100
AcDbEntity
  8
Object
  6
Continuous
 62
     7
100
AcDbLine
 10
59.83730853071707
 20
43.07994275720306
 30
0.0
 11
59.83730853071707
 21
43.07795280685779
 31
0.0
  0
LINE
  5
F40
330
1F
100
AcDbEntity
  8
Object
  6
Continuous
 62
     7
100
AcDbLine
 10
59.83730853071707
 20
43.07795280685779
 30
0.0
 11
59.80357940035886
 21
43.07795280685779
 31
0.0
  0
LINE
  5
F41
330
1F
100
AcDbEntity
  8
Object
  6
Continuous
 62
     7
100
AcDbLine
 10
59.45690007189473
 20
43.07795280685779
 30
0.0
 11
59.4574914250634
 21
43.07795280685779
 31
0.0
  0
LINE
  5
F42
330
1F
100
AcDbEntity
  8
Object
  6
Continuous
 62
     7
100
AcDbLine
 10
59.83745548901943
 20
43.07795280685779
 30
0.0
 11
59.83745548901943
 21
43.10095280782649
 31
0.0
  0
LINE
  5
F43
330
1F
100
AcDbEntity
  8
Object
  6
Continuous
 62
     7
100
AcDbLine
 10
59.83745548901943
 20
43.07795280685779
 30
0.0
 11
59.83789988388572
 21
43.07795280685779
 31
0.0
  0
LINE
  5
F44
330
1F
100
AcDbEntity
  8
Object
  6
Continuous
 62
     7
100
AcDbLine
 10
59.83730853071707
 20
43.07795280685779
 30
0.0
 11
59.83745548901943
 21
43.07795280685779
 31
0.0
  0
LINE
  5
F45
330
1F
100
AcDbEntity
  8
Object
  6
Continuous
 62
     7
100
AcDbLine
 10
59.83730853071707
 20
43.07734972049137
 30
0.0
 11
59.83730853071707
 21
43.07795280685779
 31
0.0
  0
LINE
  5
F46
330
1F
100
AcDbEntity
  8
Object
  6
Continuous
 62
     7
100
AcDbLine
 10
59.80339988243271
 20
43.07282246612394
 30
0.0
 11
59.83730853071707
 21
43.07282246612394
 31
0.0
  0
LINE
  5
F47
330
1F
100
AcDbEntity
  8
Object
  6
Continuous
 62
     7
100
AcDbLine
 10
59.83730853071707
 20
43.07282246612394
 30
0.0
 11
59.83730853071707
 21
43.07734972049137
 31
0.0
  0
LINE
  5
F48
330
1F
100
AcDbEntity
  8
Object
  6
Continuous
 62
     7
100
AcDbLine
 10
59.56539988516228
 20
42.99095290522141
 30
0.0
 11
59.72940007061819
 21
42.99095290522141
 31
0.0
  0
LINE
  5
F49
330
1F
100
AcDbEntity
  8
Object
  6
Continuous
 62
     7
100
AcDbLine
 10
59.49140007334775
 20
43.06295250014263
 30
0.0
 11
59.80339988243271
 21
43.06295250014263
 31
0.0
  0
LINE
  5
F4A
330
1F
100
AcDbEntity
  8
Object
  6
Continuous
 62
     7
100
AcDbLine
 10
59.62705197295214
 20
43.07795280685779
 30
0.0
 11
59.56117974724704
 21
43.07795280685779
 31
0.0
  0
LINE
  5
F4B
330
1F
100
AcDbEntity
  8
Object
  6
Continuous
 62
     7
100
AcDbLine
 10
59.74795113631468
 20
43.07795280685779
 30
0.0
 11
59.67836271353942
 21
43.07795280685779
 31
0.0
  0
LINE
  5
F4C
330
1F
100
AcDbEntity
  8
Object
  6
Continuous
 62
     7
100
AcDbLine
 10
64.2463926544975
 20
43.1993779108113
 30
0.0
 11
56.37398387267239
 21
43.1993779108113
 31
0.0
  0
ARC
  5
F4D
330
1F
100
AcDbEntity
  8
Object
  6
Continuous
 62
     7
100
AcDbCircle
 10
56.37398405017041
 20
43.4493778319733
 30
0.0
 40
0.2500000011564403
100
AcDbArc
 50
192.0000001025677
 51
270.0000000000008
  0
LINE
  5
F4E
330
1F
100
AcDbEntity
  8
Object
  6
Continuous
 62
     7
100
AcDbLine
 10
56.129447017583
 20
43.3973996765803
 30
0.0
 11
55.86867446516007
 21
44.62423875931016
 31
0.0
  0
LINE
  5
F4F
330
1F
100
AcDbEntity
  8
Object
  6
Continuous
 62
     7
100
AcDbLine
 10
59.63052353284838
 20
43.10095280782649
 30
0.0
 11
59.62287671451839
 21
43.07994275720306
 31
0.0
  0
LINE
  5
F50
330
1F
100
AcDbEntity
  8
Object
  6
Continuous
 62
     7
100
AcDbLine
 10
59.76975200446919
 20
43.10095280782649
 30
0.0
 11
59.76434505359738
 21
43.07994275720306
 31
0.0
  0
LINE
  5
F51
330
1F
100
AcDbEntity
  8
Object
  6
Continuous
 62
     7
100
AcDbLine
 10
59.50118086702589
 20
43.10095280782649
 30
0.0
 11
59.49577362282413
 21
43.07994275720306
 31
0.0
  0
LINE
  5
F52
330
1F
100
AcDbEntity
  8
Object
  6
Continuous
 62
     7
100
AcDbLine
 10
59.76885617481788
 20
43.07734972049137
 30
0.0
 11
59.7934639172138
 21
43.07734972049137
 31
0.0
  0
LINE
  5
F53
330
1F
100
AcDbEntity
  8
Object
  6
Continuous
 62
     7
100
AcDbLine
 10
59.49070840133801
 20
43.09896227082134
 30
0.0
 11
59.4574914250634
 21
43.09896227082134
 31
0.0
  0
LINE
  5
F54
330
1F
100
AcDbEntity
  8
Object
  6
Continuous
 62
     7
100
AcDbLine
 10
59.80409155444245
 20
43.07994275720306
 30
0.0
 11
59.83730853071707
 21
43.07994275720306
 31
0.0
  0
LINE
  5
F55
330
1F
100
AcDbEntity
  8
Object
  6
Continuous
 62
     7
100
AcDbLine
 10
59.80342422881808
 20
43.07734972049137
 30
0.0
 11
59.83730853071707
 21
43.07734972049137
 31
0.0
  0
CIRCLE
  5
3014
330
1F
100
AcDbEntity
  8
0
  6
HIDDEN2
 62
     7
100
AcDbCircle
 10
38.65570279365883
 20
47.18612811074645
 30
0.0
 40
0.110000000000003
  0
CIRCLE
  5
3015
330
1F
100
AcDbEntity
  8
0
  6
HIDDEN2
 62
     7
100
AcDbCircle
 10
31.15570279365884
 20
47.18612811074645
 30
0.0
 40
0.1099999999999994
  0
LINE
  5
3029
330
1F
100
AcDbEntity
  8
0
  6
HIDDEN2
 62
     7
100
AcDbLine
 10
29.17070279365884
 20
60.43490369957902
 30
0.0
 11
29.17070279365884
 21
60.61937811074644
 31
0.0
  0
LINE
  5
302A
330
1F
100
AcDbEntity
  8
0
  6
HIDDEN2
 62
     7
100
AcDbLine
 10
28.95070279365884
 20
60.61937811074644
 30
0.0
 11
28.95070279365884
 21
60.43490369957902
 31
0.0
  0
ARC
  5
302B
330
1F
100
AcDbEntity
  8
0
  6
HIDDEN2
 62
     7
100
AcDbCircle
 10
29.06070279365884
 20
60.61937811074644
 30
0.0
 40
0.1099999999999994
100
AcDbArc
 50
0.0
 51
180.0
  0
ARC
  5
302D
330
1F
100
AcDbEntity
  8
0
  6
HIDDEN2
 62
     7
100
AcDbCircle
 10
29.06070279365884
 20
60.24437811074644
 30
0.0
 40
0.2200000000000013
100
AcDbArc
 50
119.9999999999995
 51
60.00000000000117
  0
LINE
  5
302F
330
1F
100
AcDbEntity
  8
0
  6
HIDDEN2
 62
     7
100
AcDbLine
 10
40.86070279365883
 20
60.61937811074644
 30
0.0
 11
40.86070279365883
 21
60.43490369957902
 31
0.0
  0
LINE
  5
3030
330
1F
100
AcDbEntity
  8
0
  6
HIDDEN2
 62
     7
100
AcDbLine
 10
40.64070279365884
 20
60.43490369957902
 30
0.0
 11
40.64070279365884
 21
60.61937811074644
 31
0.0
  0
ARC
  5
3031
330
1F
100
AcDbEntity
  8
0
  6
HIDDEN2
 62
     7
100
AcDbCircle
 10
40.75070279365883
 20
60.24437811074644
 30
0.0
 40
0.220000000000003
100
AcDbArc
 50
119.9999999999988
 51
59.99999999999952
  0
CIRCLE
  5
3032
330
1F
100
AcDbEntity
  8
0
  6
HIDDEN2
 62
     7
100
AcDbCircle
 10
41.40570279365883
 20
43.68612811074644
 30
0.0
 40
0.1099999999999994
  0
CIRCLE
  5
3033
330
1F
100
AcDbEntity
  8
0
  6
HIDDEN2
 62
     7
100
AcDbCircle
 10
28.78070279365884
 20
43.68612811074644
 30
0.0
 40
0.110000000000003
  0
CIRCLE
  5
3034
330
1F
100
AcDbEntity
  8
0
  6
HIDDEN2
 62
     7
100
AcDbCircle
 10
38.65570279365883
 20
47.18612811074645
 30
0.0
 40
0.1099999999999994
  0
ARC
  5
3039
330
1F
100
AcDbEntity
  8
0
  6
HIDDEN2
 62
     7
100
AcDbCircle
 10
40.75070279365883
 20
60.61937811074644
 30
0.0
 40
0.110000000000003
100
AcDbArc
 50
0.0
 51
180.0
  0
LINE
  5
304D
330
1F
100
AcDbEntity
  8
0
  6
HIDDEN2
 62
     7
100
AcDbLine
 10
29.17070279365884
 20
60.43490369957902
 30
0.0
 11
29.17070279365884
 21
60.61937811074644
 31
0.0
  0
LINE
  5
304E
330
1F
100
AcDbEntity
  8
0
  6
HIDDEN2
 62
     7
100
AcDbLine
 10
28.95070279365884
 20
60.61937811074644
 30
0.0
 11
28.95070279365884
 21
60.43490369957902
 31
0.0
  0
ARC
  5
3050
330
1F
100
AcDbEntity
  8
0
  6
HIDDEN2
 62
     7
100
AcDbCircle
 10
29.06070279365884
 20
60.61937811074644
 30
0.0
 40
0.1099999999999994
100
AcDbArc
 50
0.0
 51
180.0
  0
LINE
  5
3051
330
1F
100
AcDbEntity
  8
0
  6
HIDDEN2
 62
     7
100
AcDbLine
 10
40.86070279365883
 20
60.61937811074644
 30
0.0
 11
40.86070279365883
 21
60.43490369957902
 31
0.0
  0
CIRCLE
  5
3052
330
1F
100
AcDbEntity
  8
0
  6
HIDDEN2
 62
     7
100
AcDbCircle
 10
31.15570279365884
 20
47.18612811074645
 30
0.0
 40
0.1099999999999959
  0
LINE
  5
3053
330
1F
100
AcDbEntity
  8
0
  6
HIDDEN2
 62
     7
100
AcDbLine
 10
40.64070279365884
 20
60.43490369957902
 30
0.0
 11
40.64070279365884
 21
60.61937811074644
 31
0.0
  0
ARC
  5
3054
330
1F
100
AcDbEntity
  8
0
  6
HIDDEN2
 62
     7
100
AcDbCircle
 10
40.75070279365883
 20
60.24437811074644
 30
0.0
 40
0.220000000000003
100
AcDbArc
 50
119.9999999999988
 51
59.99999999999952
  0
ARC
  5
305A
330
1F
100
AcDbEntity
  8
0
  6
HIDDEN2
 62
     7
100
AcDbCircle
 10
40.75070279365883
 20
60.61937811074644
 30
0.0
 40
0.110000000000003
100
AcDbArc
 50
0.0
 51
180.0
  0
LWPOLYLINE
  5
306C
330
1F
100
AcDbEntity
  8
0
  6
HIDDEN2
 62
     7
100
AcDbPolyline
 90
        2
 70
   128
 43
0.0
 10
40.86070279365883
 20
60.61937811074644
 10
40.86070279365883
 20
60.61937811074644
  0
LWPOLYLINE
  5
306D
330
1F
100
AcDbEntity
  8
0
  6
HIDDEN2
 62
     7
100
AcDbPolyline
 90
        2
 70
   128
 43
0.0
 10
40.64070279365884
 20
60.61937811074644
 10
40.64070279365884
 20
60.61937811074644
  0
LWPOLYLINE
  5
306E
330
1F
100
AcDbEntity
  8
0
  6
HIDDEN2
 62
     7
100
AcDbPolyline
 90
        2
 70
   128
 43
0.0
 10
29.17070279365884
 20
60.61937811074644
 10
29.17070279365884
 20
60.61937811074644
  0
LWPOLYLINE
  5
306F
330
1F
100
AcDbEntity
  8
0
  6
HIDDEN2
 62
     7
100
AcDbPolyline
 90
        2
 70
   128
 43
0.0
 10
28.95070279365884
 20
60.61937811074644
 10
28.95070279365884
 20
60.61937811074644
  0
ARC
  5
3079
330
1F
100
AcDbEntity
  8
0
  6
HIDDEN2
 62
     7
100
AcDbCircle
 10
29.06070279365884
 20
60.24437811074644
 30
0.0
 40
0.2200000000000013
100
AcDbArc
 50
119.9999999999995
 51
60.00000000000117
  0
LWPOLYLINE
  5
3087
330
1F
100
AcDbEntity
  8
0
  6
HIDDEN2
 62
     7
100
AcDbPolyline
 90
        2
 70
   128
 43
0.0
 10
29.17070279365884
 20
60.43490369957902
 10
29.17070279365884
 20
60.43490369957902
  0
LWPOLYLINE
  5
3088
330
1F
100
AcDbEntity
  8
0
  6
HIDDEN2
 62
     7
100
AcDbPolyline
 90
        2
 70
   128
 43
0.0
 10
28.95070279365884
 20
60.43490369957902
 10
28.95070279365884
 20
60.43490369957902
  0
LWPOLYLINE
  5
3089
330
1F
100
AcDbEntity
  8
0
  6
HIDDEN2
 62
     7
100
AcDbPolyline
 90
        2
 70
   128
 43
0.0
 10
40.86070279365883
 20
60.43490369957902
 10
40.86070279365883
 20
60.43490369957902
  0
LWPOLYLINE
  5
308A
330
1F
100
AcDbEntity
  8
0
  6
HIDDEN2
 62
     7
100
AcDbPolyline
 90
        2
 70
   128
 43
0.0
 10
40.64070279365884
 20
60.43490369957902
 10
40.64070279365884
 20
60.43490369957902
  0
LINE
  5
4357
330
1F
100
AcDbEntity
  8
0
  6
CENTER
100
AcDbLine
 10
62.87734006131012
 20
60.61937811074644
 30
0.0
 11
65.55736040767726
 21
60.61937811074644
 31
0.0
  0
LINE
  5
4358
330
1F
100
AcDbEntity
  8
0
  6
CENTER
100
AcDbLine
 10
62.87734006131013
 20
47.18612811074645
 30
0.0
 11
65.55736040767726
 21
47.18612811074645
 31
0.0
  0
MTEXT
  5
4385
330
1F
100
AcDbEntity
  8
Object_Dim
  6
Continuous
 62
     7
100
AcDbMText
 10
66.08838991963851
 20
60.62686589043221
 30
0.0
 40
0.72
 41
0.0
 71
     5
 72
     1
  1
S
 73
     1
 44
1.0
1001
ACAD
1000
MTEXTBEGIN
1070
    73
1070
     1
1070
    44
1040
1.0
1070
    74
1070
     0
1000
MTEXTEND
  0
MTEXT
  5
4386
330
1F
100
AcDbEntity
  8
Object_Dim
  6
Continuous
 62
     7
100
AcDbMText
 10
66.08838991963851
 20
47.16870527636166
 30
0.0
 40
0.72
 41
0.0
 71
     5
 72
     1
  1
S
 73
     1
 44
1.0
1001
ACAD
1000
MTEXTBEGIN
1070
    73
1070
     1
1070
    44
1040
1.0
1070
    74
1070
     0
1000
MTEXTEND
  0
LINE
  5
438A
330
1F
100
AcDbEntity
  8
0
  6
CENTER
100
AcDbLine
 10
62.87734006131013
 20
43.68612811074644
 30
0.0
 11
65.55736040767726
 21
43.68612811074644
 31
0.0
  0
MTEXT
  5
438B
330
1F
100
AcDbEntity
  8
Object_Dim
  6
Continuous
 62
     7
100
AcDbMText
 10
66.08838991963851
 20
43.66870527636166
 30
0.0
 40
0.72
 41
0.0
 71
     5
 72
     1
  1
S
 73
     1
 44
1.0
1001
ACAD
1000
MTEXTBEGIN
1070
    73
1070
     1
1070
    44
1040
1.0
1070
    74
1070
     0
1000
MTEXTEND
  0
DIMENSION
  5
444A
330
1F
100
AcDbEntity
  8
0
100
AcDbDimension
  2
*D4
 10
68.90854753030111
 20
60.61937811074644
 30
0.0
 11
72.13045229220586
 21
64.33976004064968
 31
0.0
 70
   160
 71
     5
 42
0.8299994410117506
  3
Standard
100
AcDbAlignedDimension
 13
64.2463926544975
 23
61.44937755175819
 33
0.0
 14
66.38096623911184
 24
60.61937811074644
 34
0.0
 50
90.0
100
AcDbRotatedDimension
1001
ACAD
1000
DSTYLE
1002
{
1070
   270
1070
     7
1070
   270
1070
     7
1070
     3
1000
"\X
1070
     4
1000
mm
1070
    40
1040
4.0
1070
    42
1040
0.09
1070
    44
1040
0.09
1070
    78
1070
     1
1070
   140
1040
0.125
1070
   141
1040
0.05
1070
   147
1040
0.06
1070
   170
1070
     1
1070
   276
1070
     2
1070
   277
1070
     5
1070
   284
1070
     1
1002
}
  0
SOLID
  5
4485
330
1F
100
AcDbEntity
  8
0
100
AcDbTrace
 10
56.02942154265592
 20
53.50025345817776
 30
0.0
 11
56.10488467137287
 21
53.72808084065021
 31
0.0
 12
56.75063525443176
 22
53.38777776326316
 32
0.0
 13
56.75063525443176
 23
53.38777776326316
 33
0.0
  0
LINE
  5
4486
330
1F
100
AcDbEntity
  8
0
100
AcDbLine
 10
56.0671531070144
 20
53.61416714941398
 30
0.0
 11
52.56723652428311
 21
54.77344244246681
 31
0.0
  0
LINE
  5
4487
330
1F
100
AcDbEntity
  8
0
100
AcDbLine
 10
52.56723652428309
 20
54.77344244246681
 30
0.0
 11
51.8472365242831
 21
54.77344244246681
 31
0.0
  0
MTEXT
  5
4488
330
1F
100
AcDbEntity
  8
0
100
AcDbMText
 10
47.04148676883423
 20
55.0873504432646
 30
0.0
 40
0.5
 41
0.0
 71
     1
 72
     1
  1
\A1;Lock & Key
 73
     1
 44
1.0
1001
ACAD
1000
MTEXTBEGIN
1070
    73
1070
     1
1070
    44
1040
1.0
1070
    74
1070
     0
1000
MTEXTEND
  0
DIMENSION
  5
4584
330
1F
100
AcDbEntity
  8
0
100
AcDbDimension
  2
*D5
 10
68.90854753030111
 20
47.18612811074645
 30
0.0
 11
68.90854753030109
 21
53.90275311074645
 31
0.0
 70
    32
 71
     5
 42
-1.0
  3
Standard
100
AcDbAlignedDimension
 13
65.55736040767726
 23
60.61937811074644
 33
0.0
 14
66.39689062157237
 24
47.18612811074645
 34
0.0
 50
90.0
100
AcDbRotatedDimension
1001
ACAD
1000
DSTYLE
1002
{
1070
   270
1070
     7
1070
    75
1070
     1
1070
   270
1070
     7
1070
     3
1000
"\X
1070
     4
1000
mm
1070
    40
1040
4.0
1070
    42
1040
0.09
1070
    44
1040
0.09
1070
    78
1070
     1
1070
   140
1040
0.125
1070
   141
1040
0.05
1070
   147
1040
0.06
1070
   170
1070
     1
1070
   276
1070
     2
1070
   277
1070
     5
1070
   284
1070
     1
1002
}
  0
DIMENSION
  5
4712
330
1F
100
AcDbEntity
  8
0
100
AcDbDimension
  2
*D6
 10
74.25432922365605
 20
43.68612811074644
 30
0.0
 11
74.25432922365605
 21
50.05614134847945
 31
0.0
 70
   160
 71
     5
 42
-1.0
  3
Standard
100
AcDbAlignedDimension
 13
66.42052595892511
 23
60.61937811074644
 33
0.0
 14
66.60576734443577
 24
43.68612811074644
 34
0.0
 50
90.0
100
AcDbRotatedDimension
1001
ACAD
1000
DSTYLE
1002
{
1070
   270
1070
     7
1070
   270
1070
     7
1070
     3
1000
"\X
1070
     4
1000
mm
1070
    40
1040
4.0
1070
    42
1040
0.09
1070
    44
1040
0.09
1070
    78
1070
     1
1070
   140
1040
0.125
1070
   141
1040
0.05
1070
   147
1040
0.06
1070
   170
1070
     1
1070
   276
1070
     2
1070
   277
1070
     5
1070
   284
1070
     1
1002
}
  0
SOLID
  5
4992
330
1F
100
AcDbEntity
  8
0
100
AcDbTrace
 10
32.48810116305477
 20
42.46877122970006
 30
0.0
 11
32.67340894072429
 21
42.62128689294544
 31
0.0
 12
32.12320806215337
 22
43.10095239433134
 32
0.0
 13
32.12320806215337
 23
43.10095239433134
 33
0.0
  0
LINE
  5
4993
330
1F
100
AcDbEntity
  8
0
100
AcDbLine
 10
32.58075505188953
 20
42.54502906132276
 30
0.0
 11
33.43909438512433
 21
41.50213975445743
 31
0.0
  0
LINE
  5
4994
330
1F
100
AcDbEntity
  8
0
100
AcDbLine
 10
33.43909438512433
 20
41.50213975445743
 30
0.0
 11
34.15909438512433
 21
41.50213975445743
 31
0.0
  0
MTEXT
  5
4995
330
1F
100
AcDbEntity
  8
0
100
AcDbMText
 10
34.39909438512432
 20
41.75213975445744
 30
0.0
 40
0.5
 41
0.0
 71
     1
 72
     1
  1
\A1;Paper\PTowel\PDispenser
 73
     1
 44
1.0
1001
ACAD
1000
MTEXTBEGIN
1070
    73
1070
     1
1070
    44
1040
1.0
1070
    74
1070
     0
1000
MTEXTEND
  0
DIMENSION
  5
4B10
330
1F
100
AcDbEntity
  8
0
100
AcDbDimension
  2
*D7
 10
64.2463926544975
 20
39.70465532747989
 30
0.0
 11
59.72176751032683
 21
39.70465532747989
 31
0.0
 70
    32
 71
     5
 42
-1.0
  3
Standard
100
AcDbAlignedDimension
 13
55.19714236615616
 23
44.91446268995285
 33
0.0
 14
64.2463926544975
 24
43.1993779108113
 34
0.0
100
AcDbRotatedDimension
1001
ACAD
1000
DSTYLE
1002
{
1070
   270
1070
     7
1070
   270
1070
     7
1070
     3
1000
"\X
1070
     4
1000
mm
1070
    40
1040
4.0
1070
    42
1040
0.09
1070
    44
1040
0.09
1070
    78
1070
     1
1070
   140
1040
0.125
1070
   141
1040
0.05
1070
   147
1040
0.06
1070
   170
1070
     1
1070
   276
1070
     2
1070
   277
1070
     5
1070
   284
1070
     1
1002
}
  0
SOLID
  5
4BB3
330
1F
100
AcDbEntity
  8
0
100
AcDbTrace
 10
54.79750105558387
 20
59.45546985714604
 30
0.0
 11
54.62100328784053
 21
59.29283979233139
 31
0.0
 12
55.19714236615616
 22
58.8446615215087
 32
0.0
 13
55.19714236615616
 23
58.8446615215087
 33
0.0
  0
LINE
  5
4BB4
330
1F
100
AcDbEntity
  8
0
100
AcDbLine
 10
54.70925217171219
 20
59.37415482473871
 30
0.0
 11
52.59935797831514
 21
61.66396277466248
 31
0.0
  0
LINE
  5
4BB5
330
1F
100
AcDbEntity
  8
0
100
AcDbLine
 10
52.59935797831514
 20
61.66396277466248
 30
0.0
 11
51.87935797831514
 21
61.66396277466248
 31
0.0
  0
MTEXT
  5
4BB6
330
1F
100
AcDbEntity
  8
0
100
AcDbMText
 10
51.63935797831515
 20
61.91396277466249
 30
0.0
 40
0.5
 41
0.0
 71
     3
 72
     1
  1
\A1;Door
 73
     1
 44
1.0
1001
ACAD
1000
MTEXTBEGIN
1070
    73
1070
     1
1070
    44
1040
1.0
1070
    74
1070
     0
1000
MTEXTEND
  0
LINE
  5
4CC9
330
1F
100
AcDbEntity
  8
0
100
AcDbLine
 10
64.2463926544975
 20
61.44937755175819
 30
0.0
 11
64.2463926544975
 21
71.38966032853574
 31
0.0
  0
SOLID
  5
4CCA
330
1F
100
AcDbEntity
  8
0
100
AcDbTrace
 10
63.71463097008192
 20
65.80375937602216
 30
0.0
 11
63.53837230357449
 21
65.64087020363484
 31
0.0
 12
64.11516915399011
 22
65.19353879030621
 32
0.0
 13
64.11516915399011
 23
65.19353879030621
 33
0.0
  0
LINE
  5
4CCB
330
1F
100
AcDbEntity
  8
0
100
AcDbLine
 10
63.62650163682819
 20
65.7223147898285
 30
0.0
 11
60.89122646085972
 21
68.6820938100125
 31
0.0
  0
LINE
  5
4CCC
330
1F
100
AcDbEntity
  8
0
100
AcDbLine
 10
60.89122646085972
 20
68.6820938100125
 30
0.0
 11
60.17122646085972
 21
68.6820938100125
 31
0.0
  0
MTEXT
  5
4CCD
330
1F
100
AcDbEntity
  8
0
100
AcDbMText
 10
59.93122646085972
 20
68.9320938100125
 30
0.0
 40
0.5
 41
0.0
 71
     3
 72
     1
  1
\A1;Finish Face of Wall
 73
     1
 44
1.0
1001
ACAD
1000
MTEXTBEGIN
1070
    73
1070
     1
1070
    44
1040
1.0
1070
    74
1070
     0
1000
MTEXTEND
  0
DIMENSION
  5
4F38
330
1F
100
AcDbEntity
  8
0
100
AcDbDimension
  2
*D8
 10
80.47350825005963
 20
43.19937791081129
 30
0.0
 11
80.47350825005961
 21
52.32437773128475
 31
0.0
 70
    32
 71
     5
 42
-1.0
  3
Standard
100
AcDbAlignedDimension
 13
64.2463926544975
 23
61.44937755175819
 33
0.0
 14
64.2463926544975
 24
43.1993779108113
 34
0.0
 50
90.0
100
AcDbRotatedDimension
1001
ACAD
1000
DSTYLE
1002
{
1070
   270
1070
     7
1070
   270
1070
     7
1070
     3
1000
"\X
1070
     4
1000
mm
1070
    40
1040
4.0
1070
    42
1040
0.09
1070
    44
1040
0.09
1070
    78
1070
     1
1070
   140
1040
0.125
1070
   141
1040
0.05
1070
   147
1040
0.06
1070
   170
1070
     1
1070
   276
1070
     2
1070
   277
1070
     5
1070
   284
1070
     1
1002
}
  0
DIMENSION
  5
4FDB
330
1F
100
AcDbEntity
  8
0
100
AcDbDimension
  2
*D9
 10
42.48407657244511
 20
67.26071520403372
 30
0.0
 11
34.90407675058321
 21
67.26071520403372
 31
0.0
 70
   160
 71
     5
 42
-1.0
  3
Standard
100
AcDbAlignedDimension
 13
27.32407692872132
 23
61.19998667274291
 33
0.0
 14
42.48407657244511
 24
61.19998667274291
 34
0.0
100
AcDbRotatedDimension
1001
ACAD
1000
DSTYLE
1002
{
1070
   270
1070
     7
1070
   270
1070
     7
1070
     3
1000
"\X
1070
     4
1000
mm
1070
    40
1040
4.0
1070
    42
1040
0.09
1070
    44
1040
0.09
1070
    78
1070
     1
1070
   140
1040
0.125
1070
   141
1040
0.05
1070
   147
1040
0.06
1070
   170
1070
     1
1070
   276
1070
     2
1070
   277
1070
     5
1070
   284
1070
     1
1002
}
  0
LINE
  5
500F
330
1F
100
AcDbEntity
  8
0
100
AcDbLine
 10
28.98070279365884
 20
60.24437811074644
 30
0.0
 11
29.14070279365884
 21
60.24437811074644
 31
0.0
  0
LINE
  5
5010
330
1F
100
AcDbEntity
  8
0
100
AcDbLine
 10
29.06070279365884
 20
60.16437811074644
 30
0.0
 11
29.06070279365884
 21
60.32437811074643
 31
0.0
  0
LINE
  5
5011
330
1F
100
AcDbEntity
  8
0
100
AcDbLine
 10
28.98070279365884
 20
60.61937811074644
 30
0.0
 11
29.14070279365884
 21
60.61937811074644
 31
0.0
  0
LINE
  5
5012
330
1F
100
AcDbEntity
  8
0
100
AcDbLine
 10
29.06070279365884
 20
60.53937811074644
 30
0.0
 11
29.06070279365884
 21
60.69937811074644
 31
0.0
  0
LINE
  5
5013
330
1F
100
AcDbEntity
  8
0
100
AcDbLine
 10
40.67070279365883
 20
60.24437811074644
 30
0.0
 11
40.83070279365883
 21
60.24437811074644
 31
0.0
  0
LINE
  5
5014
330
1F
100
AcDbEntity
  8
0
100
AcDbLine
 10
40.75070279365883
 20
60.16437811074644
 30
0.0
 11
40.75070279365883
 21
60.32437811074643
 31
0.0
  0
LINE
  5
5015
330
1F
100
AcDbEntity
  8
0
100
AcDbLine
 10
40.67070279365883
 20
60.61937811074644
 30
0.0
 11
40.83070279365883
 21
60.61937811074644
 31
0.0
  0
LINE
  5
5016
330
1F
100
AcDbEntity
  8
0
100
AcDbLine
 10
40.75070279365883
 20
60.53937811074644
 30
0.0
 11
40.75070279365883
 21
60.69937811074644
 31
0.0
  0
LINE
  5
50C7
330
1F
100
AcDbEntity
  8
0
100
AcDbLine
 10
28.58070279365884
 20
43.68612811074644
 30
0.0
 11
28.98070279365884
 21
43.68612811074644
 31
0.0
  0
LINE
  5
50C8
330
1F
100
AcDbEntity
  8
0
100
AcDbLine
 10
28.78070279365884
 20
43.48612811074644
 30
0.0
 11
28.78070279365884
 21
43.88612811074644
 31
0.0
  0
LINE
  5
50C9
330
1F
100
AcDbEntity
  8
0
100
AcDbLine
 10
30.95570279365884
 20
47.18612811074645
 30
0.0
 11
31.35570279365884
 21
47.18612811074645
 31
0.0
  0
LINE
  5
50CA
330
1F
100
AcDbEntity
  8
0
100
AcDbLine
 10
31.15570279365884
 20
46.98612811074644
 30
0.0
 11
31.15570279365884
 21
47.38612811074644
 31
0.0
  0
LINE
  5
50CB
330
1F
100
AcDbEntity
  8
0
100
AcDbLine
 10
38.45570279365884
 20
47.18612811074645
 30
0.0
 11
38.85570279365884
 21
47.18612811074645
 31
0.0
  0
LINE
  5
50CC
330
1F
100
AcDbEntity
  8
0
100
AcDbLine
 10
38.65570279365883
 20
46.98612811074644
 30
0.0
 11
38.65570279365883
 21
47.38612811074644
 31
0.0
  0
LINE
  5
50CD
330
1F
100
AcDbEntity
  8
0
100
AcDbLine
 10
41.20570279365884
 20
43.68612811074644
 30
0.0
 11
41.60570279365884
 21
43.68612811074644
 31
0.0
  0
LINE
  5
50CE
330
1F
100
AcDbEntity
  8
0
100
AcDbLine
 10
41.40570279365883
 20
43.48612811074644
 30
0.0
 11
41.40570279365883
 21
43.88612811074644
 31
0.0
  0
DIMENSION
  5
50CF
330
1F
100
AcDbEntity
  8
0
100
AcDbDimension
  2
*D10
 10
42.48570279365886
 20
39.86724520423747
 30
0.0
 11
46.42760755556362
 21
39.86724520423747
 31
0.0
 70
   160
 71
     5
 42
-1.0
  3
Standard
100
AcDbAlignedDimension
 13
41.40570279365883
 23
41.2925128129433
 33
0.0
 14
42.48570279365886
 24
43.22937811074651
 34
0.0
100
AcDbRotatedDimension
1001
ACAD
1000
DSTYLE
1002
{
1070
   270
1070
     7
1070
   270
1070
     7
1070
     3
1000
"\X
1070
     4
1000
mm
1070
    40
1040
4.0
1070
    42
1040
0.09
1070
    44
1040
0.09
1070
    78
1070
     1
1070
   140
1040
0.125
1070
   141
1040
0.05
1070
   147
1040
0.06
1070
   170
1070
     1
1070
   276
1070
     2
1070
   277
1070
     5
1070
   284
1070
     1
1002
}
  0
DIMENSION
  5
50DE
330
1F
100
AcDbEntity
  8
0
100
AcDbDimension
  2
*D11
 10
38.65570279365883
 20
37.49319692101125
 30
0.0
 11
34.90570279365883
 21
37.49319692101125
 31
0.0
 70
   160
 71
     5
 42
-1.0
  3
Standard
100
AcDbAlignedDimension
 13
31.15570279365884
 23
41.07751203441148
 33
0.0
 14
38.65570279365883
 24
41.07751203441148
 34
0.0
100
AcDbRotatedDimension
1001
ACAD
1000
DSTYLE
1002
{
1070
   270
1070
     7
1070
   270
1070
     7
1070
     3
1000
"\X
1070
     4
1000
mm
1070
    40
1040
4.0
1070
    42
1040
0.09
1070
    44
1040
0.09
1070
    78
1070
     1
1070
   140
1040
0.125
1070
   141
1040
0.05
1070
   147
1040
0.06
1070
   170
1070
     1
1070
   276
1070
     2
1070
   277
1070
     5
1070
   284
1070
     1
1002
}
  0
DIMENSION
  5
50ED
330
1F
100
AcDbEntity
  8
0
100
AcDbDimension
  2
*D12
 10
28.78070279365884
 20
34.12713959269473
 30
0.0
 11
36.28638966936857
 21
34.12713959269473
 31
0.0
 70
   160
 71
     5
 42
-1.0
  3
Standard
100
AcDbAlignedDimension
 13
41.40570279365883
 23
43.68612811074644
 33
0.0
 14
28.78070279365884
 24
43.68612811074644
 34
0.0
100
AcDbRotatedDimension
1001
ACAD
1000
DSTYLE
1002
{
1070
   270
1070
     7
1070
   270
1070
     7
1070
     3
1000
"\X
1070
     4
1000
mm
1070
    40
1040
4.0
1070
    42
1040
0.09
1070
    44
1040
0.09
1070
    78
1070
     1
1070
   140
1040
0.125
1070
   141
1040
0.05
1070
   147
1040
0.06
1070
   170
1070
     1
1070
   276
1070
     2
1070
   277
1070
     5
1070
   284
1070
     1
1002
}
  0
DIMENSION
  5
50FC
330
1F
100
AcDbEntity
  8
0
100
AcDbDimension
  2
*D13
 10
38.65570279365883
 20
37.49319692101125
 30
0.0
 11
45.10253533317819
 21
37.49319692101125
 31
0.0
 70
   160
 71
     5
 42
-1.0
  3
Standard
100
AcDbAlignedDimension
 13
41.40570279365883
 23
43.68612811074644
 33
0.0
 14
38.65570279365883
 24
41.07751203441148
 34
0.0
100
AcDbRotatedDimension
1001
ACAD
1000
DSTYLE
1002
{
1070
   270
1070
     7
1070
   270
1070
     7
1070
     3
1000
"\X
1070
     4
1000
mm
1070
    40
1040
4.0
1070
    42
1040
0.09
1070
    44
1040
0.09
1070
    78
1070
     1
1070
   140
1040
0.125
1070
   141
1040
0.05
1070
   147
1040
0.06
1070
   170
1070
     1
1070
   276
1070
     2
1070
   277
1070
     5
1070
   284
1070
     1
1002
}
  0
MTEXT
  5
5225
330
1F
100
AcDbEntity
  8
Object_Dim
  6
Continuous
 62
     7
100
AcDbMText
 10
29.07294381693923
 20
61.98185238004715
 30
0.0
 40
0.72
 41
0.0
 71
     5
 72
     1
  1
S
 73
     1
 44
1.0
1001
ACAD
1000
MTEXTBEGIN
1070
    73
1070
     1
1070
    44
1040
1.0
1070
    74
1070
     0
1000
MTEXTEND
  0
DIMENSION
  5
523D
330
1F
100
AcDbEntity
  8
0
100
AcDbDimension
  2
*D14
 10
40.75070279365883
 20
64.68208309118359
 30
0.0
 11
34.90570279365884
 21
64.68208309118359
 31
0.0
 70
   160
 71
     5
 42
-1.0
  3
Standard
100
AcDbAlignedDimension
 13
29.06070279365884
 23
62.19340627201514
 33
0.0
 14
40.75070279365883
 24
62.19340627201514
 34
0.0
100
AcDbRotatedDimension
1001
ACAD
1000
DSTYLE
1002
{
1070
   270
1070
     7
1070
   270
1070
     7
1070
     3
1000
"\X
1070
     4
1000
mm
1070
    40
1040
4.0
1070
    42
1040
0.09
1070
    44
1040
0.09
1070
    78
1070
     1
1070
   140
1040
0.125
1070
   141
1040
0.05
1070
   147
1040
0.06
1070
   170
1070
     1
1070
   276
1070
     2
1070
   277
1070
     5
1070
   284
1070
     1
1002
}
  0
MTEXT
  5
526B
330
1F
100
AcDbEntity
  8
Object_Dim
  6
Continuous
 62
     7
100
AcDbMText
 10
40.76294381693922
 20
61.98185238004715
 30
0.0
 40
0.72
 41
0.0
 71
     5
 72
     1
  1
S
 73
     1
 44
1.0
1001
ACAD
1000
MTEXTBEGIN
1070
    73
1070
     1
1070
    44
1040
1.0
1070
    74
1070
     0
1000
MTEXTEND
  0
LINE
  5
533D
330
1F
100
AcDbEntity
  8
0
100
AcDbLine
 10
29.06070279365884
 20
60.84857614707885
 30
0.0
 11
29.06070279365884
 21
61.51314287388976
 31
0.0
  0
LINE
  5
540F
330
1F
100
AcDbEntity
  8
0
100
AcDbLine
 10
40.75070279365883
 20
60.84857614707885
 30
0.0
 11
40.75070279365883
 21
61.51314287388976
 31
0.0
  0
MTEXT
  5
555C
330
1F
100
AcDbEntity
  8
Object_Dim
  6
Continuous
 62
     7
100
AcDbMText
 10
28.75073705695603
 20
32.83331071127316
 30
0.0
 40
0.72
 41
0.0
 71
     5
 72
     1
  1
S
 73
     1
 44
1.0
1001
ACAD
1000
MTEXTBEGIN
1070
    73
1070
     1
1070
    44
1040
1.0
1070
    74
1070
     0
1000
MTEXTEND
  0
MTEXT
  5
555D
330
1F
100
AcDbEntity
  8
Object_Dim
  6
Continuous
 62
     7
100
AcDbMText
 10
31.22281290755113
 20
41.41009634649395
 30
0.0
 40
0.72
 41
0.0
 71
     5
 72
     1
  1
S
 73
     1
 44
1.0
1001
ACAD
1000
MTEXTBEGIN
1070
    73
1070
     1
1070
    44
1040
1.0
1070
    74
1070
     0
1000
MTEXTEND
  0
MTEXT
  5
555E
330
1F
100
AcDbEntity
  8
Object_Dim
  6
Continuous
 62
     7
100
AcDbMText
 10
38.65204346404702
 20
41.41009634649395
 30
0.0
 40
0.72
 41
0.0
 71
     5
 72
     1
  1
S
 73
     1
 44
1.0
1001
ACAD
1000
MTEXTBEGIN
1070
    73
1070
     1
1070
    44
1040
1.0
1070
    74
1070
     0
1000
MTEXTEND
  0
MTEXT
  5
555F
330
1F
100
AcDbEntity
  8
Object_Dim
  6
Continuous
 62
     7
100
AcDbMText
 10
41.42112051188466
 20
32.86183479218323
 30
0.0
 40
0.72
 41
0.0
 71
     5
 72
     1
  1
S
 73
     1
 44
1.0
1001
ACAD
1000
MTEXTBEGIN
1070
    73
1070
     1
1070
    44
1040
1.0
1070
    74
1070
     0
1000
MTEXTEND
  0
LINE
  5
558A
330
1F
100
AcDbEntity
  8
0
100
AcDbLine
 10
31.15570279365884
 20
46.70371562887402
 30
0.0
 11
31.15570279365884
 21
41.95961979293479
 31
0.0
  0
LINE
  5
558B
330
1F
100
AcDbEntity
  8
0
100
AcDbLine
 10
38.65570279365883
 20
46.70371562887402
 30
0.0
 11
38.65570279365883
 21
41.95961979293479
 31
0.0
  0
DIMENSION
  5
5D05
330
1F
100
AcDbEntity
  8
0
100
AcDbDimension
  2
*D15
 10
42.48407657244511
 20
64.68208309118359
 30
0.0
 11
46.17598133434987
 21
64.68208309118359
 31
0.0
 70
    32
 71
     5
 42
-1.0
  3
Standard
100
AcDbAlignedDimension
 13
40.75070279365883
 23
60.61937811074644
 33
0.0
 14
42.48407657244511
 24
61.19998667274291
 34
0.0
100
AcDbRotatedDimension
1001
ACAD
1000
DSTYLE
1002
{
1070
   270
1070
     7
1070
    75
1070
     1
1070
   270
1070
     7
1070
     3
1000
"\X
1070
     4
1000
mm
1070
    40
1040
4.0
1070
    42
1040
0.09
1070
    44
1040
0.09
1070
    78
1070
     1
1070
   140
1040
0.125
1070
   141
1040
0.05
1070
   147
1040
0.06
1070
   170
1070
     1
1070
   276
1070
     2
1070
   277
1070
     5
1070
   284
1070
     1
1002
}
  0
MTEXT
  5
6132
330
1F
100
AcDbEntity
  8
0
100
AcDbMText
 10
27.34374714744425
 20
32.16645550904507
 30
0.0
 40
0.5
 41
0.0
 71
     1
 72
     1
  1
\A1;Optional
 73
     1
 44
1.0
1001
ACAD
1000
MTEXTBEGIN
1070
    73
1070
     1
1070
    44
1040
1.0
1070
    74
1070
     0
1000
MTEXTEND
  0
MTEXT
  5
6133
330
1F
100
AcDbEntity
  8
0
100
AcDbMText
 10
39.96874714744424
 20
32.16645550904507
 30
0.0
 40
0.5
 41
0.0
 71
     1
 72
     1
  1
\A1;Optional
 73
     1
 44
1.0
1001
ACAD
1000
MTEXTBEGIN
1070
    73
1070
     1
1070
    44
1040
1.0
1070
    74
1070
     0
1000
MTEXTEND
  0
MTEXT
  5
6A0D
330
1F
100
AcDbEntity
  8
0
100
AcDbMText
 10
64.84728469250246
 20
43.02360036768507
 30
0.0
 40
0.5
 41
0.0
 71
     1
 72
     1
  1
\A1;Optional
 73
     1
 44
1.0
1001
ACAD
1000
MTEXTBEGIN
1070
    73
1070
     1
1070
    44
1040
1.0
1070
    74
1070
     0
1000
MTEXTEND
  0
ENDSEC
  0
SECTION
  2
OBJECTS
  0
DICTIONARY
  5
C
330
0
100
AcDbDictionary
281
     1
  3
ACAD_COLOR
350
5DF
  3
ACAD_GROUP
350
D
  3
ACAD_LAYOUT
350
1A
  3
ACAD_MATERIAL
350
5DB
  3
ACAD_MLEADERSTYLE
350
5B0
  3
ACAD_MLINESTYLE
350
17
  3
ACAD_PLOTSETTINGS
350
19
  3
ACAD_PLOTSTYLENAME
350
E
  3
ACAD_SCALELIST
350
3B
  3
ACAD_TABLESTYLE
350
5AF
  3
ACAD_VISUALSTYLE
350
2A
  3
AcDbVariableDictionary
350
5AD
  3
DWGPROPS
350
6CAA
  0
DICTIONARY
  5
4326
330
8
100
AcDbDictionary
280
     1
281
     1
  0
DICTIONARY
  5
5B7
330
1F
100
AcDbDictionary
280
     1
281
     1
  3
ACAD_SORTENTS
360
4EAA
  0
DICTIONARY
  5
5B5
330
1B
100
AcDbDictionary
280
     1
281
     1
  0
DICTIONARY
  5
5B9
330
23
100
AcDbDictionary
280
     1
281
     1
  0
DICTIONARY
  5
5DF
102
{ACAD_REACTORS
330
C
102
}
330
C
100
AcDbDictionary
281
     1
  0
DICTIONARY
  5
D
102
{ACAD_REACTORS
330
C
102
}
330
C
100
AcDbDictionary
281
     1
  0
DICTIONARY
  5
1A
102
{ACAD_REACTORS
330
C
102
}
330
C
100
AcDbDictionary
281
     1
  3
Layout1
350
1E
  3
Layout2
350
26
  3
Model
350
22
  0
DICTIONARY
  5
5DB
102
{ACAD_REACTORS
330
C
102
}
330
C
100
AcDbDictionary
281
     1
  3
ByBlock
350
5DD
  3
ByLayer
350
5DC
  3
Global
350
5DE
  0
DICTIONARY
  5
5B0
102
{ACAD_REACTORS
330
C
102
}
330
C
100
AcDbDictionary
281
     1
  0
DICTIONARY
  5
17
102
{ACAD_REACTORS
330
C
102
}
330
C
100
AcDbDictionary
281
     1
  3
Standard
350
18
  0
DICTIONARY
  5
19
102
{ACAD_REACTORS
330
C
102
}
330
C
100
AcDbDictionary
281
     1
  0
ACDBDICTIONARYWDFLT
  5
E
102
{ACAD_XDICTIONARY
360
5B1
102
}
102
{ACAD_REACTORS
330
C
102
}
330
C
100
AcDbDictionary
281
     1
  3
Color_179
350
5E3
  3
Color_7
350
5E1
  3
Color_8
350
5E2
  3
NORMAL
350
F
100
AcDbDictionaryWithDefault
340
F
  0
DICTIONARY
  5
3B
102
{ACAD_REACTORS
330
C
102
}
330
C
100
AcDbDictionary
281
     1
  3
A0
350
3C
  3
A1
350
3D
  3
A2
350
3E
  3
A3
350
3F
  3
A4
350
40
  3
A5
350
41
  3
A6
350
42
  3
A7
350
43
  3
A8
350
44
  3
A9
350
45
  3
B0
350
46
  3
B1
350
47
  3
B2
350
48
  3
B3
350
49
  3
B4
350
4A
  3
B5
350
4B
  3
B6
350
4C
  3
B7
350
4D
  3
B8
350
4E
  3
B9
350
4F
  3
C0
350
50
  3
C1
350
51
  3
C2
350
52
  3
C3
350
53
  3
C4
350
54
  3
C5
350
55
  3
C6
350
56
  3
C7
350
57
  3
C8
350
58
  3
C9
350
59
  3
D0
350
5A
  3
D1
350
5B
  3
D2
350
5C
  0
DICTIONARY
  5
5AF
102
{ACAD_REACTORS
330
C
102
}
330
C
100
AcDbDictionary
281
     1
  3
Standard
350
5E0
  0
DICTIONARY
  5
2A
102
{ACAD_REACTORS
330
C
102
}
330
C
100
AcDbDictionary
281
     1
  3
2dWireframe
350
2F
  3
3D Hidden
350
31
  3
3dWireframe
350
30
  3
Basic
350
32
  3
Brighten
350
36
  3
ColorChange
350
3A
  3
Conceptual
350
34
  3
Dim
350
35
  3
Facepattern
350
39
  3
Flat
350
2B
  3
FlatWithEdges
350
2C
  3
Gouraud
350
2D
  3
GouraudWithEdges
350
2E
  3
Linepattern
350
38
  3
Realistic
350
33
  3
Thicken
350
37
  0
DICTIONARY
  5
5AD
102
{ACAD_REACTORS
330
C
102
}
330
C
100
AcDbDictionary
281
     1
  3
CANNOSCALE
350
5AE
  3
CTABLESTYLE
350
D7C
  3
DIMASSOC
350
4353
  3
INDEXCTL
350
4352
  3
SORTENTS
350
4351
  0
XRECORD
  5
6CAA
102
{ACAD_REACTORS
330
C
102
}
330
C
100
AcDbXrecord
280
     1
  1
DWGPROPS COOKIE
  2

  3

  4

  6

  7

  8
nancyt
  9

300
=
301
=
302
=
303
=
304
=
305
=
306
=
307
=
308
=
309
=
 40
0.297725775462963
 41
2455139.891245348
 42
2455146.602464687
  1

 90
        0
  0
SORTENTSTABLE
  5
4EAA
102
{ACAD_REACTORS
330
5B7
102
}
330
5B7
100
AcDbSortentsTable
330
1F
331
2AB
  5
2AB
331
F43
  5
F43
331
26C
  5
26C
331
F04
  5
F04
331
235
  5
235
331
ECD
  5
ECD
331
177
  5
177
331
D5E
  5
D5E
331
34A
  5
34A
331
3052
  5
3052
331
F4B
  5
F4B
331
46A
  5
46A
331
F0C
  5
F0C
331
2B3
  5
2B3
331
ED5
  5
ED5
331
274
  5
274
331
1F6
  5
1F6
331
17F
  5
17F
331
D66
  5
D66
331
23D
  5
23D
331
305A
  5
305A
331
F53
  5
F53
331
F14
  5
F14
331
2BB
  5
2BB
331
EDD
  5
EDD
331
27C
  5
27C
331
D6E
  5
D6E
331
245
  5
245
331
187
  5
187
331
F1C
  5
F1C
331
D76
  5
D76
331
284
  5
284
331
20E
  5
20E
331
2C3
  5
2C3
331
28C
  5
28C
331
24D
  5
24D
331
216
  5
216
331
18F
  5
18F
331
F24
  5
F24
331
4488
  5
4488
331
302B
  5
302B
331
F2C
  5
F2C
331
294
  5
294
331
EA6
  5
EA6
331
255
  5
255
331
197
  5
197
331
21E
  5
21E
331
308A
  5
308A
331
3033
  5
3033
331
F34
  5
F34
331
EF5
  5
EF5
331
EBE
  5
EBE
331
25D
  5
25D
331
D4F
  5
D4F
331
226
  5
226
331
19F
  5
19F
331
F3C
  5
F3C
331
EFD
  5
EFD
331
2A4
  5
2A4
331
EC6
  5
EC6
331
265
  5
265
331
D57
  5
D57
331
22E
  5
22E
331
1A7
  5
1A7
331
170
  5
170
331
F44
  5
F44
331
26D
  5
26D
331
F05
  5
F05
331
236
  5
236
331
ECE
  5
ECE
331
178
  5
178
331
D5F
  5
D5F
331
3053
  5
3053
331
F4C
  5
F4C
331
F0D
  5
F0D
331
2B4
  5
2B4
331
ED6
  5
ED6
331
275
  5
275
331
D67
  5
D67
331
23E
  5
23E
331
180
  5
180
331
1F7
  5
1F7
331
F54
  5
F54
331
F15
  5
F15
331
2BC
  5
2BC
331
EDE
  5
EDE
331
27D
  5
27D
331
D6F
  5
D6F
331
246
  5
246
331
F1D
  5
F1D
331
D77
  5
D77
331
285
  5
285
331
20F
  5
20F
331
B70
  5
B70
331
188
  5
188
331
2C4
  5
2C4
331
3014
  5
3014
331
28D
  5
28D
331
24E
  5
24E
331
217
  5
217
331
190
  5
190
331
F25
  5
F25
331
4B10
  5
4B10
331
F2D
  5
F2D
331
256
  5
256
331
D48
  5
D48
331
21F
  5
21F
331
161
  5
161
331
198
  5
198
331
3034
  5
3034
331
F35
  5
F35
331
EF6
  5
EF6
331
EBF
  5
EBF
331
25E
  5
25E
331
D50
  5
D50
331
227
  5
227
331
1A0
  5
1A0
331
F3D
  5
F3D
331
EFE
  5
EFE
331
2A5
  5
2A5
331
EC7
  5
EC7
331
266
  5
266
331
22F
  5
22F
331
D58
  5
D58
331
1A8
  5
1A8
331
171
  5
171
331
438A
  5
438A
331
F45
  5
F45
331
26E
  5
26E
331
F06
  5
F06
331
237
  5
237
331
ECF
  5
ECF
331
179
  5
179
331
D60
  5
D60
331
444A
  5
444A
331
3054
  5
3054
331
F4D
  5
F4D
331
F0E
  5
F0E
331
2B5
  5
2B5
331
ED7
  5
ED7
331
276
  5
276
331
D68
  5
D68
331
23F
  5
23F
331
1F8
  5
1F8
331
181
  5
181
331
F55
  5
F55
331
F16
  5
F16
331
2BD
  5
2BD
331
EDF
  5
EDF
331
27E
  5
27E
331
D70
  5
D70
331
247
  5
247
331
306C
  5
306C
331
F1E
  5
F1E
331
286
  5
286
331
D78
  5
D78
331
B71
  5
B71
331
210
  5
210
331
189
  5
189
331
2C5
  5
2C5
331
3015
  5
3015
331
28E
  5
28E
331
24F
  5
24F
331
218
  5
218
331
F26
  5
F26
331
191
  5
191
331
C39
  5
C39
331
302D
  5
302D
331
F2E
  5
F2E
331
EEF
  5
EEF
331
257
  5
257
331
D49
  5
D49
331
220
  5
220
331
199
  5
199
331
162
  5
162
331
F36
  5
F36
331
EF7
  5
EF7
331
EC0
  5
EC0
331
25F
  5
25F
331
D51
  5
D51
331
228
  5
228
331
1A1
  5
1A1
331
F3E
  5
F3E
331
EFF
  5
EFF
331
2A6
  5
2A6
331
267
  5
267
331
EC8
  5
EC8
331
D59
  5
D59
331
230
  5
230
331
1A9
  5
1A9
331
172
  5
172
331
4CC9
  5
4CC9
331
4712
  5
4712
331
438B
  5
438B
331
304D
  5
304D
331
F46
  5
F46
331
26F
  5
26F
331
F07
  5
F07
331
238
  5
238
331
ED0
  5
ED0
331
1F1
  5
1F1
331
17A
  5
17A
331
D61
  5
D61
331
F4E
  5
F4E
331
F0F
  5
F0F
331
2B6
  5
2B6
331
ED8
  5
ED8
331
277
  5
277
331
D69
  5
D69
331
240
  5
240
331
1F9
  5
1F9
331
182
  5
182
331
47D
  5
47D
331
F17
  5
F17
331
2BE
  5
2BE
331
D71
  5
D71
331
27F
  5
27F
331
306D
  5
306D
331
F1F
  5
F1F
331
287
  5
287
331
248
  5
248
331
B72
  5
B72
331
211
  5
211
331
18A
  5
18A
331
EE0
  5
EE0
331
2C6
  5
2C6
331
4992
  5
4992
331
28F
  5
28F
331
250
  5
250
331
219
  5
219
331
192
  5
192
331
F27
  5
F27
331
F2F
  5
F2F
331
EF0
  5
EF0
331
258
  5
258
331
D4A
  5
D4A
331
221
  5
221
331
19A
  5
19A
331
163
  5
163
331
F37
  5
F37
331
EF8
  5
EF8
331
326
  5
326
331
EC1
  5
EC1
331
260
  5
260
331
D52
  5
D52
331
229
  5
229
331
1A2
  5
1A2
331
F3F
  5
F3F
331
2A7
  5
2A7
331
268
  5
268
331
F00
  5
F00
331
D5A
  5
D5A
331
231
  5
231
331
1AA
  5
1AA
331
173
  5
173
331
EC9
  5
EC9
331
4CCA
  5
4CCA
331
304E
  5
304E
331
2AF
  5
2AF
331
F47
  5
F47
331
270
  5
270
331
F08
  5
F08
331
239
  5
239
331
ED1
  5
ED1
331
1F2
  5
1F2
331
17B
  5
17B
331
D62
  5
D62
331
F4F
  5
F4F
331
F10
  5
F10
331
2B7
  5
2B7
331
ED9
  5
ED9
331
278
  5
278
331
D6A
  5
D6A
331
241
  5
241
331
1FA
  5
1FA
331
183
  5
183
331
F18
  5
F18
331
2BF
  5
2BF
331
D72
  5
D72
331
280
  5
280
331
306E
  5
306E
331
288
  5
288
331
F20
  5
F20
331
249
  5
249
331
B73
  5
B73
331
212
  5
212
331
18B
  5
18B
331
EE1
  5
EE1
331
2C7
  5
2C7
331
4993
  5
4993
331
290
  5
290
331
251
  5
251
331
21A
  5
21A
331
193
  5
193
331
F28
  5
F28
331
302F
  5
302F
331
F30
  5
F30
331
EF1
  5
EF1
331
259
  5
259
331
D4B
  5
D4B
331
222
  5
222
331
19B
  5
19B
331
164
  5
164
331
4584
  5
4584
331
F38
  5
F38
331
EF9
  5
EF9
331
EC2
  5
EC2
331
261
  5
261
331
D53
  5
D53
331
22A
  5
22A
331
1A3
  5
1A3
331
4BB3
  5
4BB3
331
4385
  5
4385
331
347
  5
347
331
2A8
  5
2A8
331
F40
  5
F40
331
269
  5
269
331
F01
  5
F01
331
232
  5
232
331
ECA
  5
ECA
331
1AB
  5
1AB
331
174
  5
174
331
D5B
  5
D5B
331
4CCB
  5
4CCB
331
2B0
  5
2B0
331
F48
  5
F48
331
271
  5
271
331
F09
  5
F09
331
23A
  5
23A
331
ED2
  5
ED2
331
1F3
  5
1F3
331
17C
  5
17C
331
D63
  5
D63
331
F50
  5
F50
331
F11
  5
F11
331
2B8
  5
2B8
331
EDA
  5
EDA
331
279
  5
279
331
D6B
  5
D6B
331
242
  5
242
331
184
  5
184
331
F19
  5
F19
331
D73
  5
D73
331
281
  5
281
331
306F
  5
306F
331
2C0
  5
2C0
331
289
  5
289
331
F21
  5
F21
331
24A
  5
24A
331
213
  5
213
331
18C
  5
18C
331
EE2
  5
EE2
331
4994
  5
4994
331
4485
  5
4485
331
291
  5
291
331
252
  5
252
331
21B
  5
21B
331
194
  5
194
331
F29
  5
F29
331
2C8
  5
2C8
331
3087
  5
3087
331
3030
  5
3030
331
F31
  5
F31
331
EF2
  5
EF2
331
299
  5
299
331
25A
  5
25A
331
D4C
  5
D4C
331
223
  5
223
331
19C
  5
19C
331
F39
  5
F39
331
EFA
  5
EFA
331
2A1
  5
2A1
331
EC3
  5
EC3
331
262
  5
262
331
D54
  5
D54
331
22B
  5
22B
331
1A4
  5
1A4
331
16D
  5
16D
331
4BB4
  5
4BB4
331
4386
  5
4386
331
2A9
  5
2A9
331
F41
  5
F41
331
26A
  5
26A
331
F02
  5
F02
331
233
  5
233
331
ECB
  5
ECB
331
1AC
  5
1AC
331
175
  5
175
331
D5C
  5
D5C
331
348
  5
348
331
4CCC
  5
4CCC
331
4357
  5
4357
331
3050
  5
3050
331
F49
  5
F49
331
272
  5
272
331
F0A
  5
F0A
331
23B
  5
23B
331
ED3
  5
ED3
331
1F4
  5
1F4
331
17D
  5
17D
331
D64
  5
D64
331
2B1
  5
2B1
331
F51
  5
F51
331
F12
  5
F12
331
2B9
  5
2B9
331
EDB
  5
EDB
331
27A
  5
27A
331
D6C
  5
D6C
331
243
  5
243
331
185
  5
185
331
F1A
  5
F1A
331
D74
  5
D74
331
282
  5
282
331
2C1
  5
2C1
331
28A
  5
28A
331
24B
  5
24B
331
214
  5
214
331
18D
  5
18D
331
F22
  5
F22
331
4995
  5
4995
331
4486
  5
4486
331
3029
  5
3029
331
F2A
  5
F2A
331
253
  5
253
331
21C
  5
21C
331
195
  5
195
331
292
  5
292
331
3088
  5
3088
331
3031
  5
3031
331
F32
  5
F32
331
EF3
  5
EF3
331
25B
  5
25B
331
D4D
  5
D4D
331
224
  5
224
331
19D
  5
19D
331
3039
  5
3039
331
F3A
  5
F3A
331
EFB
  5
EFB
331
2A2
  5
2A2
331
EC4
  5
EC4
331
263
  5
263
331
D55
  5
D55
331
22C
  5
22C
331
1A5
  5
1A5
331
16E
  5
16E
331
4BB5
  5
4BB5
331
2AA
  5
2AA
331
F42
  5
F42
331
26B
  5
26B
331
F03
  5
F03
331
234
  5
234
331
ECC
  5
ECC
331
349
  5
349
331
176
  5
176
331
D5D
  5
D5D
331
4CCD
  5
4CCD
331
4358
  5
4358
331
3051
  5
3051
331
F4A
  5
F4A
331
F0B
  5
F0B
331
2B2
  5
2B2
331
23C
  5
23C
331
ED4
  5
ED4
331
1F5
  5
1F5
331
17E
  5
17E
331
D65
  5
D65
331
273
  5
273
331
F52
  5
F52
331
F13
  5
F13
331
2BA
  5
2BA
331
27B
  5
27B
331
D6D
  5
D6D
331
244
  5
244
331
186
  5
186
331
551
  5
551
331
F1B
  5
F1B
331
D75
  5
D75
331
283
  5
283
331
20D
  5
20D
331
2C2
  5
2C2
331
3079
  5
3079
331
28B
  5
28B
331
24C
  5
24C
331
215
  5
215
331
18E
  5
18E
331
F23
  5
F23
331
4487
  5
4487
331
302A
  5
302A
331
F2B
  5
F2B
331
21D
  5
21D
331
196
  5
196
331
254
  5
254
331
3089
  5
3089
331
3032
  5
3032
331
F33
  5
F33
331
EF4
  5
EF4
331
25C
  5
25C
331
D4E
  5
D4E
331
225
  5
225
331
19E
  5
19E
331
F3B
  5
F3B
331
EFC
  5
EFC
331
2A3
  5
2A3
331
EC5
  5
EC5
331
264
  5
264
331
D56
  5
D56
331
22D
  5
22D
331
1A6
  5
1A6
331
16F
  5
16F
331
4BB6
  5
4BB6
  0
LAYOUT
  5
1E
102
{ACAD_XDICTIONARY
360
6CAB
102
}
102
{ACAD_REACTORS
330
1A
102
}
330
1A
100
AcDbPlotSettings
  1

  2
none_device
  4

  6

 40
0.0
 41
0.0
 42
0.0
 43
0.0
 44
0.0
 45
0.0
 46
0.0
 47
0.0
 48
0.0
 49
0.0
140
0.0
141
0.0
142
1.0
143
1.0
 70
   688
 72
     0
 73
     0
 74
     5
  7

 75
    16
147
1.0
148
0.0
149
0.0
100
AcDbLayout
  1
Layout1
 70
     1
 71
     1
 10
0.0
 20
0.0
 11
12.0
 21
9.0
 12
0.0
 22
0.0
 32
0.0
 14
1.000000000000000E+20
 24
1.000000000000000E+20
 34
1.000000000000000E+20
 15
-1.000000000000000E+20
 25
-1.000000000000000E+20
 35
-1.000000000000000E+20
146
0.0
 13
0.0
 23
0.0
 33
0.0
 16
1.0
 26
0.0
 36
0.0
 17
0.0
 27
1.0
 37
0.0
 76
     0
330
1B
  0
LAYOUT
  5
26
102
{ACAD_XDICTIONARY
360
6CAF
102
}
102
{ACAD_REACTORS
330
1A
102
}
330
1A
100
AcDbPlotSettings
  1

  2
none_device
  4

  6

 40
0.0
 41
0.0
 42
0.0
 43
0.0
 44
0.0
 45
0.0
 46
0.0
 47
0.0
 48
0.0
 49
0.0
140
0.0
141
0.0
142
1.0
143
1.0
 70
   688
 72
     0
 73
     0
 74
     5
  7

 75
    16
147
1.0
148
0.0
149
0.0
100
AcDbLayout
  1
Layout2
 70
     1
 71
     2
 10
0.0
 20
0.0
 11
0.0
 21
0.0
 12
0.0
 22
0.0
 32
0.0
 14
0.0
 24
0.0
 34
0.0
 15
0.0
 25
0.0
 35
0.0
146
0.0
 13
0.0
 23
0.0
 33
0.0
 16
1.0
 26
0.0
 36
0.0
 17
0.0
 27
1.0
 37
0.0
 76
     0
330
23
  0
LAYOUT
  5
22
102
{ACAD_XDICTIONARY
360
6CAD
102
}
102
{ACAD_REACTORS
330
1A
102
}
330
1A
100
AcDbPlotSettings
  1

  2
none_device
  4

  6

 40
0.0
 41
0.0
 42
0.0
 43
0.0
 44
0.0
 45
0.0
 46
0.0
 47
0.0
 48
0.0
 49
0.0
140
0.0
141
0.0
142
1.0
143
1.0
 70
  1712
 72
     0
 73
     0
 74
     0
  7

 75
     0
147
1.0
148
0.0
149
0.0
100
AcDbLayout
  1
Model
 70
     1
 71
     0
 10
0.0
 20
0.0
 11
34.0
 21
22.0
 12
0.0
 22
0.0
 32
0.0
 14
0.0
 24
0.0
 34
0.0
 15
34.0
 25
22.0
 35
0.0
146
0.0
 13
0.0
 23
0.0
 33
0.0
 16
1.0
 26
0.0
 36
0.0
 17
0.0
 27
1.0
 37
0.0
 76
     0
330
1F
331
29
  0
MATERIAL
  5
5DD
102
{ACAD_XDICTIONARY
360
6CB3
102
}
102
{ACAD_REACTORS
330
5DB
102
}
330
5DB
100
AcDbMaterial
  1
ByBlock
  0
MATERIAL
  5
5DC
102
{ACAD_XDICTIONARY
360
6CB1
102
}
102
{ACAD_REACTORS
330
5DB
102
}
330
5DB
100
AcDbMaterial
  1
ByLayer
  0
MATERIAL
  5
5DE
102
{ACAD_XDICTIONARY
360
6CB5
102
}
102
{ACAD_REACTORS
330
5DB
102
}
330
5DB
100
AcDbMaterial
  1
Global
  0
MLINESTYLE
  5
18
102
{ACAD_REACTORS
330
17
102
}
330
17
100
AcDbMlineStyle
  2
STANDARD
 70
     0
  3

 62
   256
 51
90.0
 52
90.0
 71
     2
 49
0.5
 62
   256
  6
BYLAYER
 49
-0.5
 62
   256
  6
BYLAYER
  0
DICTIONARY
  5
5B1
330
E
100
AcDbDictionary
280
     1
281
     1
  3
ACAD_XREC_ROUNDTRIP
360
5B2
  0
ACDBPLACEHOLDER
  5
5E3
102
{ACAD_REACTORS
330
E
102
}
330
E
  0
ACDBPLACEHOLDER
  5
5E1
102
{ACAD_REACTORS
330
E
102
}
330
E
  0
ACDBPLACEHOLDER
  5
5E2
102
{ACAD_REACTORS
330
E
102
}
330
E
  0
ACDBPLACEHOLDER
  5
F
102
{ACAD_REACTORS
330
E
102
}
330
E
  0
ACAD_PROXY_OBJECT
  5
3C
102
{ACAD_REACTORS
330
3B
102
}
330
3B
100
AcDbProxyObject
 90
      499
 91
      502
 95
       21
 70
     0
 93
       41
310
903313A315FF
 94
        0
1001
ACAD
1000
AcRTDxfName
1000
SCALE
1000
AcRTDxfName
1000
SCALE
1000
AcRTDxfName
1000
SCALE
1000
AcRTDxfName
1000
SCALE
  0
ACAD_PROXY_OBJECT
  5
3D
102
{ACAD_REACTORS
330
3B
102
}
330
3B
100
AcDbProxyObject
 90
      499
 91
      502
 95
       21
 70
     0
 93
      105
310
903313A32400000000000000407F
 94
        0
1001
ACAD
1000
AcRTDxfName
1000
SCALE
1000
AcRTDxfName
1000
SCALE
1000
AcRTDxfName
1000
SCALE
1000
AcRTDxfName
1000
SCALE
  0
ACAD_PROXY_OBJECT
  5
3E
102
{ACAD_REACTORS
330
3B
102
}
330
3B
100
AcDbProxyObject
 90
      499
 91
      502
 95
       21
 70
     0
 93
      105
310
903313A34400000000000010407F
 94
        0
1001
ACAD
1000
AcRTDxfName
1000
SCALE
1000
AcRTDxfName
1000
SCALE
1000
AcRTDxfName
1000
SCALE
1000
AcRTDxfName
1000
SCALE
  0
ACAD_PROXY_OBJECT
  5
3F
102
{ACAD_REACTORS
330
3B
102
}
330
3B
100
AcDbProxyObject
 90
      499
 91
      502
 95
       21
 70
     0
 93
      105
310
903313A35400000000000014407F
 94
        0
1001
ACAD
1000
AcRTDxfName
1000
SCALE
1000
AcRTDxfName
1000
SCALE
1000
AcRTDxfName
1000
SCALE
1000
AcRTDxfName
1000
SCALE
  0
ACAD_PROXY_OBJECT
  5
40
102
{ACAD_REACTORS
330
3B
102
}
330
3B
100
AcDbProxyObject
 90
      499
 91
      502
 95
       21
 70
     0
 93
      105
310
903313A38400000000000020407F
 94
        0
1001
ACAD
1000
AcRTDxfName
1000
SCALE
1000
AcRTDxfName
1000
SCALE
1000
AcRTDxfName
1000
SCALE
1000
AcRTDxfName
1000
SCALE
  0
ACAD_PROXY_OBJECT
  5
41
102
{ACAD_REACTORS
330
3B
102
}
330
3B
100
AcDbProxyObject
 90
      499
 91
      502
 95
       21
 70
     0
 93
      113
310
904313A3130400000000000024407F
 94
        0
1001
ACAD
1000
AcRTDxfName
1000
SCALE
1000
AcRTDxfName
1000
SCALE
1000
AcRTDxfName
1000
SCALE
1000
AcRTDxfName
1000
SCALE
  0
ACAD_PROXY_OBJECT
  5
42
102
{ACAD_REACTORS
330
3B
102
}
330
3B
100
AcDbProxyObject
 90
      499
 91
      502
 95
       21
 70
     0
 93
      113
310
904313A3136400000000000030407F
 94
        0
1001
ACAD
1000
AcRTDxfName
1000
SCALE
1000
AcRTDxfName
1000
SCALE
1000
AcRTDxfName
1000
SCALE
1000
AcRTDxfName
1000
SCALE
  0
ACAD_PROXY_OBJECT
  5
43
102
{ACAD_REACTORS
330
3B
102
}
330
3B
100
AcDbProxyObject
 90
      499
 91
      502
 95
       21
 70
     0
 93
      113
310
904313A3230400000000000034407F
 94
        0
1001
ACAD
1000
AcRTDxfName
1000
SCALE
1000
AcRTDxfName
1000
SCALE
1000
AcRTDxfName
1000
SCALE
1000
AcRTDxfName
1000
SCALE
  0
ACAD_PROXY_OBJECT
  5
44
102
{ACAD_REACTORS
330
3B
102
}
330
3B
100
AcDbProxyObject
 90
      499
 91
      502
 95
       21
 70
     0
 93
      113
310
904313A333040000000000003E407F
 94
        0
1001
ACAD
1000
AcRTDxfName
1000
SCALE
1000
AcRTDxfName
1000
SCALE
1000
AcRTDxfName
1000
SCALE
1000
AcRTDxfName
1000
SCALE
  0
ACAD_PROXY_OBJECT
  5
45
102
{ACAD_REACTORS
330
3B
102
}
330
3B
100
AcDbProxyObject
 90
      499
 91
      502
 95
       21
 70
     0
 93
      113
310
904313A3430400000000000044407F
 94
        0
1001
ACAD
1000
AcRTDxfName
1000
SCALE
1000
AcRTDxfName
1000
SCALE
1000
AcRTDxfName
1000
SCALE
1000
AcRTDxfName
1000
SCALE
  0
ACAD_PROXY_OBJECT
  5
46
102
{ACAD_REACTORS
330
3B
102
}
330
3B
100
AcDbProxyObject
 90
      499
 91
      502
 95
       21
 70
     0
 93
      113
310
904313A3530400000000000049407F
 94
        0
1001
ACAD
1000
AcRTDxfName
1000
SCALE
1000
AcRTDxfName
1000
SCALE
1000
AcRTDxfName
1000
SCALE
1000
AcRTDxfName
1000
SCALE
  0
ACAD_PROXY_OBJECT
  5
47
102
{ACAD_REACTORS
330
3B
102
}
330
3B
100
AcDbProxyObject
 90
      499
 91
      502
 95
       21
 70
     0
 93
      121
310
905313A313030400000000000059407F
 94
        0
1001
ACAD
1000
AcRTDxfName
1000
SCALE
1000
AcRTDxfName
1000
SCALE
1000
AcRTDxfName
1000
SCALE
1000
AcRTDxfName
1000
SCALE
  0
ACAD_PROXY_OBJECT
  5
48
102
{ACAD_REACTORS
330
3B
102
}
330
3B
100
AcDbProxyObject
 90
      499
 91
      502
 95
       21
 70
     0
 93
      105
310
903323A31000000000000001017F
 94
        0
1001
ACAD
1000
AcRTDxfName
1000
SCALE
1000
AcRTDxfName
1000
SCALE
1000
AcRTDxfName
1000
SCALE
1000
AcRTDxfName
1000
SCALE
  0
ACAD_PROXY_OBJECT
  5
49
102
{ACAD_REACTORS
330
3B
102
}
330
3B
100
AcDbProxyObject
 90
      499
 91
      502
 95
       21
 70
     0
 93
      105
310
903343A31000000000000041017F
 94
        0
1001
ACAD
1000
AcRTDxfName
1000
SCALE
1000
AcRTDxfName
1000
SCALE
1000
AcRTDxfName
1000
SCALE
1000
AcRTDxfName
1000
SCALE
  0
ACAD_PROXY_OBJECT
  5
4A
102
{ACAD_REACTORS
330
3B
102
}
330
3B
100
AcDbProxyObject
 90
      499
 91
      502
 95
       21
 70
     0
 93
      105
310
903383A31000000000000081017F
 94
        0
1001
ACAD
1000
AcRTDxfName
1000
SCALE
1000
AcRTDxfName
1000
SCALE
1000
AcRTDxfName
1000
SCALE
1000
AcRTDxfName
1000
SCALE
  0
ACAD_PROXY_OBJECT
  5
4B
102
{ACAD_REACTORS
330
3B
102
}
330
3B
100
AcDbProxyObject
 90
      499
 91
      502
 95
       21
 70
     0
 93
      113
310
90431303A31000000000000091017F
 94
        0
1001
ACAD
1000
AcRTDxfName
1000
SCALE
1000
AcRTDxfName
1000
SCALE
1000
AcRTDxfName
1000
SCALE
1000
AcRTDxfName
1000
SCALE
  0
ACAD_PROXY_OBJECT
  5
4C
102
{ACAD_REACTORS
330
3B
102
}
330
3B
100
AcDbProxyObject
 90
      499
 91
      502
 95
       21
 70
     0
 93
      121
310
9053130303A31000000000000165017F
 94
        0
1001
ACAD
1000
AcRTDxfName
1000
SCALE
1000
AcRTDxfName
1000
SCALE
1000
AcRTDxfName
1000
SCALE
1000
AcRTDxfName
1000
SCALE
  0
ACAD_PROXY_OBJECT
  5
4D
102
{ACAD_REACTORS
330
3B
102
}
330
3B
100
AcDbProxyObject
 90
      499
 91
      502
 95
       21
 70
     0
 93
      257
310
90E312F31323822203D2031272D3022000000000000200FC00000000000028407F
 94
        0
1001
ACAD
1000
AcRTDxfName
1000
SCALE
1000
AcRTDxfName
1000
SCALE
1000
AcRTDxfName
1000
SCALE
1000
AcRTDxfName
1000
SCALE
  0
ACAD_PROXY_OBJECT
  5
4E
102
{ACAD_REACTORS
330
3B
102
}
330
3B
100
AcDbProxyObject
 90
      499
 91
      502
 95
       21
 70
     0
 93
      249
310
90D312F363422203D2031272D3022000000000000240FC00000000000028407F
 94
        0
1001
ACAD
1000
AcRTDxfName
1000
SCALE
1000
AcRTDxfName
1000
SCALE
1000
AcRTDxfName
1000
SCALE
1000
AcRTDxfName
1000
SCALE
  0
ACAD_PROXY_OBJECT
  5
4F
102
{ACAD_REACTORS
330
3B
102
}
330
3B
100
AcDbProxyObject
 90
      499
 91
      502
 95
       21
 70
     0
 93
      249
310
90D312F333222203D2031272D3022000000000000280FC00000000000028407F
 94
        0
1001
ACAD
1000
AcRTDxfName
1000
SCALE
1000
AcRTDxfName
1000
SCALE
1000
AcRTDxfName
1000
SCALE
1000
AcRTDxfName
1000
SCALE
  0
ACAD_PROXY_OBJECT
  5
50
102
{ACAD_REACTORS
330
3B
102
}
330
3B
100
AcDbProxyObject
 90
      499
 91
      502
 95
       21
 70
     0
 93
      249
310
90D312F313622203D2031272D30220000000000002C0FC00000000000028407F
 94
        0
1001
ACAD
1000
AcRTDxfName
1000
SCALE
1000
AcRTDxfName
1000
SCALE
1000
AcRTDxfName
1000
SCALE
1000
AcRTDxfName
1000
SCALE
  0
ACAD_PROXY_OBJECT
  5
51
102
{ACAD_REACTORS
330
3B
102
}
330
3B
100
AcDbProxyObject
 90
      499
 91
      502
 95
       21
 70
     0
 93
      249
310
90D332F333222203D2031272D30220000000000002E0FC00000000000028407F
 94
        0
1001
ACAD
1000
AcRTDxfName
1000
SCALE
1000
AcRTDxfName
1000
SCALE
1000
AcRTDxfName
1000
SCALE
1000
AcRTDxfName
1000
SCALE
  0
ACAD_PROXY_OBJECT
  5
52
102
{ACAD_REACTORS
330
3B
102
}
330
3B
100
AcDbProxyObject
 90
      499
 91
      502
 95
       21
 70
     0
 93
      241
310
90C312F3822203D2031272D3022000000000000300FC00000000000028407F
 94
        0
1001
ACAD
1000
AcRTDxfName
1000
SCALE
1000
AcRTDxfName
1000
SCALE
1000
AcRTDxfName
1000
SCALE
1000
AcRTDxfName
1000
SCALE
  0
ACAD_PROXY_OBJECT
  5
53
102
{ACAD_REACTORS
330
3B
102
}
330
3B
100
AcDbProxyObject
 90
      499
 91
      502
 95
       21
 70
     0
 93
      249
310
90D332F313622203D2031272D3022000000000000320FC00000000000028407F
 94
        0
1001
ACAD
1000
AcRTDxfName
1000
SCALE
1000
AcRTDxfName
1000
SCALE
1000
AcRTDxfName
1000
SCALE
1000
AcRTDxfName
1000
SCALE
  0
ACAD_PROXY_OBJECT
  5
54
102
{ACAD_REACTORS
330
3B
102
}
330
3B
100
AcDbProxyObject
 90
      499
 91
      502
 95
       21
 70
     0
 93
      241
310
90C312F3422203D2031272D3022000000000000340FC00000000000028407F
 94
        0
1001
ACAD
1000
AcRTDxfName
1000
SCALE
1000
AcRTDxfName
1000
SCALE
1000
AcRTDxfName
1000
SCALE
1000
AcRTDxfName
1000
SCALE
  0
ACAD_PROXY_OBJECT
  5
55
102
{ACAD_REACTORS
330
3B
102
}
330
3B
100
AcDbProxyObject
 90
      499
 91
      502
 95
       21
 70
     0
 93
      241
310
90C332F3822203D2031272D3022000000000000360FC00000000000028407F
 94
        0
1001
ACAD
1000
AcRTDxfName
1000
SCALE
1000
AcRTDxfName
1000
SCALE
1000
AcRTDxfName
1000
SCALE
1000
AcRTDxfName
1000
SCALE
  0
ACAD_PROXY_OBJECT
  5
56
102
{ACAD_REACTORS
330
3B
102
}
330
3B
100
AcDbProxyObject
 90
      499
 91
      502
 95
       21
 70
     0
 93
      241
310
90C312F3222203D2031272D3022000000000000380FC00000000000028407F
 94
        0
1001
ACAD
1000
AcRTDxfName
1000
SCALE
1000
AcRTDxfName
1000
SCALE
1000
AcRTDxfName
1000
SCALE
1000
AcRTDxfName
1000
SCALE
  0
ACAD_PROXY_OBJECT
  5
57
102
{ACAD_REACTORS
330
3B
102
}
330
3B
100
AcDbProxyObject
 90
      499
 91
      502
 95
       21
 70
     0
 93
      241
310
90C332F3422203D2031272D30220000000000003A0FC00000000000028407F
 94
        0
1001
ACAD
1000
AcRTDxfName
1000
SCALE
1000
AcRTDxfName
1000
SCALE
1000
AcRTDxfName
1000
SCALE
1000
AcRTDxfName
1000
SCALE
  0
ACAD_PROXY_OBJECT
  5
58
102
{ACAD_REACTORS
330
3B
102
}
330
3B
100
AcDbProxyObject
 90
      499
 91
      502
 95
       21
 70
     0
 93
      161
310
90A3122203D2031272D3022400000000000028407F
 94
        0
1001
ACAD
1000
AcRTDxfName
1000
SCALE
1000
AcRTDxfName
1000
SCALE
1000
AcRTDxfName
1000
SCALE
1000
AcRTDxfName
1000
SCALE
  0
ACAD_PROXY_OBJECT
  5
59
102
{ACAD_REACTORS
330
3B
102
}
330
3B
100
AcDbProxyObject
 90
      499
 91
      502
 95
       21
 70
     0
 93
      257
310
90E312D312F3222203D2031272D30220000000000003E0FC00000000000028407F
 94
        0
1001
ACAD
1000
AcRTDxfName
1000
SCALE
1000
AcRTDxfName
1000
SCALE
1000
AcRTDxfName
1000
SCALE
1000
AcRTDxfName
1000
SCALE
  0
ACAD_PROXY_OBJECT
  5
5A
102
{ACAD_REACTORS
330
3B
102
}
330
3B
100
AcDbProxyObject
 90
      499
 91
      502
 95
       21
 70
     0
 93
      225
310
90A3322203D2031272D30220000000000000210000000000000028407F
 94
        0
1001
ACAD
1000
AcRTDxfName
1000
SCALE
1000
AcRTDxfName
1000
SCALE
1000
AcRTDxfName
1000
SCALE
1000
AcRTDxfName
1000
SCALE
  0
ACAD_PROXY_OBJECT
  5
5B
102
{ACAD_REACTORS
330
3B
102
}
330
3B
100
AcDbProxyObject
 90
      499
 91
      502
 95
       21
 70
     0
 93
      225
310
90A3622203D2031272D30220000000000000610000000000000028407F
 94
        0
1001
ACAD
1000
AcRTDxfName
1000
SCALE
1000
AcRTDxfName
1000
SCALE
1000
AcRTDxfName
1000
SCALE
1000
AcRTDxfName
1000
SCALE
  0
ACAD_PROXY_OBJECT
  5
5C
102
{ACAD_REACTORS
330
3B
102
}
330
3B
100
AcDbProxyObject
 90
      499
 91
      502
 95
       21
 70
     0
 93
      249
310
90D31272D3022203D2031272D30220000000000000A10000000000000028407F
 94
        0
1001
ACAD
1000
AcRTDxfName
1000
SCALE
1000
AcRTDxfName
1000
SCALE
1000
AcRTDxfName
1000
SCALE
1000
AcRTDxfName
1000
SCALE
  0
TABLESTYLE
  5
5E0
102
{ACAD_XDICTIONARY
360
6CB7
102
}
102
{ACAD_REACTORS
330
5AF
102
}
330
5AF
100
AcDbTableStyle
  3
Standard
 70
     0
 71
     0
 40
0.06
 41
0.06
280
     0
281
     0
  7
Standard
140
0.18
170
     2
 62
     0
 63
     7
283
     0
274
    -2
284
     1
 64
     0
275
    -2
285
     1
 65
     0
276
    -2
286
     1
 66
     0
277
    -2
287
     1
 67
     0
278
    -2
288
     1
 68
     0
279
    -2
289
     1
 69
     0
  7
Standard
140
0.25
170
     5
 62
     0
 63
     7
283
     0
274
    -2
284
     1
 64
     0
275
    -2
285
     1
 65
     0
276
    -2
286
     1
 66
     0
277
    -2
287
     1
 67
     0
278
    -2
288
     1
 68
     0
279
    -2
289
     1
 69
     0
  7
Standard
140
0.18
170
     5
 62
     0
 63
     7
283
     0
274
    -2
284
     1
 64
     0
275
    -2
285
     1
 65
     0
276
    -2
286
     1
 66
     0
277
    -2
287
     1
 67
     0
278
    -2
288
     1
 68
     0
279
    -2
289
     1
 69
     0
  0
VISUALSTYLE
  5
2F
102
{ACAD_REACTORS
330
2A
102
}
330
2A
100
AcDbVisualStyle
  2
2dWireframe
 70
     4
 71
     0
 72
     2
 73
     0
 90
        0
 40
-0.6
 41
-30.0
 62
     5
 63
     7
 74
     1
 91
        4
 64
     7
 65
   257
 75
     1
175
     1
 42
1.0
 92
        0
 66
   257
 43
1.0
 76
     1
 77
     6
 78
     2
 67
     7
 79
     5
170
     0
171
     0
290
     0
174
     0
 93
        1
 44
0.0
173
     0
291
     0
 45
0.0
1001
ACAD
1000
AcDbSavedByObjectVersion
1070
     0
  0
VISUALSTYLE
  5
31
102
{ACAD_REACTORS
330
2A
102
}
330
2A
100
AcDbVisualStyle
  2
3D Hidden
 70
     6
 71
     1
 72
     2
 73
     2
 90
        0
 40
-0.6
 41
-30.0
 62
     5
 63
     7
 74
     2
 91
        2
 64
     7
 65
   257
 75
     2
175
     1
 42
40.0
 92
        0
 66
   257
 43
1.0
 76
     1
 77
     6
 78
     2
 67
     7
 79
     3
170
     0
171
     0
290
     0
174
     0
 93
        1
 44
0.0
173
     0
291
     0
 45
0.0
1001
ACAD
1000
AcDbSavedByObjectVersion
1070
     0
  0
VISUALSTYLE
  5
30
102
{ACAD_REACTORS
330
2A
102
}
330
2A
100
AcDbVisualStyle
  2
3dWireframe
 70
     5
 71
     0
 72
     2
 73
     0
 90
        0
 40
-0.6
 41
-30.0
 62
     5
 63
     7
 74
     1
 91
        4
 64
     7
 65
   257
 75
     1
175
     1
 42
1.0
 92
        0
 66
   257
 43
1.0
 76
     1
 77
     6
 78
     2
 67
     7
 79
     5
170
     0
171
     0
290
     0
174
     0
 93
        1
 44
0.0
173
     0
291
     0
 45
0.0
1001
ACAD
1000
AcDbSavedByObjectVersion
1070
     0
  0
VISUALSTYLE
  5
32
102
{ACAD_REACTORS
330
2A
102
}
330
2A
100
AcDbVisualStyle
  2
Basic
 70
     7
 71
     1
 72
     0
 73
     1
 90
        0
 40
-0.6
 41
-30.0
 62
     5
 63
     7
 74
     0
 91
        4
 64
     7
 65
   257
 75
     1
175
     1
 42
1.0
 92
        8
 66
     7
 43
1.0
 76
     1
 77
     6
 78
     2
 67
     7
 79
     5
170
     0
171
     0
290
     0
174
     0
 93
        1
 44
0.0
173
     0
291
     1
 45
0.0
1001
ACAD
1000
AcDbSavedByObjectVersion
1070
     0
  0
VISUALSTYLE
  5
36
102
{ACAD_REACTORS
330
2A
102
}
330
2A
100
AcDbVisualStyle
  2
Brighten
 70
    12
 71
     2
 72
     2
 73
     0
 90
        0
 40
-0.6
 41
-30.0
 62
     5
 63
     7
 74
     1
 91
        4
 64
     7
 65
   257
 75
     1
175
     1
 42
1.0
 92
        8
 66
     7
 43
1.0
 76
     1
 77
     6
 78
     2
 67
     7
 79
     5
170
     0
171
     0
290
     0
174
     0
 93
        1
 44
50.0
173
     0
291
     1
 45
0.0
1001
ACAD
1000
AcDbSavedByObjectVersion
1070
     0
  0
VISUALSTYLE
  5
3A
102
{ACAD_REACTORS
330
2A
102
}
330
2A
100
AcDbVisualStyle
  2
ColorChange
 70
    16
 71
     2
 72
     2
 73
     3
 90
        0
 40
-0.6
 41
-30.0
 62
     5
 63
     8
 74
     1
 91
        4
 64
     7
 65
   257
 75
     1
175
     1
 42
1.0
 92
        8
 66
     8
 43
1.0
 76
     1
 77
     6
 78
     2
 67
     7
 79
     5
170
     0
171
     0
290
     0
174
     0
 93
        1
 44
0.0
173
     0
291
     1
 45
0.0
1001
ACAD
1000
AcDbSavedByObjectVersion
1070
     0
  0
VISUALSTYLE
  5
34
102
{ACAD_REACTORS
330
2A
102
}
330
2A
100
AcDbVisualStyle
  2
Conceptual
 70
     9
 71
     3
 72
     2
 73
     0
 90
        0
 40
-0.6
 41
-30.0
 62
     5
 63
     7
 74
     2
 91
        2
 64
     7
 65
   257
 75
     1
175
     1
 42
40.0
 92
        8
 66
     7
 43
1.0
 76
     1
 77
     6
 78
     2
 67
     7
 79
     3
170
     0
171
     0
290
     0
174
     0
 93
        1
 44
0.0
173
     0
291
     0
 45
0.0
1001
ACAD
1000
AcDbSavedByObjectVersion
1070
     0
  0
VISUALSTYLE
  5
35
102
{ACAD_REACTORS
330
2A
102
}
330
2A
100
AcDbVisualStyle
  2
Dim
 70
    11
 71
     2
 72
     2
 73
     0
 90
        0
 40
-0.6
 41
-30.0
 62
     5
 63
     7
 74
     1
 91
        4
 64
     7
 65
   257
 75
     1
175
     1
 42
1.0
 92
        8
 66
     7
 43
1.0
 76
     1
 77
     6
 78
     2
 67
     7
 79
     5
170
     0
171
     0
290
     0
174
     0
 93
        1
 44
-50.0
173
     0
291
     1
 45
0.0
1001
ACAD
1000
AcDbSavedByObjectVersion
1070
     0
  0
VISUALSTYLE
  5
39
102
{ACAD_REACTORS
330
2A
102
}
330
2A
100
AcDbVisualStyle
  2
Facepattern
 70
    15
 71
     2
 72
     2
 73
     0
 90
        0
 40
-0.6
 41
-30.0
 62
     5
 63
     7
 74
     1
 91
        4
 64
     7
 65
   257
 75
     1
175
     1
 42
1.0
 92
        8
 66
     7
 43
1.0
 76
     1
 77
     6
 78
     2
 67
     7
 79
     5
170
     0
171
     0
290
     0
174
     0
 93
        1
 44
0.0
173
     0
291
     1
 45
0.0
1001
ACAD
1000
AcDbSavedByObjectVersion
1070
     0
  0
VISUALSTYLE
  5
2B
102
{ACAD_REACTORS
330
2A
102
}
330
2A
100
AcDbVisualStyle
  2
Flat
 70
     0
 71
     2
 72
     1
 73
     1
 90
        2
 40
-0.6
 41
30.0
 62
     5
 63
     7
 74
     0
 91
        4
 64
     7
 65
   257
 75
     1
175
     1
 42
1.0
 92
        8
 66
     7
 43
1.0
 76
     1
 77
     6
 78
     2
 67
     7
 79
     5
170
     0
171
     0
290
     0
174
     0
 93
       13
 44
0.0
173
     0
291
     1
 45
0.0
1001
ACAD
1000
AcDbSavedByObjectVersion
1070
     0
  0
VISUALSTYLE
  5
2C
102
{ACAD_REACTORS
330
2A
102
}
330
2A
100
AcDbVisualStyle
  2
FlatWithEdges
 70
     1
 71
     2
 72
     1
 73
     1
 90
        2
 40
-0.6
 41
30.0
 62
     5
 63
     7
 74
     1
 91
        4
 64
     7
 65
   257
 75
     1
175
     1
 42
1.0
 92
        0
 66
   257
 43
1.0
 76
     1
 77
     6
 78
     2
 67
     7
 79
     5
170
     0
171
     0
290
     0
174
     0
 93
       13
 44
0.0
173
     0
291
     1
 45
0.0
1001
ACAD
1000
AcDbSavedByObjectVersion
1070
     0
  0
VISUALSTYLE
  5
2D
102
{ACAD_REACTORS
330
2A
102
}
330
2A
100
AcDbVisualStyle
  2
Gouraud
 70
     2
 71
     2
 72
     2
 73
     1
 90
        2
 40
-0.6
 41
30.0
 62
     5
 63
     7
 74
     0
 91
        4
 64
     7
 65
   257
 75
     1
175
     1
 42
1.0
 92
        0
 66
     7
 43
1.0
 76
     1
 77
     6
 78
     2
 67
     7
 79
     5
170
     0
171
     0
290
     0
174
     0
 93
       13
 44
0.0
173
     0
291
     1
 45
0.0
1001
ACAD
1000
AcDbSavedByObjectVersion
1070
     0
  0
VISUALSTYLE
  5
2E
102
{ACAD_REACTORS
330
2A
102
}
330
2A
100
AcDbVisualStyle
  2
GouraudWithEdges
 70
     3
 71
     2
 72
     2
 73
     1
 90
        2
 40
-0.6
 41
30.0
 62
     5
 63
     7
 74
     1
 91
        4
 64
     7
 65
   257
 75
     1
175
     1
 42
1.0
 92
        0
 66
   257
 43
1.0
 76
     1
 77
     6
 78
     2
 67
     7
 79
     5
170
     0
171
     0
290
     0
174
     0
 93
       13
 44
0.0
173
     0
291
     1
 45
0.0
1001
ACAD
1000
AcDbSavedByObjectVersion
1070
     0
  0
VISUALSTYLE
  5
38
102
{ACAD_REACTORS
330
2A
102
}
330
2A
100
AcDbVisualStyle
  2
Linepattern
 70
    14
 71
     2
 72
     2
 73
     0
 90
        0
 40
-0.6
 41
-30.0
 62
     5
 63
     7
 74
     1
 91
        4
 64
     7
 65
   257
 75
     7
175
     7
 42
1.0
 92
        8
 66
     7
 43
1.0
 76
     1
 77
     6
 78
     2
 67
     7
 79
     5
170
     0
171
     0
290
     0
174
     0
 93
        1
 44
0.0
173
     0
291
     1
 45
0.0
1001
ACAD
1000
AcDbSavedByObjectVersion
1070
     0
  0
VISUALSTYLE
  5
33
102
{ACAD_REACTORS
330
2A
102
}
330
2A
100
AcDbVisualStyle
  2
Realistic
 70
     8
 71
     2
 72
     2
 73
     0
 90
        0
 40
-0.6
 41
-30.0
 62
     5
 63
     7
 74
     1
 91
        0
 64
     7
 65
   257
 75
     1
175
     1
 42
1.0
 92
        8
 66
     8
 43
1.0
 76
     1
 77
     6
 78
     2
 67
     7
 79
     5
170
     0
171
     0
290
     0
174
     0
 93
       13
 44
0.0
173
     0
291
     0
 45
0.0
1001
ACAD
1000
AcDbSavedByObjectVersion
1070
     0
  0
VISUALSTYLE
  5
37
102
{ACAD_REACTORS
330
2A
102
}
330
2A
100
AcDbVisualStyle
  2
Thicken
 70
    13
 71
     2
 72
     2
 73
     0
 90
        0
 40
-0.6
 41
-30.0
 62
     5
 63
     7
 74
     1
 91
        4
 64
     7
 65
   257
 75
     1
175
     1
 42
1.0
 92
       12
 66
     7
 43
1.0
 76
     1
 77
     6
 78
     2
 67
     7
 79
     5
170
     0
171
     0
290
     0
174
     0
 93
        1
 44
0.0
173
     0
291
     1
 45
0.0
1001
ACAD
1000
AcDbSavedByObjectVersion
1070
     0
  0
DICTIONARYVAR
  5
5AE
102
{ACAD_REACTORS
330
5AD
102
}
330
5AD
100
DictionaryVariables
280
     0
  1
1:1
  0
DICTIONARYVAR
  5
D7C
102
{ACAD_REACTORS
330
5AD
102
}
330
5AD
100
DictionaryVariables
280
     0
  1
STANDARD
  0
DICTIONARYVAR
  5
4353
102
{ACAD_REACTORS
330
5AD
102
}
330
5AD
100
DictionaryVariables
280
     0
  1
1
  0
DICTIONARYVAR
  5
4352
102
{ACAD_REACTORS
330
5AD
102
}
330
5AD
100
DictionaryVariables
280
     0
  1
0
  0
DICTIONARYVAR
  5
4351
102
{ACAD_REACTORS
330
5AD
102
}
330
5AD
100
DictionaryVariables
280
     0
  1
127
  0
DICTIONARY
  5
6CAB
330
1E
100
AcDbDictionary
280
     1
281
     1
  3
ACAD_XREC_ROUNDTRIP
360
6CAC
  0
DICTIONARY
  5
6CAF
330
26
100
AcDbDictionary
280
     1
281
     1
  3
ACAD_XREC_ROUNDTRIP
360
6CB0
  0
DICTIONARY
  5
6CAD
330
22
100
AcDbDictionary
280
     1
281
     1
  3
ACAD_XREC_ROUNDTRIP
360
6CAE
  0
DICTIONARY
  5
6CB3
330
5DD
100
AcDbDictionary
280
     1
281
     1
  3
ACAD_XREC_ROUNDTRIP
360
6CB4
  0
DICTIONARY
  5
6CB1
330
5DC
100
AcDbDictionary
280
     1
281
     1
  3
ACAD_XREC_ROUNDTRIP
360
6CB2
  0
DICTIONARY
  5
6CB5
330
5DE
100
AcDbDictionary
280
     1
281
     1
  3
ACAD_XREC_ROUNDTRIP
360
6CB6
  0
XRECORD
  5
5B2
102
{ACAD_REACTORS
330
5B1
102
}
330
5B1
100
AcDbXrecord
280
     1
102
EXTNAMES
  1
NORMAL
  2
Normal
  0
DICTIONARY
  5
6CB7
330
5E0
100
AcDbDictionary
280
     1
281
     1
  3
ACAD_XREC_ROUNDTRIP
360
6CB8
  0
XRECORD
  5
6CAC
102
{ACAD_REACTORS
330
6CAB
102
}
330
6CAB
100
AcDbXrecord
280
     1
102
SHADEPLOT
 70
     0
102
SHADEPLOTRESLEVEL
 70
     2
102
SHADEPLOTCUSTOMDPI
 70
   300
  0
XRECORD
  5
6CB0
102
{ACAD_REACTORS
330
6CAF
102
}
330
6CAF
100
AcDbXrecord
280
     1
102
SHADEPLOT
 70
     0
102
SHADEPLOTRESLEVEL
 70
     2
102
SHADEPLOTCUSTOMDPI
 70
   300
  0
XRECORD
  5
6CAE
102
{ACAD_REACTORS
330
6CAD
102
}
330
6CAD
100
AcDbXrecord
280
     1
102
SHADEPLOT
 70
     0
102
SHADEPLOTRESLEVEL
 70
     2
102
SHADEPLOTCUSTOMDPI
 70
   300
  0
XRECORD
  5
6CB4
102
{ACAD_REACTORS
330
6CB3
102
}
330
6CB3
100
AcDbXrecord
280
     1
102
MATERIAL
148
0.0
149
0.0
149
0.0
 93
        0
 94
       63
282
     0
 72
     1
 77
     1
171
     1
175
     1
179
     1
273
     0
  0
XRECORD
  5
6CB2
102
{ACAD_REACTORS
330
6CB1
102
}
330
6CB1
100
AcDbXrecord
280
     1
102
MATERIAL
148
0.0
149
0.0
149
0.0
 93
        0
 94
       63
282
     0
 72
     1
 77
     1
171
     1
175
     1
179
     1
273
     0
  0
XRECORD
  5
6CB6
102
{ACAD_REACTORS
330
6CB5
102
}
330
6CB5
100
AcDbXrecord
280
     1
102
MATERIAL
148
0.0
149
0.0
149
0.0
 93
        0
 94
       63
282
     0
 72
     1
 77
     1
171
     1
175
     1
179
     1
273
     0
  0
XRECORD
  5
6CB8
102
{ACAD_REACTORS
330
6CB7
102
}
330
6CB7
100
AcDbXrecord
280
     1
102
ACAD_ROUNDTRIP_PRE2007_TABLESTYLE
 90
      512
 91
        0
  1

 92
      512
 93
        0
  2

 94
      512
 95
        0
  3

  0
ENDSEC
  0
EOF
