  0
SECTION
  2
HEADER
  9
$ACADVER
  1
AC1018
  9
$ACADMAINTVER
 70
     0
  9
$DWGCODEPAGE
  3
ANSI_1252
  9
$INSBASE
 10
0.0
 20
0.0
 30
0.0
  9
$EXTMIN
 10
5.926239099733336
 20
1.05417420837081
 30
-0.0015258207003583
  9
$EXTMAX
 10
33.22024543958278
 20
29.17587200031626
 30
0.0000000349246037
  9
$LIMMIN
 10
0.0
 20
0.0
  9
$LIMMAX
 10
34.0
 20
22.0
  9
$ORTHOMODE
 70
     0
  9
$REGENMODE
 70
     1
  9
$FILLMODE
 70
     1
  9
$QTEXTMODE
 70
     0
  9
$MIRRTEXT
 70
     1
  9
$LTSCALE
 40
1.0
  9
$ATTMODE
 70
     1
  9
$TEXTSIZE
 40
0.125
  9
$TRACEWID
 40
0.05
  9
$TEXTSTYLE
  7
Standard
  9
$CLAYER
  8
DIMENSIONS
  9
$CELTYPE
  6
ByLayer
  9
$CECOLOR
 62
   256
  9
$CELTSCALE
 40
1.0
  9
$DISPSILH
 70
     0
  9
$DIMSCALE
 40
1.0
  9
$DIMASZ
 40
0.18
  9
$DIMEXO
 40
0.18
  9
$DIMDLI
 40
0.38
  9
$DIMRND
 40
0.0
  9
$DIMDLE
 40
0.0
  9
$DIMEXE
 40
0.18
  9
$DIMTP
 40
0.0
  9
$DIMTM
 40
0.0
  9
$DIMTXT
 40
0.18
  9
$DIMCEN
 40
0.09
  9
$DIMTSZ
 40
0.0
  9
$DIMTOL
 70
     0
  9
$DIMLIM
 70
     0
  9
$DIMTIH
 70
     1
  9
$DIMTOH
 70
     1
  9
$DIMSE1
 70
     0
  9
$DIMSE2
 70
     0
  9
$DIMTAD
 70
     0
  9
$DIMZIN
 70
     4
  9
$DIMBLK
  1

  9
$DIMASO
 70
     1
  9
$DIMSHO
 70
     1
  9
$DIMPOST
  1
"\X
  9
$DIMAPOST
  1
mm
  9
$DIMALT
 70
     1
  9
$DIMALTD
 70
     0
  9
$DIMALTF
 40
25.4
  9
$DIMLFAC
 40
1.0
  9
$DIMTOFL
 70
     0
  9
$DIMTVP
 40
0.0
  9
$DIMTIX
 70
     0
  9
$DIMSOXD
 70
     0
  9
$DIMSAH
 70
     0
  9
$DIMBLK1
  1

  9
$DIMBLK2
  1

  9
$DIMSTYLE
  2
Standard
  9
$DIMCLRD
 70
     0
  9
$DIMCLRE
 70
     0
  9
$DIMCLRT
 70
     0
  9
$DIMTFAC
 40
1.0
  9
$DIMGAP
 40
0.09
  9
$DIMJUST
 70
     0
  9
$DIMSD1
 70
     0
  9
$DIMSD2
 70
     0
  9
$DIMTOLJ
 70
     1
  9
$DIMTZIN
 70
     0
  9
$DIMALTZ
 70
     4
  9
$DIMALTTZ
 70
     0
  9
$DIMUPT
 70
     0
  9
$DIMDEC
 70
     4
  9
$DIMTDEC
 70
     4
  9
$DIMALTU
 70
     2
  9
$DIMALTTD
 70
     0
  9
$DIMTXSTY
  7
Standard
  9
$DIMAUNIT
 70
     0
  9
$DIMADEC
 70
     0
  9
$DIMALTRND
 40
5.0
  9
$DIMAZIN
 70
     1
  9
$DIMDSEP
 70
    46
  9
$DIMATFIT
 70
     0
  9
$DIMFRAC
 70
     2
  9
$DIMLDRBLK
  1

  9
$DIMLUNIT
 70
     5
  9
$DIMLWD
 70
    -2
  9
$DIMLWE
 70
    -2
  9
$DIMTMOVE
 70
     0
  9
$LUNITS
 70
     2
  9
$LUPREC
 70
     2
  9
$SKETCHINC
 40
0.1
  9
$FILLETRAD
 40
0.5
  9
$AUNITS
 70
     0
  9
$AUPREC
 70
     0
  9
$MENU
  1
.
  9
$ELEVATION
 40
0.0
  9
$PELEVATION
 40
0.0
  9
$THICKNESS
 40
0.0
  9
$LIMCHECK
 70
     0
  9
$CHAMFERA
 40
0.0
  9
$CHAMFERB
 40
0.0
  9
$CHAMFERC
 40
0.0
  9
$CHAMFERD
 40
0.0
  9
$SKPOLY
 70
     0
  9
$TDCREATE
 40
2457611.446537257
  9
$TDUCREATE
 40
2457611.738203924
  9
$TDUPDATE
 40
2457623.483044178
  9
$TDUUPDATE
 40
2457623.774710845
  9
$TDINDWG
 40
0.0472725231
  9
$TDUSRTIMER
 40
0.0472725231
  9
$USRTIMER
 70
     1
  9
$ANGBASE
 50
0.0
  9
$ANGDIR
 70
     0
  9
$PDMODE
 70
     0
  9
$PDSIZE
 40
-1.0
  9
$PLINEWID
 40
0.0
  9
$SPLFRAME
 70
     0
  9
$SPLINETYPE
 70
     6
  9
$SPLINESEGS
 70
     8
  9
$HANDSEED
  5
419
  9
$SURFTAB1
 70
     6
  9
$SURFTAB2
 70
     6
  9
$SURFTYPE
 70
     6
  9
$SURFU
 70
     6
  9
$SURFV
 70
     6
  9
$UCSBASE
  2

  9
$UCSNAME
  2

  9
$UCSORG
 10
0.0
 20
0.0
 30
0.0
  9
$UCSXDIR
 10
1.0
 20
0.0
 30
0.0
  9
$UCSYDIR
 10
0.0
 20
1.0
 30
0.0
  9
$UCSORTHOREF
  2

  9
$UCSORTHOVIEW
 70
     0
  9
$UCSORGTOP
 10
0.0
 20
0.0
 30
0.0
  9
$UCSORGBOTTOM
 10
0.0
 20
0.0
 30
0.0
  9
$UCSORGLEFT
 10
0.0
 20
0.0
 30
0.0
  9
$UCSORGRIGHT
 10
0.0
 20
0.0
 30
0.0
  9
$UCSORGFRONT
 10
0.0
 20
0.0
 30
0.0
  9
$UCSORGBACK
 10
0.0
 20
0.0
 30
0.0
  9
$PUCSBASE
  2

  9
$PUCSNAME
  2

  9
$PUCSORG
 10
0.0
 20
0.0
 30
0.0
  9
$PUCSXDIR
 10
1.0
 20
0.0
 30
0.0
  9
$PUCSYDIR
 10
0.0
 20
1.0
 30
0.0
  9
$PUCSORTHOREF
  2

  9
$PUCSORTHOVIEW
 70
     0
  9
$PUCSORGTOP
 10
0.0
 20
0.0
 30
0.0
  9
$PUCSORGBOTTOM
 10
0.0
 20
0.0
 30
0.0
  9
$PUCSORGLEFT
 10
0.0
 20
0.0
 30
0.0
  9
$PUCSORGRIGHT
 10
0.0
 20
0.0
 30
0.0
  9
$PUCSORGFRONT
 10
0.0
 20
0.0
 30
0.0
  9
$PUCSORGBACK
 10
0.0
 20
0.0
 30
0.0
  9
$USERI1
 70
     0
  9
$USERI2
 70
     0
  9
$USERI3
 70
     0
  9
$USERI4
 70
     0
  9
$USERI5
 70
     0
  9
$USERR1
 40
0.0
  9
$USERR2
 40
0.0
  9
$USERR3
 40
0.0
  9
$USERR4
 40
0.0
  9
$USERR5
 40
0.0
  9
$WORLDVIEW
 70
     1
  9
$SHADEDGE
 70
     3
  9
$SHADEDIF
 70
    70
  9
$TILEMODE
 70
     1
  9
$MAXACTVP
 70
    64
  9
$PINSBASE
 10
0.0
 20
0.0
 30
0.0
  9
$PLIMCHECK
 70
     0
  9
$PEXTMIN
 10
-0.0524067263582779
 20
-0.0641852596906958
 30
0.0
  9
$PEXTMAX
 10
10.8239876072895
 20
8.303402634852954
 30
0.0
  9
$PLIMMIN
 10
-0.1249995194082185
 20
-0.1249999981226883
  9
$PLIMMAX
 10
10.87500024029589
 20
8.375000362321149
  9
$UNITMODE
 70
     0
  9
$VISRETAIN
 70
     1
  9
$PLINEGEN
 70
     0
  9
$PSLTSCALE
 70
     1
  9
$TREEDEPTH
 70
  3020
  9
$CMLSTYLE
  2
Standard
  9
$CMLJUST
 70
     0
  9
$CMLSCALE
 40
1.0
  9
$PROXYGRAPHICS
 70
     1
  9
$MEASUREMENT
 70
     0
  9
$CELWEIGHT
370
    -1
  9
$ENDCAPS
280
     0
  9
$JOINSTYLE
280
     0
  9
$LWDISPLAY
290
     1
  9
$INSUNITS
 70
     1
  9
$HYPERLINKBASE
  1

  9
$STYLESHEET
  1

  9
$XEDIT
290
     1
  9
$CEPSNTYPE
380
     0
  9
$PSTYLEMODE
290
     1
  9
$FINGERPRINTGUID
  2
{7CABE18F-DD78-46C1-980C-936DC3998D82}
  9
$VERSIONGUID
  2
{39202DED-5D9E-4090-AE5A-B3B9A1A49A7A}
  9
$EXTNAMES
290
     1
  9
$PSVPSCALE
 40
0.0
  9
$OLESTARTUP
290
     0
  9
$SORTENTS
280
   127
  9
$INDEXCTL
280
     0
  9
$HIDETEXT
280
     0
  9
$XCLIPFRAME
290
     0
  9
$HALOGAP
280
     0
  9
$OBSCOLOR
 70
   257
  9
$OBSLTYPE
280
     0
  9
$INTERSECTIONDISPLAY
280
     0
  9
$INTERSECTIONCOLOR
 70
   257
  9
$DIMASSOC
280
     1
  9
$PROJECTNAME
  1

  0
ENDSEC
  0
SECTION
  2
CLASSES
  0
CLASS
  1
ACDBDICTIONARYWDFLT
  2
AcDbDictionaryWithDefault
  3
ObjectDBX Classes
 90
        0
 91
        1
280
     0
281
     0
  0
CLASS
  1
VISUALSTYLE
  2
AcDbVisualStyle
  3
ObjectDBX Classes
 90
     4095
 91
        0
280
     0
281
     0
  0
CLASS
  1
MATERIAL
  2
AcDbMaterial
  3
ObjectDBX Classes
 90
        0
 91
        0
280
     0
281
     0
  0
CLASS
  1
SCALE
  2
AcDbScale
  3
ObjectDBX Classes
 90
     1153
 91
       34
280
     0
281
     0
  0
CLASS
  1
SUN
  2
AcDbSun
  3
SCENEOE
 90
     1153
 91
        0
280
     0
281
     0
  0
CLASS
  1
ACDBPLACEHOLDER
  2
AcDbPlaceHolder
  3
ObjectDBX Classes
 90
        0
 91
        1
280
     0
281
     0
  0
CLASS
  1
LAYOUT
  2
AcDbLayout
  3
ObjectDBX Classes
 90
        0
 91
        3
280
     0
281
     0
  0
ENDSEC
  0
SECTION
  2
TABLES
  0
TABLE
  2
VPORT
  5
8
330
0
100
AcDbSymbolTable
 70
     4
  0
VPORT
  5
418
330
8
100
AcDbSymbolTableRecord
100
AcDbViewportTableRecord
  2
*Active
 70
     0
 10
0.0
 20
0.0
 11
1.0
 21
1.0
 12
19.57324226965805
 22
15.11502310434353
 13
0.0
 23
0.0
 14
0.5
 24
0.5
 15
0.5
 25
0.5
 16
0.0
 26
0.0
 36
1.0
 17
0.0
 27
0.0
 37
0.0
 40
28.32401216454938
 41
2.216086434573829
 42
50.0
 43
0.0
 44
0.0
 50
0.0
 51
0.0
 71
     0
 72
  2000
 73
     1
 74
     3
 75
     0
 76
     0
 77
     0
 78
     0
281
     0
 65
     1
110
0.0
120
0.0
130
0.0
111
1.0
121
0.0
131
0.0
112
0.0
122
1.0
132
0.0
 79
     0
146
0.0
  0
ENDTAB
  0
TABLE
  2
LTYPE
  5
5
330
0
100
AcDbSymbolTable
 70
     6
  0
LTYPE
  5
14
330
5
100
AcDbSymbolTableRecord
100
AcDbLinetypeTableRecord
  2
ByBlock
 70
     0
  3

 72
    65
 73
     0
 40
0.0
  0
LTYPE
  5
15
330
5
100
AcDbSymbolTableRecord
100
AcDbLinetypeTableRecord
  2
ByLayer
 70
     0
  3

 72
    65
 73
     0
 40
0.0
  0
LTYPE
  5
16
330
5
100
AcDbSymbolTableRecord
100
AcDbLinetypeTableRecord
  2
Continuous
 70
     0
  3
Solid line
 72
    65
 73
     0
 40
0.0
  0
LTYPE
  5
6A
330
5
100
AcDbSymbolTableRecord
100
AcDbLinetypeTableRecord
  2
HIDDEN
 70
     0
  3
Hidden __ __ __ __ __ __ __ __ __ __ __ __ __ __
 72
    65
 73
     2
 40
0.075
 49
0.05
 74
     0
 49
-0.025
 74
     0
  0
LTYPE
  5
6B
330
5
100
AcDbSymbolTableRecord
100
AcDbLinetypeTableRecord
  2
PHANTOM
 70
     0
  3
Phantom ______  __  __  ______  __  __  ______
 72
    65
 73
     6
 40
0.5
 49
0.25
 74
     0
 49
-0.05
 74
     0
 49
0.05
 74
     0
 49
-0.05
 74
     0
 49
0.05
 74
     0
 49
-0.05
 74
     0
  0
LTYPE
  5
6C
330
5
100
AcDbSymbolTableRecord
100
AcDbLinetypeTableRecord
  2
CENTER
 70
     0
  3
Center ____ _ ____ _ ____ _ ____ _ ____ _ ____
 72
    65
 73
     4
 40
0.4
 49
0.25
 74
     0
 49
-0.05
 74
     0
 49
0.05
 74
     0
 49
-0.05
 74
     0
  0
LTYPE
  5
6D
330
5
100
AcDbSymbolTableRecord
100
AcDbLinetypeTableRecord
  2
CENTERX2
 70
     0
  3
Center (2x) ________  __  ________  __  _____
 72
    65
 73
     4
 40
0.8
 49
0.5
 74
     0
 49
-0.1
 74
     0
 49
0.1
 74
     0
 49
-0.1
 74
     0
  0
LTYPE
  5
6E
330
5
100
AcDbSymbolTableRecord
100
AcDbLinetypeTableRecord
  2
DOT2
 70
     0
  3
Dot (.5x) ........................................
 72
    65
 73
     2
 40
0.025
 49
0.0
 74
     0
 49
-0.025
 74
     0
  0
ENDTAB
  0
TABLE
  2
LAYER
  5
2
330
0
100
AcDbSymbolTable
 70
     8
  0
LAYER
  5
10
330
2
100
AcDbSymbolTableRecord
100
AcDbLayerTableRecord
  2
0
 70
     0
 62
     7
  6
Continuous
370
    -3
390
F
  0
LAYER
  5
6F
330
2
100
AcDbSymbolTableRecord
100
AcDbLayerTableRecord
  2
FORMAT
 70
     0
 62
     8
  6
Continuous
370
    30
390
F
  0
LAYER
  5
70
330
2
100
AcDbSymbolTableRecord
100
AcDbLayerTableRecord
  2
TITLE_BLOCK_TEXT
 70
     0
 62
     7
  6
Continuous
370
    30
390
F
  0
LAYER
  5
71
330
2
100
AcDbSymbolTableRecord
100
AcDbLayerTableRecord
  2
DIMENSIONS
 70
     0
 62
     1
  6
Continuous
370
    -3
390
F
  0
LAYER
  5
72
330
2
100
AcDbSymbolTableRecord
100
AcDbLayerTableRecord
  2
SLD-0
 70
     0
 62
   179
  6
Continuous
370
    -3
390
F
  0
LAYER
  5
286
330
2
100
AcDbSymbolTableRecord
100
AcDbLayerTableRecord
  2
Object
 70
     0
 62
     4
  6
Continuous
370
    -3
390
F
  0
LAYER
  5
295
330
2
100
AcDbSymbolTableRecord
100
AcDbLayerTableRecord
  2
Defpoints
 70
     0
 62
     7
  6
Continuous
290
     0
370
    -3
390
F
  0
LAYER
  5
3DE
330
2
100
AcDbSymbolTableRecord
100
AcDbLayerTableRecord
  2
Border
 70
     0
 62
    -2
  6
Continuous
370
    -3
390
F
  0
ENDTAB
  0
TABLE
  2
STYLE
  5
3
330
0
100
AcDbSymbolTable
 70
     7
  0
STYLE
  5
11
330
3
100
AcDbSymbolTableRecord
100
AcDbTextStyleTableRecord
  2
Standard
 70
     0
 40
0.0
 41
1.0
 50
0.0
 71
     0
 42
0.125
  3
romans.shx
  4

  0
STYLE
  5
99
330
3
100
AcDbSymbolTableRecord
100
AcDbTextStyleTableRecord
  2
SLDTEXTSTYLE0
 70
     0
 40
0.0
 41
0.7
 50
0.0
 71
     0
 42
0.125
  3
TXT
  4

  0
STYLE
  5
9B
330
3
100
AcDbSymbolTableRecord
100
AcDbTextStyleTableRecord
  2
SLDTEXTSTYLE1
 70
     0
 40
0.0
 41
0.605
 50
0.0
 71
     0
 42
0.125
  3
TXT
  4

  0
STYLE
  5
A1
330
3
100
AcDbSymbolTableRecord
100
AcDbTextStyleTableRecord
  2
SLDTEXTSTYLE2
 70
     0
 40
0.0
 41
0.8764128766729262
 50
0.0
 71
     0
 42
0.125
  3
TXT
  4

  0
STYLE
  5
A3
330
3
100
AcDbSymbolTableRecord
100
AcDbTextStyleTableRecord
  2
SLDTEXTSTYLE3
 70
     0
 40
0.0
 41
0.6163697320172487
 50
0.0
 71
     0
 42
0.125
  3
TXT
  4

  0
STYLE
  5
C2
330
3
100
AcDbSymbolTableRecord
100
AcDbTextStyleTableRecord
  2
SLDTEXTSTYLE4
 70
     0
 40
0.0
 41
0.565625
 50
0.0
 71
     0
 42
0.125
  3
TXT
  4

  0
STYLE
  5
C5
330
3
100
AcDbSymbolTableRecord
100
AcDbTextStyleTableRecord
  2
SLDTEXTSTYLE5
 70
     0
 40
0.0
 41
0.5735
 50
0.0
 71
     0
 42
0.125
  3
TXT
  4

  0
ENDTAB
  0
TABLE
  2
VIEW
  5
6
330
0
100
AcDbSymbolTable
 70
     0
  0
ENDTAB
  0
TABLE
  2
UCS
  5
7
330
0
100
AcDbSymbolTable
 70
     0
  0
ENDTAB
  0
TABLE
  2
APPID
  5
9
330
0
100
AcDbSymbolTable
 70
     1
  0
APPID
  5
12
330
9
100
AcDbSymbolTableRecord
100
AcDbRegAppTableRecord
  2
ACAD
 70
     0
  0
ENDTAB
  0
TABLE
  2
DIMSTYLE
  5
A
330
0
100
AcDbSymbolTable
 70
     1
100
AcDbDimStyleTable
 71
     1
340
27
  0
DIMSTYLE
105
27
102
{ACAD_REACTORS
330
294
330
2A4
330
2B3
330
2D1
330
2E0
330
303
330
312
330
32C
330
33B
102
}
330
A
100
AcDbSymbolTableRecord
100
AcDbDimStyleTableRecord
  2
Standard
 70
     0
  3
"\X
  4
mm
 42
0.18
 78
     4
 79
     1
148
5.0
170
     1
171
     0
274
     0
276
     2
277
     5
285
     4
289
     0
340
11
  0
ENDTAB
  0
TABLE
  2
BLOCK_RECORD
  5
1
330
0
100
AcDbSymbolTable
 70
    13
  0
BLOCK_RECORD
  5
1F
330
1
100
AcDbSymbolTableRecord
100
AcDbBlockTableRecord
  2
*Model_Space
340
22
  0
BLOCK_RECORD
  5
1B
330
1
100
AcDbSymbolTableRecord
100
AcDbBlockTableRecord
  2
*Paper_Space
340
1E
  0
BLOCK_RECORD
  5
23
330
1
100
AcDbSymbolTableRecord
100
AcDbBlockTableRecord
  2
*Paper_Space0
340
26
  0
BLOCK_RECORD
  5
73
330
1
100
AcDbSymbolTableRecord
100
AcDbBlockTableRecord
  2
D
340
0
  0
BLOCK_RECORD
  5
A5
330
1
100
AcDbSymbolTableRecord
100
AcDbBlockTableRecord
  2
SW_NOTE_0
340
0
102
{BLKREFS
331
AD
102
}
  0
BLOCK_RECORD
  5
AE
330
1
100
AcDbSymbolTableRecord
100
AcDbBlockTableRecord
  2
SW_NOTE_1
340
0
102
{BLKREFS
331
B5
102
}
  0
BLOCK_RECORD
  5
296
330
1
100
AcDbSymbolTableRecord
100
AcDbBlockTableRecord
  2
*D4
340
0
  0
BLOCK_RECORD
  5
2A5
330
1
100
AcDbSymbolTableRecord
100
AcDbBlockTableRecord
  2
*D5
340
0
  0
BLOCK_RECORD
  5
2B4
330
1
100
AcDbSymbolTableRecord
100
AcDbBlockTableRecord
  2
*D6
340
0
  0
BLOCK_RECORD
  5
2D2
330
1
100
AcDbSymbolTableRecord
100
AcDbBlockTableRecord
  2
*D7
340
0
  0
BLOCK_RECORD
  5
2E1
330
1
100
AcDbSymbolTableRecord
100
AcDbBlockTableRecord
  2
*D8
340
0
  0
BLOCK_RECORD
  5
304
330
1
100
AcDbSymbolTableRecord
100
AcDbBlockTableRecord
  2
*D9
340
0
  0
BLOCK_RECORD
  5
313
330
1
100
AcDbSymbolTableRecord
100
AcDbBlockTableRecord
  2
*D10
340
0
  0
BLOCK_RECORD
  5
32D
330
1
100
AcDbSymbolTableRecord
100
AcDbBlockTableRecord
  2
*D11
340
0
  0
BLOCK_RECORD
  5
33C
330
1
100
AcDbSymbolTableRecord
100
AcDbBlockTableRecord
  2
*D12
340
0
  0
ENDTAB
  0
ENDSEC
  0
SECTION
  2
BLOCKS
  0
BLOCK
  5
20
330
1F
100
AcDbEntity
  8
0
100
AcDbBlockBegin
  2
*Model_Space
 70
     0
 10
0.0
 20
0.0
 30
0.0
  3
*Model_Space
  1

  0
ENDBLK
  5
21
330
1F
100
AcDbEntity
  8
0
100
AcDbBlockEnd
  0
BLOCK
  5
1C
330
1B
100
AcDbEntity
 67
     1
  8
0
100
AcDbBlockBegin
  2
*Paper_Space
 70
     0
 10
0.0
 20
0.0
 30
0.0
  3
*Paper_Space
  1

  0
ENDBLK
  5
1D
330
1B
100
AcDbEntity
 67
     1
  8
0
100
AcDbBlockEnd
  0
BLOCK
  5
24
330
23
100
AcDbEntity
  8
0
100
AcDbBlockBegin
  2
*Paper_Space0
 70
     0
 10
0.0
 20
0.0
 30
0.0
  3
*Paper_Space0
  1

  0
ENDBLK
  5
25
330
23
100
AcDbEntity
  8
0
100
AcDbBlockEnd
  0
BLOCK
  5
74
330
73
100
AcDbEntity
  8
0
100
AcDbBlockBegin
  2
D
 70
     0
 10
0.0
 20
0.0
 30
0.0
  3
D
  1

  0
CIRCLE
  5
76
330
73
100
AcDbEntity
  8
FORMAT
100
AcDbCircle
 10
31.60339110637787
 20
0.6244098795826005
 30
0.0
 40
0.0174532499999967
  0
CIRCLE
  5
77
330
73
100
AcDbEntity
  8
FORMAT
100
AcDbCircle
 10
32.43436632794418
 20
0.6273875012279925
 30
0.0
 40
0.0174532499999964
  0
CIRCLE
  5
78
330
73
100
AcDbEntity
  8
FORMAT
100
AcDbCircle
 10
30.77339110637787
 20
0.6244098795826005
 30
0.0
 40
0.0174532472800571
  0
CIRCLE
  5
79
330
73
100
AcDbEntity
  8
FORMAT
100
AcDbCircle
 10
30.77339110637787
 20
0.6244098795826005
 30
0.0
 40
0.0174532500000001
  0
LINE
  5
7A
330
73
100
AcDbEntity
  8
FORMAT
  6
Continuous
370
    30
100
AcDbLine
 10
33.075
 20
21.10500000000001
 30
0.0
 11
0.2000000000000022
 21
21.105
 31
0.0
  0
LINE
  5
7B
330
73
100
AcDbEntity
  8
FORMAT
  6
Continuous
370
    30
100
AcDbLine
 10
0.2000000000000022
 20
21.105
 30
0.0
 11
0.2000000000000022
 21
0.0000000000000044
 31
0.0
  0
LINE
  5
7C
330
73
100
AcDbEntity
  8
FORMAT
  6
Continuous
370
    30
100
AcDbLine
 10
28.275
 20
20.23000000000005
 30
0.0
 11
28.275
 21
20.48000000000005
 31
0.0
  0
LINE
  5
7D
330
73
100
AcDbEntity
  8
FORMAT
  6
Continuous
370
    30
100
AcDbLine
 10
28.9
 20
20.23000000000005
 30
0.0
 11
28.9
 21
20.48000000000006
 31
0.0
  0
LINE
  5
7E
330
73
100
AcDbEntity
  8
FORMAT
  6
Continuous
370
    30
100
AcDbLine
 10
33.075
 20
0.0000000000000044
 30
0.0
 11
33.075
 21
21.10500000000001
 31
0.0
  0
LINE
  5
7F
330
73
100
AcDbEntity
  8
FORMAT
  6
Continuous
370
    30
100
AcDbLine
 10
32.02499999999999
 20
20.23000000000005
 30
0.0
 11
32.02499999999999
 21
20.48000000000005
 31
0.0
  0
LINE
  5
80
330
73
100
AcDbEntity
  8
FORMAT
  6
Continuous
370
    30
100
AcDbLine
 10
32.4625
 20
20.23000000000005
 30
0.0
 11
32.4625
 21
20.48000000000005
 31
0.0
  0
LINE
  5
81
330
73
100
AcDbEntity
  8
FORMAT
  6
Continuous
370
    40
100
AcDbLine
 10
27.825
 20
20.23000000000005
 30
0.0
 11
33.075
 21
20.23000000000005
 31
0.0
  0
LINE
  5
82
330
73
100
AcDbEntity
  8
FORMAT
  6
Continuous
370
    40
100
AcDbLine
 10
27.825
 20
20.23000000000005
 30
0.0
 11
27.825
 21
21.10500000000001
 31
0.0
  0
LINE
  5
83
330
73
100
AcDbEntity
  8
FORMAT
  6
Continuous
370
    30
100
AcDbLine
 10
33.075
 20
0.0000000000000044
 30
0.0
 11
0.2000000000000022
 21
0.0000000000000044
 31
0.0
  0
LINE
  5
84
330
73
100
AcDbEntity
  8
FORMAT
  6
Continuous
370
    30
100
AcDbLine
 10
25.8875
 20
0.0000000000000076
 30
0.0
 11
25.8875
 21
1.500000000000005
 31
0.0
  0
LINE
  5
85
330
73
100
AcDbEntity
  8
FORMAT
  6
Continuous
370
    30
100
AcDbLine
 10
30.075
 20
0.5000000000000072
 30
0.0
 11
33.075
 21
0.5000000000000072
 31
0.0
  0
LINE
  5
86
330
73
100
AcDbEntity
  8
FORMAT
  6
Continuous
370
    30
100
AcDbLine
 10
22.7625
 20
1.125000000000005
 30
0.0
 11
30.075
 21
1.125000000000005
 31
0.0
  0
LINE
  5
87
330
73
100
AcDbEntity
  8
FORMAT
  6
Continuous
370
    30
100
AcDbLine
 10
22.7625
 20
0.0000000000000076
 30
0.0
 11
22.7625
 21
1.500000000000005
 31
0.0
  0
LINE
  5
88
330
73
100
AcDbEntity
  8
FORMAT
  6
Continuous
370
    30
100
AcDbLine
 10
28.725
 20
0.9062000000000079
 30
0.0
 11
28.725
 21
1.500000000000005
 31
0.0
  0
LINE
  5
89
330
73
100
AcDbEntity
  8
FORMAT
  6
Continuous
370
    15
100
AcDbLine
 10
25.10385570751344
 20
0.0529622366790725
 30
0.0
 11
25.10385570751344
 21
0.887531843849992
 31
0.0
  0
LINE
  5
8A
330
73
100
AcDbEntity
  8
FORMAT
  6
Continuous
370
    30
100
AcDbLine
 10
22.7625
 20
1.500000000000005
 30
0.0
 11
33.075
 21
1.500000000000005
 31
0.0
  0
LINE
  5
8B
330
73
100
AcDbEntity
  8
FORMAT
  6
Continuous
370
    30
100
AcDbLine
 10
25.8875
 20
0.9062000000000079
 30
0.0
 11
30.075
 21
0.9062000000000079
 31
0.0
  0
LINE
  5
8C
330
73
100
AcDbEntity
  8
FORMAT
  6
Continuous
370
    30
100
AcDbLine
 10
27.325
 20
0.9062000000000079
 30
0.0
 11
27.325
 21
1.500000000000005
 31
0.0
  0
LINE
  5
8D
330
73
100
AcDbEntity
  8
FORMAT
100
AcDbLine
 10
24.325
 20
1.125000000000005
 30
0.0
 11
24.325
 21
1.500000000000005
 31
0.0
  0
LINE
  5
8E
330
73
100
AcDbEntity
  8
FORMAT
  6
Continuous
370
    30
100
AcDbLine
 10
27.325
 20
1.312500000000005
 30
0.0
 11
30.075
 21
1.312500000000005
 31
0.0
  0
LINE
  5
8F
330
73
100
AcDbEntity
  8
FORMAT
  6
Continuous
370
    30
100
AcDbLine
 10
30.075
 20
0.0000000000000055
 30
0.0
 11
30.075
 21
1.500000000000003
 31
0.0
  0
LINE
  5
90
330
73
100
AcDbEntity
  8
FORMAT
  6
Continuous
370
    30
100
AcDbLine
 10
33.075
 20
7.550000000000004
 30
0.0
 11
32.575
 21
7.550000000000004
 31
0.0
  0
LINE
  5
91
330
73
100
AcDbEntity
  8
FORMAT
  6
Continuous
370
    30
100
AcDbLine
 10
33.075
 20
9.550000000000009
 30
0.0
 11
32.575
 21
9.550000000000009
 31
0.0
  0
LINE
  5
92
330
73
100
AcDbEntity
  8
FORMAT
  6
Continuous
370
    30
100
AcDbLine
 10
33.075
 20
10.0
 30
0.0
 11
32.625
 21
10.0
 31
0.0
  0
LINE
  5
93
330
73
100
AcDbEntity
  8
FORMAT
  6
Continuous
100
AcDbLine
 10
32.575
 20
7.550000000000004
 30
0.0
 11
32.575
 21
9.550000000000009
 31
0.0
  0
LINE
  5
94
330
73
100
AcDbEntity
  8
FORMAT
  6
Continuous
100
AcDbLine
 10
32.625
 20
9.550000000000009
 30
0.0
 11
32.625
 21
10.0
 31
0.0
  0
LINE
  5
95
330
73
100
AcDbEntity
  8
FORMAT
  6
Continuous
370
    40
100
AcDbLine
 10
27.825
 20
20.48000000000005
 30
0.0
 11
33.075
 21
20.48000000000005
 31
0.0
  0
HATCH
  5
96
330
73
100
AcDbEntity
  8
FORMAT
  6
Continuous
100
AcDbHatch
 10
0.0
 20
0.0
 30
0.0
210
0.0
220
0.0
230
1.0
  2
SOLID
 70
     1
 71
     0
 91
        1
 92
        0
 93
        1
 72
     2
 10
30.77339110637787
 20
0.6244098795826005
 40
0.0174532472800566
 50
0.0
 51
360.0
 73
     1
 97
        0
 75
     0
 76
     1
 98
        1
 10
0.0
 20
0.0
450
        0
451
        0
460
0.0
461
0.0
452
        0
462
0.0
453
        0
470

  0
HATCH
  5
97
330
73
100
AcDbEntity
  8
FORMAT
  6
Continuous
100
AcDbHatch
 10
0.0
 20
0.0
 30
0.0
210
0.0
220
0.0
230
1.0
  2
SOLID
 70
     1
 71
     0
 91
        1
 92
        0
 93
        1
 72
     2
 10
31.60339110637787
 20
0.6244098795826005
 40
0.0174532499999962
 50
0.0
 51
360.0
 73
     1
 97
        0
 75
     0
 76
     1
 98
        1
 10
0.0
 20
0.0
450
        0
451
        0
460
0.0
461
0.0
452
        0
462
0.0
453
        0
470

  0
HATCH
  5
98
330
73
100
AcDbEntity
  8
FORMAT
  6
Continuous
100
AcDbHatch
 10
0.0
 20
0.0
 30
0.0
210
0.0
220
0.0
230
1.0
  2
SOLID
 70
     1
 71
     0
 91
        1
 92
        0
 93
        1
 72
     2
 10
32.43436632794418
 20
0.6273875012279925
 40
0.0174532499999959
 50
0.0
 51
360.0
 73
     1
 97
        0
 75
     0
 76
     1
 98
        1
 10
0.0
 20
0.0
450
        0
451
        0
460
0.0
461
0.0
452
        0
462
0.0
453
        0
470

  0
MTEXT
  5
9A
330
73
100
AcDbEntity
  8
FORMAT
100
AcDbMText
 10
30.44161720785566
 20
20.36319306818741
 30
0.0
 40
0.07
 41
0.0
 71
     2
 72
     1
  1
DESCRIPTION OF CHANGE
  7
SLDTEXTSTYLE0
 73
     1
 44
1.0
  0
MTEXT
  5
9C
330
73
100
AcDbEntity
  8
FORMAT
100
AcDbMText
 10
0.3406435258590261
 20
0.3651649014509443
 30
0.0
 40
0.17
 41
0.0
 71
     1
 72
     1
  1
NOTE:
  7
SLDTEXTSTYLE1
 73
     1
 44
1.0
  0
MTEXT
  5
9D
330
73
100
AcDbEntity
  8
FORMAT
100
AcDbMText
 10
28.07175603500805
 20
20.35913829976436
 30
0.0
 40
0.07
 41
0.0
 71
     2
 72
     1
  1
REV.
  7
SLDTEXTSTYLE0
 73
     1
 44
1.0
  0
MTEXT
  5
9E
330
73
100
AcDbEntity
  8
FORMAT
100
AcDbMText
 10
28.55857705076207
 20
20.3564104212415
 30
0.0
 40
0.07
 41
0.0
 71
     2
 72
     1
  1
DATE
  7
SLDTEXTSTYLE0
 73
     1
 44
1.0
  0
MTEXT
  5
9F
330
73
100
AcDbEntity
  8
FORMAT
100
AcDbMText
 10
32.25229754695327
 20
20.36759061973484
 30
0.0
 40
0.07
 41
0.0
 71
     2
 72
     1
  1
BY
  7
SLDTEXTSTYLE0
 73
     1
 44
1.0
  0
MTEXT
  5
A0
330
73
100
AcDbEntity
  8
FORMAT
100
AcDbMText
 10
32.74202674224478
 20
20.36759061973485
 30
0.0
 40
0.07
 41
0.0
 71
     2
 72
     1
  1
CHECK
  7
SLDTEXTSTYLE0
 73
     1
 44
1.0
  0
MTEXT
  5
A2
330
73
100
AcDbEntity
  8
FORMAT
100
AcDbMText
 10
31.11933798915107
 20
20.78173440267642
 30
0.0
 40
0.07
 41
0.0
 71
     1
 72
     1
  1
DO NOT DESTROY
  7
SLDTEXTSTYLE2
 73
     1
 44
1.0
  0
MTEXT
  5
A4
330
73
100
AcDbEntity
  8
FORMAT
100
AcDbMText
 10
27.97225845239749
 20
21.00209464394158
 30
0.0
 40
0.12
 41
0.0
 71
     1
 72
     1
  1
PROPERTY OF BOBRICK WASHROOM EQUIPMENT, INC.
  7
SLDTEXTSTYLE3
 73
     1
 44
1.0
  0
INSERT
  5
AD
330
73
100
AcDbEntity
  8
FORMAT
 62
     8
100
AcDbBlockReference
  2
SW_NOTE_0
 10
27.97281922236897
 20
20.98506755538077
 30
0.0
  0
INSERT
  5
B5
330
73
100
AcDbEntity
  8
FORMAT
 62
     8
100
AcDbBlockReference
  2
SW_NOTE_1
 10
30.60506208147322
 20
20.98202961599092
 30
0.0
  0
MTEXT
  5
B6
330
73
100
AcDbEntity
  8
FORMAT
100
AcDbMText
 10
28.0611725877304
 20
0.1724440845690909
 30
0.0
 40
0.07
 41
0.0
 71
     2
 72
     1
  1
PART NAME
  7
SLDTEXTSTYLE0
 73
     1
 44
1.0
  0
MTEXT
  5
B7
330
73
100
AcDbEntity
  8
FORMAT
100
AcDbMText
 10
30.37025885106279
 20
0.4692356211129586
 30
0.0
 40
0.07
 41
0.0
 71
     2
 72
     1
  1
DWG. NO.
  7
SLDTEXTSTYLE0
 73
     1
 44
1.0
  0
MTEXT
  5
B8
330
73
100
AcDbEntity
  8
FORMAT
100
AcDbMText
 10
22.97373483058121
 20
0.39799715317596
 30
0.0
 40
0.07
 41
0.0
 71
     1
 72
     1
  1
3.  ALL DIA's CONCENTRIC WITHIN .010 TIR
  7
SLDTEXTSTYLE1
 73
     1
 44
1.0
  0
MTEXT
  5
B9
330
73
100
AcDbEntity
  8
FORMAT
100
AcDbMText
 10
23.35604788375365
 20
1.016658214471895
 30
0.0
 40
0.07
 41
0.0
 71
     1
 72
     1
  1
TOLERANCES UNLESS OTHERWISE SPECIFIED
  7
SLDTEXTSTYLE1
 73
     1
 44
1.0
  0
MTEXT
  5
BA
330
73
100
AcDbEntity
  8
FORMAT
100
AcDbMText
 10
28.91120397397544
 20
1.230090288894468
 30
0.0
 40
0.06
 41
0.0
 71
     2
 72
     1
  1
PROD.
  7
SLDTEXTSTYLE0
 73
     1
 44
1.0
  0
MTEXT
  5
BB
330
73
100
AcDbEntity
  8
FORMAT
100
AcDbMText
 10
31.65312089127594
 20
0.6529667658515692
 30
0.0
 40
0.07
 41
0.0
 71
     1
 72
     1
  1
JACKSON, TN
  7
SLDTEXTSTYLE0
 73
     1
 44
1.0
  0
MTEXT
  5
BC
330
73
100
AcDbEntity
  8
FORMAT
100
AcDbMText
 10
22.97373483058121
 20
0.5972973626647788
 30
0.0
 40
0.07
 41
0.0
 71
     1
 72
     1
  1
2.  ALL MACH SURFACES 125 RMS.
  7
SLDTEXTSTYLE1
 73
     1
 44
1.0
  0
MTEXT
  5
BD
330
73
100
AcDbEntity
  8
FORMAT
100
AcDbMText
 10
30.18058231123797
 20
0.9912827556420925
 30
0.0
 40
0.1666666666666666
 41
0.0
 71
     1
 72
     1
  1
BOBRICK WASHROOM EQUIPMENT, INC.
  7
SLDTEXTSTYLE0
 73
     1
 44
1.0
  0
MTEXT
  5
BE
330
73
100
AcDbEntity
  8
FORMAT
100
AcDbMText
 10
30.8292227888737
 20
0.6520623907430573
 30
0.0
 40
0.07
 41
0.0
 71
     1
 72
     1
  1
LOS ANGELES
  7
SLDTEXTSTYLE0
 73
     1
 44
1.0
  0
MTEXT
  5
BF
330
73
100
AcDbEntity
  8
FORMAT
100
AcDbMText
 10
25.43552890673779
 20
0.8901757080132696
 30
0.0
 40
0.06
 41
0.0
 71
     1
 72
     1
  1
DEC
  7
SLDTEXTSTYLE1
 73
     1
 44
1.0
  0
MTEXT
  5
C0
330
73
100
AcDbEntity
  8
FORMAT
100
AcDbMText
 10
27.53571539410476
 20
1.234518794589696
 30
0.0
 40
0.06
 41
0.0
 71
     2
 72
     1
  1
DFTMN
  7
SLDTEXTSTYLE0
 73
     1
 44
1.0
  0
MTEXT
  5
C1
330
73
100
AcDbEntity
  8
FORMAT
100
AcDbMText
 10
28.93632776913067
 20
1.420874845871628
 30
0.0
 40
0.06
 41
0.0
 71
     2
 72
     1
  1
APPVD.
  7
SLDTEXTSTYLE0
 73
     1
 44
1.0
  0
MTEXT
  5
C3
330
73
100
AcDbEntity
  8
FORMAT
100
AcDbMText
 10
25.39863550404208
 20
0.7764046651472981
 30
0.0
 40
0.06
 41
0.0
 71
     1
 72
     1
  1
X = ± .1
  7
SLDTEXTSTYLE4
 73
     1
 44
1.0
  0
MTEXT
  5
C4
330
73
100
AcDbEntity
  8
FORMAT
100
AcDbMText
 10
25.43552890673779
 20
0.4394570642572756
 30
0.0
 40
0.06
 41
0.0
 71
     1
 72
     1
  1
FRAC
  7
SLDTEXTSTYLE1
 73
     1
 44
1.0
  0
MTEXT
  5
C6
330
73
100
AcDbEntity
  8
FORMAT
100
AcDbMText
 10
25.34403326586704
 20
0.6745105466752276
 30
0.0
 40
0.06
 41
0.0
 71
     1
 72
     1
  1
XX = ± .02
  7
SLDTEXTSTYLE5
 73
     1
 44
1.0
  0
MTEXT
  5
C7
330
73
100
AcDbEntity
  8
FORMAT
100
AcDbMText
 10
32.5003094452076
 20
0.6529667658515682
 30
0.0
 40
0.07
 41
0.0
 71
     1
 72
     1
  1
TORONTO
  7
SLDTEXTSTYLE0
 73
     1
 44
1.0
  0
MTEXT
  5
C8
330
73
100
AcDbEntity
  8
FORMAT
100
AcDbMText
 10
28.99535232586629
 20
1.02054003778839
 30
0.0
 40
0.06
 41
0.0
 71
     2
 72
     1
  1
REL.DATE
  7
SLDTEXTSTYLE0
 73
     1
 44
1.0
  0
MTEXT
  5
C9
330
73
100
AcDbEntity
  8
FORMAT
100
AcDbMText
 10
25.44952307514425
 20
0.3451894045223454
 30
0.0
 40
0.06
 41
0.0
 71
     1
 72
     1
  1
± 1/32
  7
SLDTEXTSTYLE1
 73
     1
 44
1.0
  0
MTEXT
  5
CA
330
73
100
AcDbEntity
  8
FORMAT
100
AcDbMText
 10
30.16994701697175
 20
0.655275435501623
 30
0.0
 40
0.07
 41
0.0
 71
     1
 72
     1
  1
NEW YORK
  7
SLDTEXTSTYLE0
 73
     1
 44
1.0
  0
MTEXT
  5
CB
330
73
100
AcDbEntity
  8
FORMAT
100
AcDbMText
 10
22.97373483058121
 20
0.7965975721535953
 30
0.0
 40
0.07
 41
0.0
 71
     1
 72
     1
  1
1.  DEBURR ALL CORNERS AND EDGES.
  7
SLDTEXTSTYLE1
 73
     1
 44
1.0
  0
MTEXT
  5
CC
330
73
100
AcDbEntity
  8
FORMAT
100
AcDbMText
 10
27.53506956824832
 20
1.420874845871627
 30
0.0
 40
0.06
 41
0.0
 71
     2
 72
     1
  1
SCALE
  7
SLDTEXTSTYLE0
 73
     1
 44
1.0
  0
MTEXT
  5
CD
330
73
100
AcDbEntity
  8
FORMAT
100
AcDbMText
 10
25.40881119275927
 20
0.2190078936720642
 30
0.0
 40
0.06
 41
0.0
 71
     1
 72
     1
  1
ANGLE
  7
SLDTEXTSTYLE1
 73
     1
 44
1.0
  0
MTEXT
  5
CE
330
73
100
AcDbEntity
  8
FORMAT
100
AcDbMText
 10
27.55631956540009
 20
1.026795269164697
 30
0.0
 40
0.06
 41
0.0
 71
     2
 72
     1
  1
CHECK
  7
SLDTEXTSTYLE0
 73
     1
 44
1.0
  0
MTEXT
  5
CF
330
73
100
AcDbEntity
  8
FORMAT
100
AcDbMText
 10
25.28500383248081
 20
0.5620235188609052
 30
0.0
 40
0.06
 41
0.0
 71
     1
 72
     1
  1
XXX = ± .010
  7
SLDTEXTSTYLE1
 73
     1
 44
1.0
  0
MTEXT
  5
D0
330
73
100
AcDbEntity
  8
FORMAT
100
AcDbMText
 10
25.45422755851495
 20
0.1247402339371439
 30
0.0
 40
0.06
 41
0.0
 71
     1
 72
     1
  1
± 1°
  7
SLDTEXTSTYLE1
 73
     1
 44
1.0
  0
MTEXT
  5
D1
330
73
100
AcDbEntity
  8
FORMAT
100
AcDbMText
 10
26.2343020645711
 20
1.025630599088518
 30
0.0
 40
0.06
 41
0.0
 71
     3
 72
     1
  1
FINISH
  7
SLDTEXTSTYLE0
 73
     1
 44
1.0
  0
MTEXT
  5
D2
330
73
100
AcDbEntity
  8
FORMAT
100
AcDbMText
 10
26.19822982127122
 20
1.443076586783654
 30
0.0
 40
0.06
 41
0.0
 71
     3
 72
     1
  1
MAT'L
  7
SLDTEXTSTYLE0
 73
     1
 44
1.0
  0
MTEXT
  5
D3
330
73
100
AcDbEntity
  8
FORMAT
100
AcDbMText
 10
23.66799991478947
 20
1.463251144221145
 30
0.0
 40
0.2916666666666666
 41
0.0
 71
     1
 72
     1
  1
D
  7
SLDTEXTSTYLE1
 73
     1
 44
1.0
  0
MTEXT
  5
D4
330
73
100
AcDbEntity
  8
FORMAT
100
AcDbMText
 10
22.90119417862591
 20
1.452644275012908
 30
0.0
 40
0.07
 41
0.0
 71
     1
 72
     1
  1
DRAWING SIZE
  7
SLDTEXTSTYLE1
 73
     1
 44
1.0
  0
MTEXT
  5
D5
330
73
100
AcDbEntity
  8
FORMAT
100
AcDbMText
 10
25.51453209472147
 20
1.449047053026664
 30
0.0
 40
0.07
 41
0.0
 71
     3
 72
     1
  1
3D MODEL REVISION
  7
SLDTEXTSTYLE0
 73
     1
 44
1.0
  0
ENDBLK
  5
75
330
73
100
AcDbEntity
  8
0
100
AcDbBlockEnd
  0
BLOCK
  5
A6
330
A5
100
AcDbEntity
  8
0
100
AcDbBlockBegin
  2
SW_NOTE_0
 70
     0
 10
0.0
 20
0.0
 30
0.0
  3
SW_NOTE_0
  1

  0
MTEXT
  5
A8
330
A5
100
AcDbEntity
  8
FORMAT
 62
     0
100
AcDbMText
 10
0.0
 20
0.0725100603621735
 30
0.0
 40
0.05625
 41
0.0
 71
     1
 72
     1
  1
NOTICE IS HEREBY GIVEN THAT THIS DRAWING IS THE
  7
SLDTEXTSTYLE1
 73
     1
 44
1.0
  0
MTEXT
  5
A9
330
A5
100
AcDbEntity
  8
FORMAT
 62
     0
100
AcDbMText
 10
0.0
 20
-0.1142399339526228
 30
0.0
 40
0.05625
 41
0.0
 71
     1
 72
     1
  1
THE PERSONS, PARTNERSHIP OR CORPORATION ACCEPTING
  7
SLDTEXTSTYLE1
 73
     1
 44
1.0
  0
MTEXT
  5
AA
330
A5
100
AcDbEntity
  8
FORMAT
 62
     0
100
AcDbMText
 10
0.0
 20
-0.207614931110021
 30
0.0
 40
0.05625
 41
0.0
 71
     1
 72
     1
  1
THIS DRAWING AGREES THAT ALL INFORMATION SET FORTH IN
  7
SLDTEXTSTYLE1
 73
     1
 44
1.0
  0
MTEXT
  5
AB
330
A5
100
AcDbEntity
  8
FORMAT
 62
     0
100
AcDbMText
 10
0.0
 20
-0.3009899282674191
 30
0.0
 40
0.05625
 41
0.0
 71
     1
 72
     1
  1
THIS DRAWING WILL BE HELD CONFIDENTIAL AND THAT IT WILL
  7
SLDTEXTSTYLE1
 73
     1
 44
1.0
  0
MTEXT
  5
AC
330
A5
100
AcDbEntity
  8
FORMAT
 62
     0
100
AcDbMText
 10
0.0
 20
-0.3943649254248173
 30
0.0
 40
0.05625
 41
0.0
 71
     1
 72
     1
  1
NOT BE DISCLOSED TO ANYONE OTHER THAN AN OFFICIAL OF
  7
SLDTEXTSTYLE1
 73
     1
 44
1.0
  0
ENDBLK
  5
A7
330
A5
100
AcDbEntity
  8
0
100
AcDbBlockEnd
  0
BLOCK
  5
AF
330
AE
100
AcDbEntity
  8
0
100
AcDbBlockBegin
  2
SW_NOTE_1
 70
     0
 10
0.0
 20
0.0
 30
0.0
  3
SW_NOTE_1
  1

  0
MTEXT
  5
B1
330
AE
100
AcDbEntity
  8
FORMAT
 62
     0
100
AcDbMText
 10
0.0
 20
0.0725100603621735
 30
0.0
 40
0.05625
 41
0.0
 71
     1
 72
     1
  1
THE UNITED STATES GOVERNMENT OR AN EMPLOYEE OF
  7
SLDTEXTSTYLE1
 73
     1
 44
1.0
  0
MTEXT
  5
B2
330
AE
100
AcDbEntity
  8
FORMAT
 62
     0
100
AcDbMText
 10
0.0
 20
-0.0208649367952247
 30
0.0
 40
0.05625
 41
0.0
 71
     1
 72
     1
  1
BOBRICK WASHROOM EQUIPMENT, INC.
  7
SLDTEXTSTYLE1
 73
     1
 44
1.0
  0
MTEXT
  5
B3
330
AE
100
AcDbEntity
  8
FORMAT
 62
     0
100
AcDbMText
 10
0.0
 20
-0.3009899282674191
 30
0.0
 40
0.05625
 41
0.0
 71
     1
 72
     1
  1
WHEN FINISHED WITH THIS DRAWING, RETURN TO BOBRICK
  7
SLDTEXTSTYLE1
 73
     1
 44
1.0
  0
MTEXT
  5
B4
330
AE
100
AcDbEntity
  8
FORMAT
 62
     0
100
AcDbMText
 10
0.0
 20
-0.3943649254248173
 30
0.0
 40
0.05625
 41
0.0
 71
     1
 72
     1
  1
WASHROOM EQUIPMENT, INC.
  7
SLDTEXTSTYLE1
 73
     1
 44
1.0
  0
ENDBLK
  5
B0
330
AE
100
AcDbEntity
  8
0
100
AcDbBlockEnd
  0
BLOCK
  5
2A2
330
296
100
AcDbEntity
  8
0
100
AcDbBlockBegin
  2
*D4
 70
     1
 10
0.0
 20
0.0
 30
0.0
  3
*D4
  1

  0
LINE
  5
3B2
330
296
100
AcDbEntity
  8
DIMENSIONS
 62
     0
370
    -2
100
AcDbLine
 10
5.93543820224719
 20
21.61730905979657
 30
0.0
 11
5.93543820224719
 21
24.58526822107407
 31
0.0
  0
LINE
  5
3B3
330
296
100
AcDbEntity
  8
DIMENSIONS
 62
     0
370
    -2
100
AcDbLine
 10
13.99543820224719
 20
21.61730905979657
 30
0.0
 11
13.99543820224719
 21
24.58526822107407
 31
0.0
  0
LINE
  5
3B4
330
296
100
AcDbEntity
  8
DIMENSIONS
 62
     0
370
    -2
100
AcDbLine
 10
6.115438202247189
 20
24.40526822107408
 30
0.0
 11
9.279723916532905
 21
24.40526822107408
 31
0.0
  0
LINE
  5
3B5
330
296
100
AcDbEntity
  8
DIMENSIONS
 62
     0
370
    -2
100
AcDbLine
 10
13.81543820224719
 20
24.40526822107408
 30
0.0
 11
10.65115248796147
 21
24.40526822107408
 31
0.0
  0
SOLID
  5
3B6
330
296
100
AcDbEntity
  8
DIMENSIONS
 62
     0
100
AcDbTrace
 10
6.115438202247189
 20
24.43526822107408
 30
0.0
 11
6.115438202247189
 21
24.37526822107408
 31
0.0
 12
5.93543820224719
 22
24.40526822107408
 32
0.0
 13
5.93543820224719
 23
24.40526822107408
 33
0.0
  0
SOLID
  5
3B7
330
296
100
AcDbEntity
  8
DIMENSIONS
 62
     0
100
AcDbTrace
 10
13.81543820224719
 20
24.43526822107408
 30
0.0
 11
13.81543820224719
 21
24.37526822107408
 31
0.0
 12
13.99543820224719
 22
24.40526822107408
 32
0.0
 13
13.99543820224719
 23
24.40526822107408
 33
0.0
  0
MTEXT
  5
3B8
330
296
100
AcDbEntity
  8
DIMENSIONS
 62
     0
100
AcDbMText
 10
9.96543820224719
 20
24.63241107821693
 30
0.0
 40
0.18
 41
0.0
 71
     5
 72
     1
  1
\A1;8 1/16"
 73
     1
 44
1.0
  0
MTEXT
  5
3B9
330
296
100
AcDbEntity
  8
DIMENSIONS
 62
     0
100
AcDbMText
 10
9.96543820224719
 20
24.17812536393121
 30
0.0
 40
0.18
 41
0.0
 71
     5
 72
     1
  1
\A1;[205mm]
 73
     1
 44
1.0
  0
POINT
  5
3BA
330
296
100
AcDbEntity
  8
Defpoints
 62
     0
100
AcDbPoint
 10
5.93543820224719
 20
21.43730905979658
 30
0.0
  0
POINT
  5
3BB
330
296
100
AcDbEntity
  8
Defpoints
 62
     0
100
AcDbPoint
 10
13.99543820224719
 20
21.43730905979658
 30
0.0
  0
POINT
  5
3BC
330
296
100
AcDbEntity
  8
Defpoints
 62
     0
100
AcDbPoint
 10
13.99543820224719
 20
24.40526822107408
 30
0.0
  0
ENDBLK
  5
2A3
330
296
100
AcDbEntity
  8
0
100
AcDbBlockEnd
  0
BLOCK
  5
2B1
330
2A5
100
AcDbEntity
  8
0
100
AcDbBlockBegin
  2
*D5
 70
     1
 10
0.0
 20
0.0
 30
0.0
  3
*D5
  1

  0
LINE
  5
3A7
330
2A5
100
AcDbEntity
  8
DIMENSIONS
 62
     0
370
    -2
100
AcDbLine
 10
14.13943820224719
 20
21.47330905979658
 30
0.0
 11
16.75087765000861
 21
21.47330905979658
 31
0.0
  0
LINE
  5
3A8
330
2A5
100
AcDbEntity
  8
DIMENSIONS
 62
     0
370
    -2
100
AcDbLine
 10
14.13943820224719
 20
7.373309059796573
 30
0.0
 11
16.75087765000861
 21
7.373309059796573
 31
0.0
  0
LINE
  5
3A9
330
2A5
100
AcDbEntity
  8
DIMENSIONS
 62
     0
370
    -2
100
AcDbLine
 10
16.57087765000861
 20
21.29330905979658
 30
0.0
 11
16.57087765000861
 21
14.87759477408229
 31
0.0
  0
LINE
  5
3AA
330
2A5
100
AcDbEntity
  8
DIMENSIONS
 62
     0
370
    -2
100
AcDbLine
 10
16.57087765000861
 20
7.553309059796573
 30
0.0
 11
16.57087765000861
 21
13.96902334551086
 31
0.0
  0
SOLID
  5
3AB
330
2A5
100
AcDbEntity
  8
DIMENSIONS
 62
     0
100
AcDbTrace
 10
16.54087765000861
 20
21.29330905979658
 30
0.0
 11
16.60087765000861
 21
21.29330905979658
 31
0.0
 12
16.57087765000861
 22
21.47330905979658
 32
0.0
 13
16.57087765000861
 23
21.47330905979658
 33
0.0
  0
SOLID
  5
3AC
330
2A5
100
AcDbEntity
  8
DIMENSIONS
 62
     0
100
AcDbTrace
 10
16.54087765000861
 20
7.553309059796573
 30
0.0
 11
16.60087765000861
 21
7.553309059796573
 31
0.0
 12
16.57087765000861
 22
7.373309059796573
 32
0.0
 13
16.57087765000861
 23
7.373309059796573
 33
0.0
  0
MTEXT
  5
3AD
330
2A5
100
AcDbEntity
  8
DIMENSIONS
 62
     0
100
AcDbMText
 10
16.57087765000861
 20
14.65045191693943
 30
0.0
 40
0.18
 41
0.0
 71
     5
 72
     1
  1
\A1;14 1/8"
 73
     1
 44
1.0
  0
MTEXT
  5
3AE
330
2A5
100
AcDbEntity
  8
DIMENSIONS
 62
     0
100
AcDbMText
 10
16.57087765000861
 20
14.19616620265372
 30
0.0
 40
0.18
 41
0.0
 71
     5
 72
     1
  1
\A1;[360mm]
 73
     1
 44
1.0
  0
POINT
  5
3AF
330
2A5
100
AcDbEntity
  8
Defpoints
 62
     0
100
AcDbPoint
 10
13.95943820224719
 20
21.47330905979658
 30
0.0
  0
POINT
  5
3B0
330
2A5
100
AcDbEntity
  8
Defpoints
 62
     0
100
AcDbPoint
 10
13.95943820224719
 20
7.373309059796574
 30
0.0
  0
POINT
  5
3B1
330
2A5
100
AcDbEntity
  8
Defpoints
 62
     0
100
AcDbPoint
 10
16.57087765000861
 20
7.373309059796573
 30
0.0
  0
ENDBLK
  5
2B2
330
2A5
100
AcDbEntity
  8
0
100
AcDbBlockEnd
  0
BLOCK
  5
2C0
330
2B4
100
AcDbEntity
  8
0
100
AcDbBlockBegin
  2
*D6
 70
     1
 10
0.0
 20
0.0
 30
0.0
  3
*D6
  1

  0
LINE
  5
39C
330
2B4
100
AcDbEntity
  8
DIMENSIONS
 62
     0
370
    -2
100
AcDbLine
 10
22.33193023183417
 20
7.289309072997802
 30
0.0
 11
22.33193023183417
 21
4.998068746512792
 31
0.0
  0
LINE
  5
39D
330
2B4
100
AcDbEntity
  8
DIMENSIONS
 62
     0
370
    -2
100
AcDbLine
 10
26.84593010072249
 20
7.229309019456875
 30
0.0
 11
26.84593010072249
 21
4.998068746512792
 31
0.0
  0
LINE
  5
39E
330
2B4
100
AcDbEntity
  8
DIMENSIONS
 62
     0
370
    -2
100
AcDbLine
 10
22.51193023183417
 20
5.178068746512792
 30
0.0
 11
23.90321588056405
 21
5.178068746512792
 31
0.0
  0
LINE
  5
39F
330
2B4
100
AcDbEntity
  8
DIMENSIONS
 62
     0
370
    -2
100
AcDbLine
 10
26.66593010072249
 20
5.178068746512792
 30
0.0
 11
25.27464445199262
 21
5.178068746512792
 31
0.0
  0
SOLID
  5
3A0
330
2B4
100
AcDbEntity
  8
DIMENSIONS
 62
     0
100
AcDbTrace
 10
22.51193023183417
 20
5.208068746512792
 30
0.0
 11
22.51193023183417
 21
5.148068746512792
 31
0.0
 12
22.33193023183417
 22
5.178068746512792
 32
0.0
 13
22.33193023183417
 23
5.178068746512792
 33
0.0
  0
SOLID
  5
3A1
330
2B4
100
AcDbEntity
  8
DIMENSIONS
 62
     0
100
AcDbTrace
 10
26.66593010072249
 20
5.208068746512792
 30
0.0
 11
26.66593010072249
 21
5.148068746512792
 31
0.0
 12
26.84593010072249
 22
5.178068746512792
 32
0.0
 13
26.84593010072249
 23
5.178068746512792
 33
0.0
  0
MTEXT
  5
3A2
330
2B4
100
AcDbEntity
  8
DIMENSIONS
 62
     0
100
AcDbMText
 10
24.58893016627833
 20
5.405211603655649
 30
0.0
 40
0.18
 41
0.0
 71
     5
 72
     1
  1
\A1;4 1/2"
 73
     1
 44
1.0
  0
MTEXT
  5
3A3
330
2B4
100
AcDbEntity
  8
DIMENSIONS
 62
     0
100
AcDbMText
 10
24.58893016627833
 20
4.950925889369935
 30
0.0
 40
0.18
 41
0.0
 71
     5
 72
     1
  1
\A1;[115mm]
 73
     1
 44
1.0
  0
POINT
  5
3A4
330
2B4
100
AcDbEntity
  8
Defpoints
 62
     0
100
AcDbPoint
 10
22.33193023183417
 20
7.469309072997802
 30
0.0
  0
POINT
  5
3A5
330
2B4
100
AcDbEntity
  8
Defpoints
 62
     0
100
AcDbPoint
 10
26.84593010072249
 20
7.409309019456875
 30
0.0
  0
POINT
  5
3A6
330
2B4
100
AcDbEntity
  8
Defpoints
 62
     0
100
AcDbPoint
 10
26.84593010072249
 20
5.178068746512792
 30
0.0
  0
ENDBLK
  5
2C1
330
2B4
100
AcDbEntity
  8
0
100
AcDbBlockEnd
  0
BLOCK
  5
2DE
330
2D2
100
AcDbEntity
  8
0
100
AcDbBlockBegin
  2
*D7
 70
     1
 10
0.0
 20
0.0
 30
0.0
  3
*D7
  1

  0
LINE
  5
391
330
2D2
100
AcDbEntity
  8
DIMENSIONS
 62
     0
370
    -2
100
AcDbLine
 10
26.84593010072249
 20
21.61730910013622
 30
0.0
 11
26.84593010072249
 21
23.27859114102892
 31
0.0
  0
LINE
  5
392
330
2D2
100
AcDbEntity
  8
DIMENSIONS
 62
     0
370
    -2
100
AcDbLine
 10
22.33193023183417
 20
21.55730904659529
 30
0.0
 11
22.33193023183417
 21
23.27859114102892
 31
0.0
  0
LINE
  5
393
330
2D2
100
AcDbEntity
  8
DIMENSIONS
 62
     0
370
    -2
100
AcDbLine
 10
26.66593010072249
 20
23.09859114102892
 30
0.0
 11
25.27464445199262
 21
23.09859114102892
 31
0.0
  0
LINE
  5
394
330
2D2
100
AcDbEntity
  8
DIMENSIONS
 62
     0
370
    -2
100
AcDbLine
 10
22.51193023183417
 20
23.09859114102892
 30
0.0
 11
23.90321588056405
 21
23.09859114102892
 31
0.0
  0
SOLID
  5
395
330
2D2
100
AcDbEntity
  8
DIMENSIONS
 62
     0
100
AcDbTrace
 10
26.66593010072249
 20
23.12859114102892
 30
0.0
 11
26.66593010072249
 21
23.06859114102892
 31
0.0
 12
26.84593010072249
 22
23.09859114102892
 32
0.0
 13
26.84593010072249
 23
23.09859114102892
 33
0.0
  0
SOLID
  5
396
330
2D2
100
AcDbEntity
  8
DIMENSIONS
 62
     0
100
AcDbTrace
 10
22.51193023183417
 20
23.12859114102892
 30
0.0
 11
22.51193023183417
 21
23.06859114102892
 31
0.0
 12
22.33193023183417
 22
23.09859114102892
 32
0.0
 13
22.33193023183417
 23
23.09859114102892
 33
0.0
  0
MTEXT
  5
397
330
2D2
100
AcDbEntity
  8
DIMENSIONS
 62
     0
100
AcDbMText
 10
24.58893016627833
 20
23.32573399817178
 30
0.0
 40
0.18
 41
0.0
 71
     5
 72
     1
  1
\A1;4 1/2"
 73
     1
 44
1.0
  0
MTEXT
  5
398
330
2D2
100
AcDbEntity
  8
DIMENSIONS
 62
     0
100
AcDbMText
 10
24.58893016627833
 20
22.87144828388606
 30
0.0
 40
0.18
 41
0.0
 71
     5
 72
     1
  1
\A1;[115mm]
 73
     1
 44
1.0
  0
POINT
  5
399
330
2D2
100
AcDbEntity
  8
Defpoints
 62
     0
100
AcDbPoint
 10
26.84593010072249
 20
21.43730910013622
 30
0.0
  0
POINT
  5
39A
330
2D2
100
AcDbEntity
  8
Defpoints
 62
     0
100
AcDbPoint
 10
22.33193023183417
 20
21.37730904659529
 30
0.0
  0
POINT
  5
39B
330
2D2
100
AcDbEntity
  8
Defpoints
 62
     0
100
AcDbPoint
 10
22.33193023183417
 20
23.09859114102892
 30
0.0
  0
ENDBLK
  5
2DF
330
2D2
100
AcDbEntity
  8
0
100
AcDbBlockEnd
  0
BLOCK
  5
2ED
330
2E1
100
AcDbEntity
  8
0
100
AcDbBlockBegin
  2
*D8
 70
     1
 10
0.0
 20
0.0
 30
0.0
  3
*D8
  1

  0
LINE
  5
387
330
2E1
100
AcDbEntity
  8
DIMENSIONS
 62
     0
370
    -2
100
AcDbLine
 10
22.33193023183417
 20
21.55730904659529
 30
0.0
 11
22.33193023183417
 21
23.27859114102892
 31
0.0
  0
LINE
  5
388
330
2E1
100
AcDbEntity
  8
DIMENSIONS
 62
     0
370
    -2
100
AcDbLine
 10
21.92917091121088
 20
21.57330902176221
 30
0.0
 11
21.92917091121088
 21
23.27859114102892
 31
0.0
  0
LINE
  5
389
330
2E1
100
AcDbEntity
  8
DIMENSIONS
 62
     0
370
    -2
100
AcDbLine
 10
22.51193023183417
 20
23.09859114102892
 30
0.0
 11
22.69193023183417
 21
23.09859114102892
 31
0.0
  0
LINE
  5
38A
330
2E1
100
AcDbEntity
  8
DIMENSIONS
 62
     0
370
    -2
100
AcDbLine
 10
21.74917091121088
 20
23.09859114102892
 30
0.0
 11
21.56917091121088
 21
23.09859114102892
 31
0.0
  0
SOLID
  5
38B
330
2E1
100
AcDbEntity
  8
DIMENSIONS
 62
     0
100
AcDbTrace
 10
22.51193023183417
 20
23.12859114102892
 30
0.0
 11
22.51193023183417
 21
23.06859114102892
 31
0.0
 12
22.33193023183417
 22
23.09859114102892
 32
0.0
 13
22.33193023183417
 23
23.09859114102892
 33
0.0
  0
SOLID
  5
38C
330
2E1
100
AcDbEntity
  8
DIMENSIONS
 62
     0
100
AcDbTrace
 10
21.74917091121088
 20
23.12859114102892
 30
0.0
 11
21.74917091121088
 21
23.06859114102892
 31
0.0
 12
21.92917091121088
 22
23.09859114102892
 32
0.0
 13
21.92917091121088
 23
23.09859114102892
 33
0.0
  0
MTEXT
  5
38D
330
2E1
100
AcDbEntity
  8
DIMENSIONS
 62
     0
100
AcDbMText
 10
20.87917091121088
 20
23.09859114102892
 30
0.0
 40
0.18
 41
0.0
 71
     5
 72
     1
  1
\A1;3/8"\P [10mm]
 73
     1
 44
1.0
  0
POINT
  5
38E
330
2E1
100
AcDbEntity
  8
Defpoints
 62
     0
100
AcDbPoint
 10
22.33193023183417
 20
21.37730904659529
 30
0.0
  0
POINT
  5
38F
330
2E1
100
AcDbEntity
  8
Defpoints
 62
     0
100
AcDbPoint
 10
21.92917091121088
 20
21.39330902176221
 30
0.0
  0
POINT
  5
390
330
2E1
100
AcDbEntity
  8
Defpoints
 62
     0
100
AcDbPoint
 10
21.92917091121088
 20
23.09859114102892
 30
0.0
  0
ENDBLK
  5
2EE
330
2E1
100
AcDbEntity
  8
0
100
AcDbBlockEnd
  0
BLOCK
  5
310
330
304
100
AcDbEntity
  8
0
100
AcDbBlockBegin
  2
*D9
 70
     1
 10
0.0
 20
0.0
 30
0.0
  3
*D9
  1

  0
LINE
  5
37C
330
304
100
AcDbEntity
  8
DIMENSIONS
 62
     0
370
    -2
100
AcDbLine
 10
8.015438202247192
 20
11.67830905979655
 30
0.0
 11
8.015438202247192
 21
5.159627476259693
 31
0.0
  0
LINE
  5
37D
330
304
100
AcDbEntity
  8
DIMENSIONS
 62
     0
370
    -2
100
AcDbLine
 10
11.91543820224719
 20
11.67830905979655
 30
0.0
 11
11.91543820224719
 21
5.159627476259693
 31
0.0
  0
LINE
  5
37E
330
304
100
AcDbEntity
  8
DIMENSIONS
 62
     0
370
    -2
100
AcDbLine
 10
8.195438202247192
 20
5.339627476259693
 30
0.0
 11
9.279723916532907
 21
5.339627476259693
 31
0.0
  0
LINE
  5
37F
330
304
100
AcDbEntity
  8
DIMENSIONS
 62
     0
370
    -2
100
AcDbLine
 10
11.73543820224719
 20
5.339627476259693
 30
0.0
 11
10.65115248796147
 21
5.339627476259693
 31
0.0
  0
SOLID
  5
380
330
304
100
AcDbEntity
  8
DIMENSIONS
 62
     0
100
AcDbTrace
 10
8.195438202247192
 20
5.369627476259693
 30
0.0
 11
8.195438202247192
 21
5.309627476259692
 31
0.0
 12
8.015438202247192
 22
5.339627476259693
 32
0.0
 13
8.015438202247192
 23
5.339627476259693
 33
0.0
  0
SOLID
  5
381
330
304
100
AcDbEntity
  8
DIMENSIONS
 62
     0
100
AcDbTrace
 10
11.73543820224719
 20
5.369627476259693
 30
0.0
 11
11.73543820224719
 21
5.309627476259692
 31
0.0
 12
11.91543820224719
 22
5.339627476259693
 32
0.0
 13
11.91543820224719
 23
5.339627476259693
 33
0.0
  0
MTEXT
  5
382
330
304
100
AcDbEntity
  8
DIMENSIONS
 62
     0
100
AcDbMText
 10
9.965438202247192
 20
5.56677033340255
 30
0.0
 40
0.18
 41
0.0
 71
     5
 72
     1
  1
\A1;3 7/8"
 73
     1
 44
1.0
  0
MTEXT
  5
383
330
304
100
AcDbEntity
  8
DIMENSIONS
 62
     0
100
AcDbMText
 10
9.965438202247192
 20
5.112484619116836
 30
0.0
 40
0.18
 41
0.0
 71
     5
 72
     1
  1
\A1;[100mm]
 73
     1
 44
1.0
  0
POINT
  5
384
330
304
100
AcDbEntity
  8
Defpoints
 62
     0
100
AcDbPoint
 10
8.015438202247192
 20
11.85830905979655
 30
0.0
  0
POINT
  5
385
330
304
100
AcDbEntity
  8
Defpoints
 62
     0
100
AcDbPoint
 10
11.91543820224719
 20
11.85830905979655
 30
0.0
  0
POINT
  5
386
330
304
100
AcDbEntity
  8
Defpoints
 62
     0
100
AcDbPoint
 10
11.91543820224719
 20
5.339627476259693
 30
0.0
  0
ENDBLK
  5
311
330
304
100
AcDbEntity
  8
0
100
AcDbBlockEnd
  0
BLOCK
  5
31F
330
313
100
AcDbEntity
  8
0
100
AcDbBlockBegin
  2
*D10
 70
     1
 10
0.0
 20
0.0
 30
0.0
  3
*D10
  1

  0
LINE
  5
371
330
313
100
AcDbEntity
  8
DIMENSIONS
 62
     0
370
    -2
100
AcDbLine
 10
11.91543820224719
 20
11.67830905979655
 30
0.0
 11
11.91543820224719
 21
5.159627476259693
 31
0.0
  0
LINE
  5
372
330
313
100
AcDbEntity
  8
DIMENSIONS
 62
     0
370
    -2
100
AcDbLine
 10
13.99543820224719
 20
7.229309059796576
 30
0.0
 11
13.99543820224719
 21
5.159627476259693
 31
0.0
  0
LINE
  5
373
330
313
100
AcDbEntity
  8
DIMENSIONS
 62
     0
370
    -2
100
AcDbLine
 10
12.09543820224719
 20
5.339627476259693
 30
0.0
 11
12.2997239165329
 21
5.339627476259693
 31
0.0
  0
LINE
  5
374
330
313
100
AcDbEntity
  8
DIMENSIONS
 62
     0
370
    -2
100
AcDbLine
 10
13.81543820224719
 20
5.339627476259693
 30
0.0
 11
13.61115248796147
 21
5.339627476259693
 31
0.0
  0
SOLID
  5
375
330
313
100
AcDbEntity
  8
DIMENSIONS
 62
     0
100
AcDbTrace
 10
12.09543820224719
 20
5.369627476259693
 30
0.0
 11
12.09543820224719
 21
5.309627476259692
 31
0.0
 12
11.91543820224719
 22
5.339627476259693
 32
0.0
 13
11.91543820224719
 23
5.339627476259693
 33
0.0
  0
SOLID
  5
376
330
313
100
AcDbEntity
  8
DIMENSIONS
 62
     0
100
AcDbTrace
 10
13.81543820224719
 20
5.369627476259693
 30
0.0
 11
13.81543820224719
 21
5.309627476259692
 31
0.0
 12
13.99543820224719
 22
5.339627476259693
 32
0.0
 13
13.99543820224719
 23
5.339627476259693
 33
0.0
  0
MTEXT
  5
377
330
313
100
AcDbEntity
  8
DIMENSIONS
 62
     0
100
AcDbMText
 10
12.95543820224719
 20
5.56677033340255
 30
0.0
 40
0.18
 41
0.0
 71
     5
 72
     1
  1
\A1;2 1/16"
 73
     1
 44
1.0
  0
MTEXT
  5
378
330
313
100
AcDbEntity
  8
DIMENSIONS
 62
     0
100
AcDbMText
 10
12.95543820224719
 20
5.112484619116836
 30
0.0
 40
0.18
 41
0.0
 71
     5
 72
     1
  1
\A1;[55mm]
 73
     1
 44
1.0
  0
POINT
  5
379
330
313
100
AcDbEntity
  8
Defpoints
 62
     0
100
AcDbPoint
 10
11.91543820224719
 20
11.85830905979655
 30
0.0
  0
POINT
  5
37A
330
313
100
AcDbEntity
  8
Defpoints
 62
     0
100
AcDbPoint
 10
13.99543820224719
 20
7.409309059796576
 30
0.0
  0
POINT
  5
37B
330
313
100
AcDbEntity
  8
Defpoints
 62
     0
100
AcDbPoint
 10
13.99543820224719
 20
5.339627476259693
 30
0.0
  0
ENDBLK
  5
320
330
313
100
AcDbEntity
  8
0
100
AcDbBlockEnd
  0
BLOCK
  5
339
330
32D
100
AcDbEntity
  8
0
100
AcDbBlockBegin
  2
*D11
 70
     1
 10
0.0
 20
0.0
 30
0.0
  3
*D11
  1

  0
LINE
  5
366
330
32D
100
AcDbEntity
  8
DIMENSIONS
 62
     0
370
    -2
100
AcDbLine
 10
27.1769359890318
 20
11.94830905979655
 30
0.0
 11
29.71819678230795
 21
11.94830905979655
 31
0.0
  0
LINE
  5
367
330
32D
100
AcDbEntity
  8
DIMENSIONS
 62
     0
370
    -2
100
AcDbLine
 10
27.1839205068618
 20
19.39830905979655
 30
0.0
 11
29.71819678230795
 21
19.39830905979655
 31
0.0
  0
LINE
  5
368
330
32D
100
AcDbEntity
  8
DIMENSIONS
 62
     0
370
    -2
100
AcDbLine
 10
29.53819678230795
 20
12.12830905979655
 30
0.0
 11
29.53819678230795
 21
15.21902334551084
 31
0.0
  0
LINE
  5
369
330
32D
100
AcDbEntity
  8
DIMENSIONS
 62
     0
370
    -2
100
AcDbLine
 10
29.53819678230795
 20
19.21830905979655
 30
0.0
 11
29.53819678230795
 21
16.12759477408226
 31
0.0
  0
SOLID
  5
36A
330
32D
100
AcDbEntity
  8
DIMENSIONS
 62
     0
100
AcDbTrace
 10
29.50819678230795
 20
12.12830905979655
 30
0.0
 11
29.56819678230795
 21
12.12830905979655
 31
0.0
 12
29.53819678230795
 22
11.94830905979655
 32
0.0
 13
29.53819678230795
 23
11.94830905979655
 33
0.0
  0
SOLID
  5
36B
330
32D
100
AcDbEntity
  8
DIMENSIONS
 62
     0
100
AcDbTrace
 10
29.50819678230795
 20
19.21830905979655
 30
0.0
 11
29.56819678230795
 21
19.21830905979655
 31
0.0
 12
29.53819678230795
 22
19.39830905979655
 32
0.0
 13
29.53819678230795
 23
19.39830905979655
 33
0.0
  0
MTEXT
  5
36C
330
32D
100
AcDbEntity
  8
DIMENSIONS
 62
     0
100
AcDbMText
 10
29.53819678230795
 20
15.90045191693941
 30
0.0
 40
0.18
 41
0.0
 71
     5
 72
     1
  1
\A1;7 7/16"
 73
     1
 44
1.0
  0
MTEXT
  5
36D
330
32D
100
AcDbEntity
  8
DIMENSIONS
 62
     0
100
AcDbMText
 10
29.53819678230795
 20
15.4461662026537
 30
0.0
 40
0.18
 41
0.0
 71
     5
 72
     1
  1
\A1;[190mm]
 73
     1
 44
1.0
  0
POINT
  5
36E
330
32D
100
AcDbEntity
  8
Defpoints
 62
     0
100
AcDbPoint
 10
26.9969359890318
 20
11.94830905979655
 30
0.0
  0
POINT
  5
36F
330
32D
100
AcDbEntity
  8
Defpoints
 62
     0
100
AcDbPoint
 10
27.0039205068618
 20
19.39830905979655
 30
0.0
  0
POINT
  5
370
330
32D
100
AcDbEntity
  8
Defpoints
 62
     0
100
AcDbPoint
 10
29.53819678230795
 20
19.39830905979655
 30
0.0
  0
ENDBLK
  5
33A
330
32D
100
AcDbEntity
  8
0
100
AcDbBlockEnd
  0
BLOCK
  5
348
330
33C
100
AcDbEntity
  8
0
100
AcDbBlockBegin
  2
*D12
 70
     1
 10
0.0
 20
0.0
 30
0.0
  3
*D12
  1

  0
LINE
  5
35B
330
33C
100
AcDbEntity
  8
DIMENSIONS
 62
     0
370
    -2
100
AcDbLine
 10
27.1769359890318
 20
11.94830905979655
 30
0.0
 11
29.71819678230795
 21
11.94830905979655
 31
0.0
  0
LINE
  5
35C
330
33C
100
AcDbEntity
  8
DIMENSIONS
 62
     0
370
    -2
100
AcDbLine
 10
26.98993010159755
 20
7.373309221996274
 30
0.0
 11
29.71819678230795
 21
7.373309221996274
 31
0.0
  0
LINE
  5
35D
330
33C
100
AcDbEntity
  8
DIMENSIONS
 62
     0
370
    -2
100
AcDbLine
 10
29.53819678230795
 20
11.76830905979655
 30
0.0
 11
29.53819678230795
 21
10.11509485518212
 31
0.0
  0
LINE
  5
35E
330
33C
100
AcDbEntity
  8
DIMENSIONS
 62
     0
370
    -2
100
AcDbLine
 10
29.53819678230795
 20
7.553309221996274
 30
0.0
 11
29.53819678230795
 21
9.206523426610697
 31
0.0
  0
SOLID
  5
35F
330
33C
100
AcDbEntity
  8
DIMENSIONS
 62
     0
100
AcDbTrace
 10
29.50819678230795
 20
11.76830905979655
 30
0.0
 11
29.56819678230795
 21
11.76830905979655
 31
0.0
 12
29.53819678230795
 22
11.94830905979655
 32
0.0
 13
29.53819678230795
 23
11.94830905979655
 33
0.0
  0
SOLID
  5
360
330
33C
100
AcDbEntity
  8
DIMENSIONS
 62
     0
100
AcDbTrace
 10
29.50819678230795
 20
7.553309221996274
 30
0.0
 11
29.56819678230795
 21
7.553309221996274
 31
0.0
 12
29.53819678230795
 22
7.373309221996274
 32
0.0
 13
29.53819678230795
 23
7.373309221996274
 33
0.0
  0
MTEXT
  5
361
330
33C
100
AcDbEntity
  8
DIMENSIONS
 62
     0
100
AcDbMText
 10
29.53819678230795
 20
9.887951998039273
 30
0.0
 40
0.18
 41
0.0
 71
     5
 72
     1
  1
\A1;4 9/16"
 73
     1
 44
1.0
  0
MTEXT
  5
362
330
33C
100
AcDbEntity
  8
DIMENSIONS
 62
     0
100
AcDbMText
 10
29.53819678230795
 20
9.433666283753559
 30
0.0
 40
0.18
 41
0.0
 71
     5
 72
     1
  1
\A1;[115mm]
 73
     1
 44
1.0
  0
POINT
  5
363
330
33C
100
AcDbEntity
  8
Defpoints
 62
     0
100
AcDbPoint
 10
26.9969359890318
 20
11.94830905979655
 30
0.0
  0
POINT
  5
364
330
33C
100
AcDbEntity
  8
Defpoints
 62
     0
100
AcDbPoint
 10
26.80993010159755
 20
7.373309221996274
 30
0.0
  0
POINT
  5
365
330
33C
100
AcDbEntity
  8
Defpoints
 62
     0
100
AcDbPoint
 10
29.53819678230795
 20
7.373309221996274
 30
0.0
  0
ENDBLK
  5
349
330
33C
100
AcDbEntity
  8
0
100
AcDbBlockEnd
  0
ENDSEC
  0
SECTION
  2
ENTITIES
  0
LINE
  5
167
330
1F
100
AcDbEntity
  8
Object
  6
Continuous
370
    15
100
AcDbLine
 10
13.98780544218426
 20
7.632309003342031
 30
0.0
 11
13.99896547326263
 21
7.695599632203286
 31
0.0
  0
LINE
  5
168
330
1F
100
AcDbEntity
  8
Object
  6
Continuous
370
    15
100
AcDbLine
 10
13.99896547326263
 20
7.831018334501548
 30
0.0
 11
13.98780544218426
 21
7.894308963362803
 31
0.0
  0
LINE
  5
169
330
1F
100
AcDbEntity
  8
Object
  6
Continuous
370
    15
100
AcDbLine
 10
13.98780544218426
 20
7.894308963362803
 30
0.0
 11
13.96543815390641
 21
7.894308963362803
 31
0.0
  0
LINE
  5
16A
330
1F
100
AcDbEntity
  8
Object
  6
Continuous
370
    15
100
AcDbLine
 10
13.96543815390641
 20
7.632309003342031
 30
0.0
 11
13.98780544218426
 21
7.632309003342031
 31
0.0
  0
ARC
  5
16B
330
1F
100
AcDbEntity
  8
Object
  6
Continuous
370
    15
100
AcDbCircle
 10
13.9694211039983
 20
7.700809059796535
 30
0.0
 40
0.0300000000000017
100
AcDbArc
 50
350.0000000000008
 51
0.0
  0
ARC
  5
16C
330
1F
100
AcDbEntity
  8
Object
  6
Continuous
370
    15
100
AcDbCircle
 10
13.9694211039983
 20
7.825809059796535
 30
0.0
 40
0.0300000000000017
100
AcDbArc
 50
0.0
 51
10.00000000000005
  0
LINE
  5
16D
330
1F
100
AcDbEntity
  8
Object
  6
Continuous
370
    15
100
AcDbLine
 10
13.99942101466684
 20
7.700809172022237
 30
0.0
 11
13.99942101466684
 21
7.825808794682597
 31
0.0
  0
LINE
  5
16E
330
1F
100
AcDbEntity
  8
Object
  6
Continuous
370
    15
100
AcDbLine
 10
5.943070962310121
 20
7.632309003342031
 30
0.0
 11
5.965438250587965
 21
7.632309003342031
 31
0.0
  0
LINE
  5
16F
330
1F
100
AcDbEntity
  8
Object
  6
Continuous
370
    15
100
AcDbLine
 10
5.965438250587965
 20
7.894308963362803
 30
0.0
 11
5.943070962310121
 21
7.894308963362803
 31
0.0
  0
LINE
  5
170
330
1F
100
AcDbEntity
  8
Object
  6
Continuous
370
    15
100
AcDbLine
 10
5.943070962310121
 20
7.894308963362803
 30
0.0
 11
5.931910931231753
 21
7.831018334501548
 31
0.0
  0
LINE
  5
171
330
1F
100
AcDbEntity
  8
Object
  6
Continuous
370
    15
100
AcDbLine
 10
5.931910931231753
 20
7.695599632203286
 30
0.0
 11
5.943070962310121
 21
7.632309003342031
 31
0.0
  0
ARC
  5
172
330
1F
100
AcDbEntity
  8
Object
  6
Continuous
370
    15
100
AcDbCircle
 10
5.96145530049608
 20
7.82580905979653
 30
0.0
 40
0.0300000000000011
100
AcDbArc
 50
169.9999999999996
 51
180.0
  0
ARC
  5
173
330
1F
100
AcDbEntity
  8
Object
  6
Continuous
370
    15
100
AcDbCircle
 10
5.96145530049608
 20
7.700809059796531
 30
0.0
 40
0.0300000000000011
100
AcDbArc
 50
180.0
 51
190.0000000000028
  0
LINE
  5
174
330
1F
100
AcDbEntity
  8
Object
  6
Continuous
370
    15
100
AcDbLine
 10
5.93145538982754
 20
7.825808794682597
 30
0.0
 11
5.93145538982754
 21
7.700809172022237
 31
0.0
  0
LINE
  5
175
330
1F
100
AcDbEntity
  8
Object
  6
Continuous
370
    15
100
AcDbLine
 10
13.98780544218426
 20
7.884382678032098
 30
0.0
 11
13.98780544218426
 21
7.894308963362803
 31
0.0
  0
LINE
  5
176
330
1F
100
AcDbEntity
  8
Object
  6
Continuous
370
    15
100
AcDbLine
 10
13.98780544218426
 20
7.632309003342031
 30
0.0
 11
13.98780544218426
 21
7.884382678032098
 31
0.0
  0
LINE
  5
177
330
1F
100
AcDbEntity
  8
Object
  6
Continuous
370
    15
100
AcDbLine
 10
5.943070962310121
 20
7.894308963362803
 30
0.0
 11
5.943070962310121
 21
7.632309003342031
 31
0.0
  0
LINE
  5
178
330
1F
100
AcDbEntity
  8
Object
  6
Continuous
370
    15
100
AcDbLine
 10
9.964938202235472
 20
7.391309120726575
 30
0.0
 11
9.965938202258907
 21
7.391309120726575
 31
0.0
  0
LINE
  5
179
330
1F
100
AcDbEntity
  8
Object
  6
Continuous
370
    15
100
AcDbLine
 10
6.006027781694239
 20
21.40625484554429
 30
0.0
 11
5.97497382043225
 21
21.43730910013622
 31
0.0
  0
LINE
  5
17A
330
1F
100
AcDbEntity
  8
Object
  6
Continuous
370
    15
100
AcDbLine
 10
13.95590258406213
 20
21.43730910013622
 30
0.0
 11
13.92873113794899
 21
21.41013736069314
 31
0.0
  0
LINE
  5
17B
330
1F
100
AcDbEntity
  8
Object
  6
Continuous
370
    15
100
AcDbLine
 10
6.002492275870036
 20
7.443898486543066
 30
0.0
 11
5.971438314608047
 21
7.412844818611021
 31
0.0
  0
LINE
  5
17C
330
1F
100
AcDbEntity
  8
Object
  6
Continuous
370
    15
100
AcDbLine
 10
5.971438314608047
 20
21.43377330098207
 30
0.0
 11
5.998609760721183
 21
21.40660214819888
 31
0.0
  0
LINE
  5
17D
330
1F
100
AcDbEntity
  8
Object
  6
Continuous
370
    15
100
AcDbLine
 10
13.92838412862434
 20
21.40271963305003
 30
0.0
 11
13.95943808988633
 21
21.43377330098207
 31
0.0
  0
LINE
  5
17E
330
1F
100
AcDbEntity
  8
Object
  6
Continuous
370
    15
100
AcDbLine
 10
13.95943808988633
 20
7.412844818611021
 30
0.0
 11
13.9322666437732
 21
7.440015971394212
 31
0.0
  0
SPLINE
  5
17F
330
1F
100
AcDbEntity
  8
Object
  6
Continuous
370
    15
100
AcDbSpline
210
0.0
220
0.0
230
1.0
 70
     8
 71
     3
 72
    11
 73
     7
 74
     0
 42
0.0000000001
 43
0.0000000001
 40
0.0
 40
0.0
 40
0.0
 40
0.0
 40
0.2499996860151389
 40
0.4999998363765388
 40
0.7499999867379385
 40
1.0
 40
1.0
 40
1.0
 40
1.0
 10
13.95943808988633
 20
21.47330889759683
 30
0.0
 10
13.95914349044747
 20
21.47276777226961
 30
0.0
 10
13.95855429102256
 20
21.47168552061009
 30
0.0
 10
13.95767046276968
 20
21.46336065392268
 30
0.0
 10
13.95678675934828
 20
21.45146101713498
 30
0.0
 10
13.95619730910364
 20
21.44202640494015
 30
0.0
 10
13.95590258406213
 20
21.43730910013622
 30
0.0
  0
SPLINE
  5
180
330
1F
100
AcDbEntity
  8
Object
  6
Continuous
370
    15
100
AcDbSpline
210
0.0
220
0.0
230
1.0
 70
     8
 71
     3
 72
    11
 73
     7
 74
     0
 42
0.0000000001
 43
0.0000000001
 40
0.0
 40
0.0
 40
0.0
 40
0.0
 40
0.2500000132620614
 40
0.5000001636234613
 40
0.7500003139848611
 40
1.0
 40
1.0
 40
1.0
 40
1.0
 10
5.974973820432249
 20
21.43730910013622
 30
0.0
 10
5.974679095390742
 20
21.44202640494015
 30
0.0
 10
5.974089645146102
 20
21.45146101713498
 30
0.0
 10
5.9732059417247
 20
21.46336065392268
 30
0.0
 10
5.972322113471819
 20
21.47168552061009
 30
0.0
 10
5.97173291404691
 20
21.47276777226961
 30
0.0
 10
5.971438314608047
 20
21.47330889759683
 30
0.0
  0
LINE
  5
181
330
1F
100
AcDbEntity
  8
Object
  6
Continuous
370
    15
100
AcDbLine
 10
5.971438314608047
 20
21.47330889759683
 30
0.0
 11
8.965438214332385
 21
21.47330889759683
 31
0.0
  0
LINE
  5
182
330
1F
100
AcDbEntity
  8
Object
  6
Continuous
370
    15
100
AcDbLine
 10
10.965438190162
 20
21.47330889759683
 30
0.0
 11
13.95943808988633
 21
21.47330889759683
 31
0.0
  0
LINE
  5
183
330
1F
100
AcDbEntity
  8
Object
  6
Continuous
370
    15
100
AcDbLine
 10
5.971438314608047
 20
21.47330889759683
 30
0.0
 11
5.971438314608047
 21
21.45530899886652
 31
0.0
  0
SPLINE
  5
184
330
1F
100
AcDbEntity
  8
Object
  6
Continuous
370
    15
100
AcDbSpline
210
0.0
220
0.0
230
1.0
 70
     8
 71
     3
 72
    11
 73
     7
 74
     0
 42
0.0000000001
 43
0.0000000001
 40
0.0
 40
0.0
 40
0.0
 40
0.0
 40
0.249989408023329
 40
0.5000051553288922
 40
0.7500038096338363
 40
0.9999999999999998
 40
0.9999999999999998
 40
0.9999999999999998
 40
0.9999999999999998
 10
5.974973820432249
 20
21.43730910013622
 30
0.0
 10
5.974679085725798
 20
21.43966762535254
 30
0.0
 10
5.974089585259181
 20
21.44438492428315
 30
0.0
 10
5.973205985244577
 20
21.4503351116371
 30
0.0
 10
5.972322111751537
 20
21.45449765639662
 30
0.0
 10
5.971732912688034
 20
21.45503855226505
 30
0.0
 10
5.971438314608047
 20
21.45530899886652
 30
0.0
  0
LINE
  5
185
330
1F
100
AcDbEntity
  8
Object
  6
Continuous
370
    15
100
AcDbLine
 10
13.95943808988633
 20
21.45530899886652
 30
0.0
 11
13.95943808988633
 21
21.47330889759683
 31
0.0
  0
SPLINE
  5
186
330
1F
100
AcDbEntity
  8
Object
  6
Continuous
370
    15
100
AcDbSpline
210
0.0
220
0.0
230
1.0
 70
     8
 71
     3
 72
    11
 73
     7
 74
     0
 42
0.0000000001
 43
0.0000000001
 40
0.0
 40
0.0
 40
0.0
 40
0.0
 40
0.2499961903661636
 40
0.4999948446711079
 40
0.7500105919766709
 40
0.9999999999999998
 40
0.9999999999999998
 40
0.9999999999999998
 40
0.9999999999999998
 10
13.95943808988633
 20
21.45530899886652
 30
0.0
 10
13.95914349180634
 20
21.45503855226505
 30
0.0
 10
13.95855429274284
 20
21.45449765639662
 30
0.0
 10
13.95767041924981
 20
21.45033511163711
 30
0.0
 10
13.9567868192352
 20
21.44438492428315
 30
0.0
 10
13.95619731876858
 20
21.43966762535254
 30
0.0
 10
13.95590258406213
 20
21.43730910013622
 30
0.0
  0
SPLINE
  5
187
330
1F
100
AcDbEntity
  8
Object
  6
Continuous
370
    15
100
AcDbSpline
210
0.0
220
0.0
230
1.0
 70
     8
 71
     3
 72
    11
 73
     7
 74
     0
 42
0.0000000001
 43
0.0000000001
 40
0.0
 40
0.0
 40
0.0
 40
0.0
 40
0.2499986563786698
 40
0.4999971227195598
 40
0.7499962434413624
 40
1.0
 40
1.0
 40
1.0
 40
1.0
 10
13.99543818067688
 20
7.409309019456875
 30
0.0
 10
13.99489705827235
 20
7.409603784605668
 30
0.0
 10
13.99381481387463
 20
7.410193314679188
 30
0.0
 10
13.98548991938117
 20
7.411076416491777
 30
0.0
 10
13.97359023029049
 20
7.411960784217784
 30
0.0
 10
13.96415549917947
 20
7.412550138658519
 30
0.0
 10
13.95943808988633
 20
7.412844818611021
 30
0.0
  0
LINE
  5
188
330
1F
100
AcDbEntity
  8
Object
  6
Continuous
370
    15
100
AcDbLine
 10
13.97743828194658
 20
7.409309019456875
 30
0.0
 11
13.99543818067688
 21
7.409309019456875
 31
0.0
  0
SPLINE
  5
189
330
1F
100
AcDbEntity
  8
Object
  6
Continuous
370
    15
100
AcDbSpline
210
0.0
220
0.0
230
1.0
 70
     8
 71
     3
 72
    11
 73
     7
 74
     0
 42
0.0000000001
 43
0.0000000001
 40
0.0
 40
0.0
 40
0.0
 40
0.0
 40
0.2499978970213091
 40
0.4999936660492793
 40
0.74999202197983
 40
1.0
 40
1.0
 40
1.0
 40
1.0
 10
13.97743828194658
 20
7.409309019456875
 30
0.0
 10
13.97716772493884
 20
7.409603783936653
 30
0.0
 10
13.97662661322634
 20
7.41019331038716
 30
0.0
 10
13.97246412683537
 20
7.411076419951246
 30
0.0
 10
13.96651426992716
 20
7.411960794209715
 30
0.0
 10
13.96179684682721
 20
7.412550140030141
 30
0.0
 10
13.95943808988633
 20
7.412844818611021
 30
0.0
  0
LINE
  5
18A
330
1F
100
AcDbEntity
  8
Object
  6
Continuous
370
    15
100
AcDbLine
 10
13.99543818067688
 20
21.43730910013622
 30
0.0
 11
13.97743828194658
 21
21.43730910013622
 31
0.0
  0
SPLINE
  5
18B
330
1F
100
AcDbEntity
  8
Object
  6
Continuous
370
    15
100
AcDbSpline
210
0.0
220
0.0
230
1.0
 70
     8
 71
     3
 72
    11
 73
     7
 74
     0
 42
0.0000000001
 43
0.0000000001
 40
0.0
 40
0.0
 40
0.0
 40
0.0
 40
0.2500037565586378
 40
0.5000028772804403
 40
0.7500013436213303
 40
1.0
 40
1.0
 40
1.0
 40
1.0
 10
13.95943808988633
 20
21.43377330098207
 30
0.0
 10
13.96415549917947
 20
21.43406798093458
 30
0.0
 10
13.97359023029049
 20
21.43465733537532
 30
0.0
 10
13.98548991938117
 20
21.43554170310132
 30
0.0
 10
13.99381481387463
 20
21.43642480491391
 30
0.0
 10
13.99489705827235
 20
21.43701433498743
 30
0.0
 10
13.99543818067688
 20
21.43730910013622
 30
0.0
  0
SPLINE
  5
18C
330
1F
100
AcDbEntity
  8
Object
  6
Continuous
370
    15
100
AcDbSpline
210
0.0
220
0.0
230
1.0
 70
     8
 71
     3
 72
    11
 73
     7
 74
     0
 42
0.0000000001
 43
0.0000000001
 40
0.0
 40
0.0
 40
0.0
 40
0.0
 40
0.2500079780201702
 40
0.5000063339507208
 40
0.750002102978691
 40
1.0
 40
1.0
 40
1.0
 40
1.0
 10
13.95943808988633
 20
21.43377330098207
 30
0.0
 10
13.9617968468272
 20
21.43406797956295
 30
0.0
 10
13.96651426992716
 20
21.43465732538338
 30
0.0
 10
13.97246412683537
 20
21.43554169964185
 30
0.0
 10
13.97662661322634
 20
21.43642480920594
 30
0.0
 10
13.97716772493883
 20
21.43701433565644
 30
0.0
 10
13.97743828194658
 20
21.43730910013622
 30
0.0
  0
SPLINE
  5
18D
330
1F
100
AcDbEntity
  8
Object
  6
Continuous
370
    15
100
AcDbSpline
210
0.0
220
0.0
230
1.0
 70
     8
 71
     3
 72
    11
 73
     7
 74
     0
 42
0.0000000001
 43
0.0000000001
 40
0.0
 40
0.0
 40
0.0
 40
0.0
 40
0.2499986563786698
 40
0.4999971227195598
 40
0.7499962434413624
 40
1.0
 40
1.0
 40
1.0
 40
1.0
 10
5.935438223817501
 20
21.43730910013622
 30
0.0
 10
5.935979346222031
 20
21.43701433498743
 30
0.0
 10
5.937061590619753
 20
21.43642480491391
 30
0.0
 10
5.945386485113211
 20
21.43554170310132
 30
0.0
 10
5.957286174203887
 20
21.43465733537531
 30
0.0
 10
5.966720905314913
 20
21.43406798093458
 30
0.0
 10
5.971438314608047
 20
21.43377330098207
 30
0.0
  0
SPLINE
  5
18E
330
1F
100
AcDbEntity
  8
Object
  6
Continuous
370
    15
100
AcDbSpline
210
0.0
220
0.0
230
1.0
 70
     8
 71
     3
 72
    11
 73
     7
 74
     0
 42
0.0000000001
 43
0.0000000001
 40
0.0
 40
0.0
 40
0.0
 40
0.0
 40
0.2500037565586378
 40
0.5000028772804403
 40
0.7500013436213303
 40
1.0
 40
1.0
 40
1.0
 40
1.0
 10
5.971438314608047
 20
7.412844818611021
 30
0.0
 10
5.966720905314911
 20
7.412550138658517
 30
0.0
 10
5.957286174203887
 20
7.411960784217781
 30
0.0
 10
5.945386485113214
 20
7.411076416491781
 30
0.0
 10
5.937061590619752
 20
7.410193314679188
 30
0.0
 10
5.935979346222031
 20
7.409603784605668
 30
0.0
 10
5.935438223817501
 20
7.409309019456875
 30
0.0
  0
LINE
  5
18F
330
1F
100
AcDbEntity
  8
Object
  6
Continuous
370
    15
100
AcDbLine
 10
5.935438223817502
 20
7.409309019456875
 30
0.0
 11
5.935438223817502
 21
7.675596289950269
 31
0.0
  0
LINE
  5
190
330
1F
100
AcDbEntity
  8
Object
  6
Continuous
370
    15
100
AcDbLine
 10
5.935438223817502
 20
7.851021676754565
 30
0.0
 11
5.935438223817502
 21
21.43730910013622
 31
0.0
  0
LINE
  5
191
330
1F
100
AcDbEntity
  8
Object
  6
Continuous
370
    15
100
AcDbLine
 10
5.935438223817502
 20
7.409309019456875
 30
0.0
 11
5.953438122547801
 21
7.409309019456875
 31
0.0
  0
SPLINE
  5
192
330
1F
100
AcDbEntity
  8
Object
  6
Continuous
370
    15
100
AcDbSpline
210
0.0
220
0.0
230
1.0
 70
     8
 71
     3
 72
    11
 73
     7
 74
     0
 42
0.0000000001
 43
0.0000000001
 40
0.0
 40
0.0
 40
0.0
 40
0.0
 40
0.2500079780201702
 40
0.5000063339507208
 40
0.750002102978691
 40
1.0
 40
1.0
 40
1.0
 40
1.0
 10
5.971438314608047
 20
7.412844818611021
 30
0.0
 10
5.969079557667176
 20
7.412550140030141
 30
0.0
 10
5.964362134567219
 20
7.411960794209718
 30
0.0
 10
5.958412277659011
 20
7.411076419951244
 30
0.0
 10
5.954249791268042
 20
7.410193310387159
 30
0.0
 10
5.953708679555546
 20
7.409603783936653
 30
0.0
 10
5.953438122547802
 20
7.409309019456875
 30
0.0
  0
LINE
  5
193
330
1F
100
AcDbEntity
  8
Object
  6
Continuous
370
    15
100
AcDbLine
 10
9.965938202258907
 20
7.373309221996274
 30
0.0
 11
9.965938202258907
 21
7.403309248766738
 31
0.0
  0
SPLINE
  5
194
330
1F
100
AcDbEntity
  8
Object
  6
Continuous
370
    15
100
AcDbSpline
210
0.0
220
0.0
230
1.0
 70
     8
 71
     3
 72
    11
 73
     7
 74
     0
 42
0.0000000001
 43
0.0000000001
 40
0.0
 40
0.0
 40
0.0
 40
0.0
 40
0.2500000132620614
 40
0.5000001636234613
 40
0.7500003139848611
 40
1.0
 40
1.0
 40
1.0
 40
1.0
 10
13.95590258406213
 20
7.409309019456875
 30
0.0
 10
13.95619730910364
 20
7.404591714652941
 30
0.0
 10
13.95678675934828
 20
7.39515710245811
 30
0.0
 10
13.95767046276968
 20
7.383257465670419
 30
0.0
 10
13.95855429102256
 20
7.374932598983001
 30
0.0
 10
13.95914349044747
 20
7.373850347323489
 30
0.0
 10
13.95943808988633
 20
7.373309221996274
 30
0.0
  0
LINE
  5
195
330
1F
100
AcDbEntity
  8
Object
  6
Continuous
370
    15
100
AcDbLine
 10
13.95943808988633
 20
7.373309221996274
 30
0.0
 11
9.965938202258907
 21
7.373309221996274
 31
0.0
  0
LINE
  5
196
330
1F
100
AcDbEntity
  8
Object
  6
Continuous
370
    15
100
AcDbLine
 10
13.92484862280014
 20
7.440363274048809
 30
0.0
 11
13.95590258406213
 21
7.409309019456875
 31
0.0
  0
LINE
  5
197
330
1F
100
AcDbEntity
  8
Object
  6
Continuous
370
    15
100
AcDbLine
 10
13.95943808988633
 20
7.373309221996274
 30
0.0
 11
13.95943808988633
 21
7.391309120726575
 31
0.0
  0
SPLINE
  5
198
330
1F
100
AcDbEntity
  8
Object
  6
Continuous
370
    15
100
AcDbSpline
210
0.0
220
0.0
230
1.0
 70
     8
 71
     3
 72
    11
 73
     7
 74
     0
 42
0.0000000001
 43
0.0000000001
 40
0.0
 40
0.0
 40
0.0
 40
0.0
 40
0.249989408023329
 40
0.5000051553288922
 40
0.7500038096338363
 40
0.9999999999999998
 40
0.9999999999999998
 40
0.9999999999999998
 40
0.9999999999999998
 10
13.95590258406213
 20
7.409309019456873
 30
0.0
 10
13.95619731876858
 20
7.406950494240554
 30
0.0
 10
13.9567868192352
 20
7.402233195309944
 30
0.0
 10
13.9576704192498
 20
7.396283007955991
 30
0.0
 10
13.95855429274284
 20
7.392120463196478
 30
0.0
 10
13.95914349180635
 20
7.391579567328044
 30
0.0
 10
13.95943808988633
 20
7.391309120726575
 30
0.0
  0
SPLINE
  5
199
330
1F
100
AcDbEntity
  8
Object
  6
Continuous
370
    15
100
AcDbSpline
210
0.0
220
0.0
230
1.0
 70
     8
 71
     3
 72
    11
 73
     7
 74
     0
 42
0.0000000001
 43
0.0000000001
 40
0.0
 40
0.0
 40
0.0
 40
0.0
 40
0.2499996860151389
 40
0.4999998363765388
 40
0.7499999867379385
 40
1.0
 40
1.0
 40
1.0
 40
1.0
 10
5.971438314608047
 20
7.373309221996272
 30
0.0
 10
5.971732914046909
 20
7.373850347323489
 30
0.0
 10
5.972322113471819
 20
7.374932598983002
 30
0.0
 10
5.973205941724698
 20
7.383257465670418
 30
0.0
 10
5.974089645146102
 20
7.395157102458112
 30
0.0
 10
5.974679095390742
 20
7.404591714652939
 30
0.0
 10
5.974973820432249
 20
7.409309019456875
 30
0.0
  0
LINE
  5
19A
330
1F
100
AcDbEntity
  8
Object
  6
Continuous
370
    15
100
AcDbLine
 10
5.971438314608047
 20
7.391309120726575
 30
0.0
 11
5.971438314608047
 21
7.373309221996274
 31
0.0
  0
SPLINE
  5
19B
330
1F
100
AcDbEntity
  8
Object
  6
Continuous
370
    15
100
AcDbSpline
210
0.0
220
0.0
230
1.0
 70
     8
 71
     3
 72
    11
 73
     7
 74
     0
 42
0.0000000001
 43
0.0000000001
 40
0.0
 40
0.0
 40
0.0
 40
0.0
 40
0.2499961903661636
 40
0.4999948446711079
 40
0.7500105919766709
 40
0.9999999999999998
 40
0.9999999999999998
 40
0.9999999999999998
 40
0.9999999999999998
 10
5.971438314608047
 20
7.391309120726575
 30
0.0
 10
5.971732912688035
 20
7.391579567328045
 30
0.0
 10
5.972322111751539
 20
7.39212046319648
 30
0.0
 10
5.973205985244574
 20
7.396283007955988
 30
0.0
 10
5.974089585259183
 20
7.402233195309948
 30
0.0
 10
5.974679085725799
 20
7.406950494240557
 30
0.0
 10
5.974973820432249
 20
7.409309019456875
 30
0.0
  0
LINE
  5
19C
330
1F
100
AcDbEntity
  8
Object
  6
Continuous
370
    15
100
AcDbLine
 10
9.964938202235472
 20
7.403309248766738
 30
0.0
 11
9.964938202235472
 21
7.373309221996274
 31
0.0
  0
LINE
  5
19D
330
1F
100
AcDbEntity
  8
Object
  6
Continuous
370
    15
100
AcDbLine
 10
9.964938202235472
 20
7.373309221996274
 30
0.0
 11
5.971438314608047
 21
7.373309221996274
 31
0.0
  0
LINE
  5
19E
330
1F
100
AcDbEntity
  8
Object
  6
Continuous
370
    15
100
AcDbLine
 10
5.953438122547801
 20
21.43730910013622
 30
0.0
 11
5.935438223817502
 21
21.43730910013622
 31
0.0
  0
SPLINE
  5
19F
330
1F
100
AcDbEntity
  8
Object
  6
Continuous
370
    15
100
AcDbSpline
210
0.0
220
0.0
230
1.0
 70
     8
 71
     3
 72
    11
 73
     7
 74
     0
 42
0.0000000001
 43
0.0000000001
 40
0.0
 40
0.0
 40
0.0
 40
0.0
 40
0.2499978970213091
 40
0.4999936660492793
 40
0.74999202197983
 40
1.0
 40
1.0
 40
1.0
 40
1.0
 10
5.953438122547802
 20
21.43730910013622
 30
0.0
 10
5.953708679555545
 20
21.43701433565644
 30
0.0
 10
5.954249791268042
 20
21.43642480920593
 30
0.0
 10
5.958412277659011
 20
21.43554169964185
 30
0.0
 10
5.964362134567218
 20
21.43465732538338
 30
0.0
 10
5.969079557667175
 20
21.43406797956295
 30
0.0
 10
5.971438314608047
 20
21.43377330098207
 30
0.0
  0
LINE
  5
1A0
330
1F
100
AcDbEntity
  8
Object
  6
Continuous
370
    15
100
AcDbLine
 10
5.97497382043225
 20
7.409309019456875
 30
0.0
 11
6.002145266545385
 21
7.436480758899955
 31
0.0
  0
LINE
  5
1A1
330
1F
100
AcDbEntity
  8
Object
  6
Continuous
370
    15
100
AcDbLine
 10
13.99543818067688
 20
21.43730910013622
 30
0.0
 11
13.99543818067688
 21
7.851021676754565
 31
0.0
  0
LINE
  5
1A2
330
1F
100
AcDbEntity
  8
Object
  6
Continuous
370
    15
100
AcDbLine
 10
13.99543818067688
 20
7.675596289950269
 30
0.0
 11
13.99543818067688
 21
7.409309019456875
 31
0.0
  0
ARC
  5
1A3
330
1F
100
AcDbEntity
  8
Object
  6
Continuous
370
    15
100
AcDbCircle
 10
5.97143820224719
 20
7.409309059796575
 30
0.0
 40
0.0180000000000007
100
AcDbArc
 50
180.0
 51
270.0000000000008
  0
ARC
  5
1A4
330
1F
100
AcDbEntity
  8
Object
  6
Continuous
370
    15
100
AcDbCircle
 10
5.97143820224719
 20
7.409309059796575
 30
0.0
 40
0.0360000000000005
100
AcDbArc
 50
180.0
 51
270.0000000000008
  0
ARC
  5
1A5
330
1F
100
AcDbEntity
  8
Object
  6
Continuous
370
    15
100
AcDbCircle
 10
13.95943820224719
 20
21.43730905979658
 30
0.0
 40
0.0179999999999989
100
AcDbArc
 50
0.0
 51
90.0
  0
ARC
  5
1A6
330
1F
100
AcDbEntity
  8
Object
  6
Continuous
370
    15
100
AcDbCircle
 10
13.95943820224719
 20
21.43730905979658
 30
0.0
 40
0.0359999999999996
100
AcDbArc
 50
0.0
 51
90.0
  0
ARC
  5
1A7
330
1F
100
AcDbEntity
  8
Object
  6
Continuous
370
    15
100
AcDbCircle
 10
5.971438202247188
 20
21.43730905979658
 30
0.0
 40
0.0359999999999996
100
AcDbArc
 50
90.0
 51
180.0
  0
ARC
  5
1A8
330
1F
100
AcDbEntity
  8
Object
  6
Continuous
370
    15
100
AcDbCircle
 10
5.971438202247188
 20
21.43730905979658
 30
0.0
 40
0.0179999999999998
100
AcDbArc
 50
90.0
 51
180.0
  0
ARC
  5
1A9
330
1F
100
AcDbEntity
  8
Object
  6
Continuous
370
    15
100
AcDbCircle
 10
13.95943820224719
 20
7.409309059796575
 30
0.0
 40
0.0179999999999998
100
AcDbArc
 50
270.0000000000008
 51
0.0000000000028272
  0
ARC
  5
1AA
330
1F
100
AcDbEntity
  8
Object
  6
Continuous
370
    15
100
AcDbCircle
 10
13.95943820224719
 20
7.409309059796575
 30
0.0
 40
0.0360000000000005
100
AcDbArc
 50
270.0000000000008
 51
0.0000000000014136
  0
CIRCLE
  5
1AB
330
1F
100
AcDbEntity
  8
Object
  6
Continuous
370
    15
100
AcDbCircle
 10
9.96543820224719
 20
19.44330905979652
 30
0.0
 40
0.75
  0
LINE
  5
1AC
330
1F
100
AcDbEntity
  8
Object
  6
Continuous
370
    15
100
AcDbLine
 10
10.965438190162
 20
21.49110933196469
 30
0.0
 11
8.965438214332385
 21
21.49110933196469
 31
0.0
  0
LINE
  5
1AD
330
1F
100
AcDbEntity
  8
Object
  6
Continuous
370
    15
100
AcDbLine
 10
8.965438214332385
 20
21.49110933196469
 30
0.0
 11
8.965438214332385
 21
21.39330902176221
 31
0.0
  0
LINE
  5
1AE
330
1F
100
AcDbEntity
  8
Object
  6
Continuous
370
    15
100
AcDbLine
 10
10.965438190162
 20
21.39330902176221
 30
0.0
 11
10.965438190162
 21
21.49110933196469
 31
0.0
  0
ARC
  5
1AF
330
1F
100
AcDbEntity
  8
Object
  6
Continuous
370
    15
100
AcDbCircle
 10
9.21543820224719
 20
21.20134998407159
 30
0.0
 40
0.25
100
AcDbArc
 50
180.0
 51
270.0000000000008
  0
ARC
  5
1B0
330
1F
100
AcDbEntity
  8
Object
  6
Continuous
370
    15
100
AcDbCircle
 10
10.71543820224719
 20
21.20134998407159
 30
0.0
 40
0.25
100
AcDbArc
 50
270.0000000000008
 51
0.0
  0
LINE
  5
1B1
330
1F
100
AcDbEntity
  8
Object
  6
Continuous
370
    15
100
AcDbLine
 10
10.71543821151641
 20
20.95134996731093
 30
0.0
 11
9.215438192977964
 21
20.95134996731093
 31
0.0
  0
LINE
  5
1B2
330
1F
100
AcDbEntity
  8
Object
  6
Continuous
370
    15
100
AcDbLine
 10
10.965438190162
 20
21.39330902176221
 30
0.0
 11
10.965438190162
 21
21.20134979929154
 31
0.0
  0
LINE
  5
1B3
330
1F
100
AcDbEntity
  8
Object
  6
Continuous
370
    15
100
AcDbLine
 10
8.965438214332385
 20
21.20134979929154
 30
0.0
 11
8.965438214332385
 21
21.39330902176221
 31
0.0
  0
SPLINE
  5
1B4
330
1F
100
AcDbEntity
  8
Object
  6
Continuous
370
    15
100
AcDbSpline
210
0.0
220
0.0
230
1.0
 70
     8
 71
     3
 72
    12
 73
     8
 74
     0
 42
0.0000000001
 43
0.0000000001
 40
0.0
 40
0.0
 40
0.0
 40
0.0
 40
0.223129840384363
 40
0.446283550894416
 40
0.6694371359002628
 40
0.8925907796367248
 40
1.0
 40
1.0
 40
1.0
 40
1.0
 10
6.03143807481903
 20
21.37730904659529
 30
0.0
 10
6.029258567784384
 20
21.38502081849076
 30
0.0
 10
6.024899320554408
 20
21.40044518727654
 30
0.0
 10
6.018359754114338
 20
21.42079169544506
 30
0.0
 10
6.011822953184468
 20
21.43574630256356
 30
0.0
 10
6.00640540053364
 20
21.44254266811097
 30
0.0
 10
6.003190031009957
 20
21.44312096561682
 30
0.0
 10
6.002145266545385
 20
21.44330887082636
 30
0.0
  0
LINE
  5
1B5
330
1F
100
AcDbEntity
  8
Object
  6
Continuous
370
    15
100
AcDbLine
 10
13.92873113794899
 20
21.44330887082636
 30
0.0
 11
10.965438190162
 21
21.44330887082636
 31
0.0
  0
LINE
  5
1B6
330
1F
100
AcDbEntity
  8
Object
  6
Continuous
370
    15
100
AcDbLine
 10
8.965438214332385
 20
21.44330887082636
 30
0.0
 11
6.002145266545385
 21
21.44330887082636
 31
0.0
  0
SPLINE
  5
1B7
330
1F
100
AcDbEntity
  8
Object
  6
Continuous
370
    15
100
AcDbSpline
210
0.0
220
0.0
230
1.0
 70
     8
 71
     3
 72
    12
 73
     8
 74
     0
 42
0.0000000001
 43
0.0000000001
 40
0.0
 40
0.0
 40
0.0
 40
0.0
 40
0.2231281030489447
 40
0.4462816341986957
 40
0.6694365492472824
 40
0.8925913343012329
 40
0.9999999999999998
 40
0.9999999999999998
 40
0.9999999999999998
 40
0.9999999999999998
 10
13.92873113794899
 20
21.44330887082636
 30
0.0
 10
13.9265516738718
 20
21.44252019389326
 30
0.0
 10
13.92219249734156
 20
21.44094275014795
 30
0.0
 10
13.91565224125544
 20
21.42867726133917
 30
0.0
 10
13.90911633004004
 20
21.41074934814053
 30
0.0
 10
13.9036979653447
 20
21.39238321819717
 30
0.0
 10
13.90048296646025
 20
21.38100584965068
 30
0.0
 10
13.89943832967535
 20
21.37730904659529
 30
0.0
  0
SPLINE
  5
1B8
330
1F
100
AcDbEntity
  8
Object
  6
Continuous
370
    15
100
AcDbSpline
210
0.0
220
0.0
230
1.0
 70
     8
 71
     3
 72
    12
 73
     8
 74
     0
 42
0.0000000001
 43
0.0000000001
 40
0.0
 40
0.0
 40
0.0
 40
0.0
 40
0.2231282107758306
 40
0.4462813878125531
 40
0.6694351864234778
 40
0.892590676823432
 40
1.0
 40
1.0
 40
1.0
 40
1.0
 10
6.03143807481903
 20
7.469309072997802
 30
0.0
 10
6.023726421418901
 20
7.467129408562632
 30
0.0
 10
6.008302251746352
 20
7.462769835805287
 30
0.0
 10
5.987955643611917
 20
7.456230841780065
 30
0.0
 10
5.973001182969176
 20
7.449693998637617
 30
0.0
 10
5.966204422953624
 20
7.44427608846875
 30
0.0
 10
5.965626147653855
 20
7.441060727815267
 30
0.0
 10
5.965438250587966
 20
7.440015971394212
 30
0.0
  0
LINE
  5
1B9
330
1F
100
AcDbEntity
  8
Object
  6
Continuous
370
    15
100
AcDbLine
 10
5.965438250587965
 20
7.440015971394212
 30
0.0
 11
5.965438250587965
 21
21.40660214819888
 31
0.0
  0
SPLINE
  5
1BA
330
1F
100
AcDbEntity
  8
Object
  6
Continuous
370
    15
100
AcDbSpline
210
0.0
220
0.0
230
1.0
 70
     8
 71
     3
 72
    12
 73
     8
 74
     0
 42
0.0000000001
 43
0.0000000001
 40
0.0
 40
0.0
 40
0.0
 40
0.0
 40
0.2231289420702208
 40
0.4462838857994669
 40
0.6694381456731619
 40
0.8925905456609564
 40
1.0
 40
1.0
 40
1.0
 40
1.0
 10
5.965438250587966
 20
21.40660214819888
 30
0.0
 10
5.966226901869089
 20
21.40442256538633
 30
0.0
 10
5.967804296334435
 20
21.40006314577011
 30
0.0
 10
5.980070165827953
 20
21.39352291975291
 30
0.0
 10
5.997998022962919
 20
21.38698742178654
 30
0.0
 10
6.016364051255453
 20
21.38156908716448
 30
0.0
 10
6.027741274107155
 20
21.37835379227599
 30
0.0
 10
6.03143807481903
 20
21.37730904659529
 30
0.0
  0
SPLINE
  5
1BB
330
1F
100
AcDbEntity
  8
Object
  6
Continuous
370
    15
100
AcDbSpline
210
0.0
220
0.0
230
1.0
 70
     8
 71
     3
 72
    12
 73
     8
 74
     0
 42
0.0000000001
 43
0.0000000001
 40
0.0
 40
0.0
 40
0.0
 40
0.0
 40
0.2231282107758306
 40
0.4462813878125531
 40
0.6694351864234778
 40
0.892590676823432
 40
1.0
 40
1.0
 40
1.0
 40
1.0
 10
13.89943832967535
 20
21.37730904659529
 30
0.0
 10
13.90714998307548
 20
21.37948871103046
 30
0.0
 10
13.92257415274803
 20
21.3838482837878
 30
0.0
 10
13.94292076088246
 20
21.39038727781303
 30
0.0
 10
13.9578752215252
 20
21.39692412095548
 30
0.0
 10
13.96467198154075
 20
21.40234203112434
 30
0.0
 10
13.96525025684052
 20
21.40555739177782
 30
0.0
 10
13.96543815390641
 20
21.40660214819888
 30
0.0
  0
LINE
  5
1BC
330
1F
100
AcDbEntity
  8
Object
  6
Continuous
370
    15
100
AcDbLine
 10
13.96543815390641
 20
7.440015971394212
 30
0.0
 11
13.96543815390641
 21
21.40660214819888
 31
0.0
  0
SPLINE
  5
1BD
330
1F
100
AcDbEntity
  8
Object
  6
Continuous
370
    15
100
AcDbSpline
210
0.0
220
0.0
230
1.0
 70
     8
 71
     3
 72
    12
 73
     8
 74
     0
 42
0.0000000001
 43
0.0000000001
 40
0.0
 40
0.0
 40
0.0
 40
0.0
 40
0.2231289420702208
 40
0.4462838857994669
 40
0.6694381456731619
 40
0.8925905456609564
 40
1.0
 40
1.0
 40
1.0
 40
1.0
 10
13.96543815390641
 20
7.440015971394212
 30
0.0
 10
13.96464950262529
 20
7.442195554206769
 30
0.0
 10
13.96307210815994
 20
7.446554973822993
 30
0.0
 10
13.95080623866643
 20
7.453095199840184
 30
0.0
 10
13.93287838153146
 20
7.459630697806559
 30
0.0
 10
13.91451235323893
 20
7.465049032428615
 30
0.0
 10
13.90313513038722
 20
7.468264327317106
 30
0.0
 10
13.89943832967535
 20
7.469309072997803
 30
0.0
  0
SPLINE
  5
1BE
330
1F
100
AcDbEntity
  8
Object
  6
Continuous
370
    15
100
AcDbSpline
210
0.0
220
0.0
230
1.0
 70
     8
 71
     3
 72
    11
 73
     7
 74
     0
 42
0.0000000001
 43
0.0000000001
 40
0.0
 40
0.0
 40
0.0
 40
0.0
 40
0.2762909807152141
 40
0.5295566747319032
 40
0.7827484126614097
 40
1.0
 40
1.0
 40
1.0
 40
1.0
 10
6.03143807481903
 20
21.37730904659529
 30
0.0
 10
6.028737008862854
 20
21.38165783830603
 30
0.0
 10
6.023559975930829
 20
21.38999300607546
 30
0.0
 10
6.015920214047532
 20
21.40003125272888
 30
0.0
 10
6.008849764549038
 20
21.40622793108085
 30
0.0
 10
6.004263302911367
 20
21.40696752673915
 30
0.0
 10
6.002145266545385
 20
21.40730907336576
 30
0.0
  0
LINE
  5
1BF
330
1F
100
AcDbEntity
  8
Object
  6
Continuous
370
    15
100
AcDbLine
 10
6.002145266545385
 20
21.44330887082636
 30
0.0
 11
6.002145266545385
 21
21.40730907336576
 31
0.0
  0
LINE
  5
1C0
330
1F
100
AcDbEntity
  8
Object
  6
Continuous
370
    15
100
AcDbLine
 10
13.92873113794899
 20
21.44330887082636
 30
0.0
 11
13.92873113794899
 21
21.40730907336576
 31
0.0
  0
SPLINE
  5
1C1
330
1F
100
AcDbEntity
  8
Object
  6
Continuous
370
    15
100
AcDbSpline
210
0.0
220
0.0
230
1.0
 70
     8
 71
     3
 72
    11
 73
     7
 74
     0
 42
0.0000000001
 43
0.0000000001
 40
0.0
 40
0.0
 40
0.0
 40
0.0
 40
0.2762946823421228
 40
0.5295485185877378
 40
0.7827476205443872
 40
0.9999999999999998
 40
0.9999999999999998
 40
0.9999999999999998
 40
0.9999999999999998
 10
13.92873113794899
 20
21.40730907336576
 30
0.0
 10
13.92602995858714
 20
21.40675791986596
 30
0.0
 10
13.92085285739437
 20
21.4057015748185
 30
0.0
 10
13.91321313854107
 20
21.39798725879856
 30
0.0
 10
13.90614247738621
 20
21.38810761607206
 30
0.0
 10
13.90155623554339
 20
21.38072042036682
 30
0.0
 10
13.89943832967535
 20
21.37730904659529
 30
0.0
  0
SPLINE
  5
1C2
330
1F
100
AcDbEntity
  8
Object
  6
Continuous
370
    15
100
AcDbSpline
210
0.0
220
0.0
230
1.0
 70
     8
 71
     3
 72
    12
 73
     8
 74
     0
 42
0.0000000001
 43
0.0000000001
 40
0.0
 40
0.0
 40
0.0
 40
0.0
 40
0.223129840384363
 40
0.446283550894416
 40
0.6694371359002628
 40
0.8925907796367248
 40
1.0
 40
1.0
 40
1.0
 40
1.0
 10
13.89943832967535
 20
7.469309072997802
 30
0.0
 10
13.90161783671
 20
7.461597301102331
 30
0.0
 10
13.90597708393997
 20
7.446172932316561
 30
0.0
 10
13.91251665038004
 20
7.425826424148038
 30
0.0
 10
13.91905345130991
 20
7.410871817029537
 30
0.0
 10
13.92447100396074
 20
7.404075451482126
 30
0.0
 10
13.92768637348442
 20
7.403497153976271
 30
0.0
 10
13.92873113794899
 20
7.403309248766738
 30
0.0
  0
SPLINE
  5
1C3
330
1F
100
AcDbEntity
  8
Object
  6
Continuous
370
    15
100
AcDbSpline
210
0.0
220
0.0
230
1.0
 70
     8
 71
     3
 72
    11
 73
     7
 74
     0
 42
0.0000000001
 43
0.0000000001
 40
0.0
 40
0.0
 40
0.0
 40
0.0
 40
0.2762909807152141
 40
0.5295566747319032
 40
0.7827484126614097
 40
1.0
 40
1.0
 40
1.0
 40
1.0
 10
13.89943832967535
 20
7.469309072997803
 30
0.0
 10
13.90213939563152
 20
7.464960281287066
 30
0.0
 10
13.90731642856355
 20
7.456625113517644
 30
0.0
 10
13.91495619044685
 20
7.446586866864219
 30
0.0
 10
13.92202663994534
 20
7.440390188512247
 30
0.0
 10
13.92661310158301
 20
7.439650592853944
 30
0.0
 10
13.92873113794899
 20
7.439309046227339
 30
0.0
  0
LINE
  5
1C4
330
1F
100
AcDbEntity
  8
Object
  6
Continuous
370
    15
100
AcDbLine
 10
13.92873113794899
 20
7.403309248766738
 30
0.0
 11
13.92873113794899
 21
7.439309046227339
 31
0.0
  0
SPLINE
  5
1C5
330
1F
100
AcDbEntity
  8
Object
  6
Continuous
370
    15
100
AcDbSpline
210
0.0
220
0.0
230
1.0
 70
     8
 71
     3
 72
    11
 73
     7
 74
     0
 42
0.0000000001
 43
0.0000000001
 40
0.0
 40
0.0
 40
0.0
 40
0.0
 40
0.2762935972141498
 40
0.5295554750697046
 40
0.7827465227457311
 40
1.0
 40
1.0
 40
1.0
 40
1.0
 10
13.89943832967535
 20
21.37730904659529
 30
0.0
 10
13.90378714581325
 20
21.38001020465092
 30
0.0
 10
13.91212226258438
 20
21.38518735335001
 30
0.0
 10
13.92216008801269
 20
21.39282737798561
 30
0.0
 10
13.92835742335188
 20
21.39989722317188
 30
0.0
 10
13.92909667380596
 20
21.40448396802064
 30
0.0
 10
13.92943806311587
 20
21.40660214819888
 30
0.0
  0
LINE
  5
1C6
330
1F
100
AcDbEntity
  8
Object
  6
Continuous
370
    15
100
AcDbLine
 10
13.96543815390641
 20
21.40660214819888
 30
0.0
 11
13.92943806311587
 21
21.40660214819888
 31
0.0
  0
LINE
  5
1C7
330
1F
100
AcDbEntity
  8
Object
  6
Continuous
370
    15
100
AcDbLine
 10
9.594393201924029
 20
20.59708717978488
 30
0.0
 11
9.965438202247209
 21
20.53330903655543
 31
0.0
  0
LINE
  5
1C8
330
1F
100
AcDbEntity
  8
Object
  6
Continuous
370
    15
100
AcDbLine
 10
9.965438202247209
 20
20.53330903655543
 30
0.0
 11
10.33648320257035
 21
20.59708717978488
 31
0.0
  0
ARC
  5
1C9
330
1F
100
AcDbEntity
  8
Object
  6
Continuous
370
    15
100
AcDbCircle
 10
10.32853820224719
 20
20.64330905979652
 30
0.0
 40
0.0468999999999993
100
AcDbArc
 50
279.7530987587096
 51
80.24690124129119
  0
LINE
  5
1CA
330
1F
100
AcDbEntity
  8
Object
  6
Continuous
370
    15
100
AcDbLine
 10
10.33648320257035
 20
20.68953128519602
 30
0.0
 11
9.965438202247209
 21
20.75330884176557
 31
0.0
  0
LINE
  5
1CB
330
1F
100
AcDbEntity
  8
Object
  6
Continuous
370
    15
100
AcDbLine
 10
9.965438202247209
 20
20.75330884176557
 30
0.0
 11
9.594393201924029
 21
20.68953128519602
 31
0.0
  0
ARC
  5
1CC
330
1F
100
AcDbEntity
  8
Object
  6
Continuous
370
    15
100
AcDbCircle
 10
9.602338202247221
 20
20.64330905979652
 30
0.0
 40
0.046899999999999
100
AcDbArc
 50
99.75309875870669
 51
260.2469012412941
  0
SPLINE
  5
1CD
330
1F
100
AcDbEntity
  8
Object
  6
Continuous
370
    15
100
AcDbSpline
210
0.0
220
0.0
230
1.0
 70
     8
 71
     3
 72
    11
 73
     7
 74
     0
 42
0.0000000001
 43
0.0000000001
 40
0.0
 40
0.0
 40
0.0
 40
0.0
 40
0.2762935972141498
 40
0.5295554750697046
 40
0.7827465227457311
 40
1.0
 40
1.0
 40
1.0
 40
1.0
 10
6.03143807481903
 20
7.469309072997803
 30
0.0
 10
6.02708925868113
 20
7.466607914942176
 30
0.0
 10
6.018754141909997
 20
7.461430766243086
 30
0.0
 10
6.008716316481685
 20
7.453790741607483
 30
0.0
 10
6.002518981142507
 20
7.446720896421215
 30
0.0
 10
6.001779730688414
 20
7.442134151572457
 30
0.0
 10
6.001438341378511
 20
7.440015971394212
 30
0.0
  0
LINE
  5
1CE
330
1F
100
AcDbEntity
  8
Object
  6
Continuous
370
    15
100
AcDbLine
 10
5.965438250587965
 20
7.440015971394212
 30
0.0
 11
6.001438341378511
 21
7.440015971394212
 31
0.0
  0
LINE
  5
1CF
330
1F
100
AcDbEntity
  8
Object
  6
Continuous
370
    15
100
AcDbLine
 10
6.002145266545385
 20
7.403309248766738
 30
0.0
 11
13.92873113794899
 21
7.403309248766738
 31
0.0
  0
SPLINE
  5
1D0
330
1F
100
AcDbEntity
  8
Object
  6
Continuous
370
    15
100
AcDbSpline
210
0.0
220
0.0
230
1.0
 70
     8
 71
     3
 72
    12
 73
     8
 74
     0
 42
0.0000000001
 43
0.0000000001
 40
0.0
 40
0.0
 40
0.0
 40
0.0
 40
0.2231281030489447
 40
0.4462816341986957
 40
0.6694365492472824
 40
0.8925913343012329
 40
0.9999999999999998
 40
0.9999999999999998
 40
0.9999999999999998
 40
0.9999999999999998
 10
6.002145266545385
 20
7.403309248766737
 30
0.0
 10
6.004324730622578
 20
7.404097925699834
 30
0.0
 10
6.008683907152814
 20
7.405675369445139
 30
0.0
 10
6.01522416323894
 20
7.417940858253929
 30
0.0
 10
6.021760074454341
 20
7.435868771452568
 30
0.0
 10
6.027178439149676
 20
7.454234901395926
 30
0.0
 10
6.030393438034125
 20
7.465612269942417
 30
0.0
 10
6.03143807481903
 20
7.469309072997803
 30
0.0
  0
LINE
  5
1D1
330
1F
100
AcDbEntity
  8
Object
  6
Continuous
370
    15
100
AcDbLine
 10
6.002145266545385
 20
7.403309248766738
 30
0.0
 11
6.002145266545385
 21
7.439309046227339
 31
0.0
  0
SPLINE
  5
1D2
330
1F
100
AcDbEntity
  8
Object
  6
Continuous
370
    15
100
AcDbSpline
210
0.0
220
0.0
230
1.0
 70
     8
 71
     3
 72
    11
 73
     7
 74
     0
 42
0.0000000001
 43
0.0000000001
 40
0.0
 40
0.0
 40
0.0
 40
0.0
 40
0.2762946823421228
 40
0.5295485185877378
 40
0.7827476205443872
 40
0.9999999999999998
 40
0.9999999999999998
 40
0.9999999999999998
 40
0.9999999999999998
 10
6.002145266545385
 20
7.439309046227339
 30
0.0
 10
6.004846445907239
 20
7.439860199727138
 30
0.0
 10
6.01002354710001
 20
7.440916544774603
 30
0.0
 10
6.017663265953303
 20
7.448630860794543
 30
0.0
 10
6.024733927108171
 20
7.458510503521031
 30
0.0
 10
6.029320168950991
 20
7.465897699226273
 30
0.0
 10
6.03143807481903
 20
7.469309072997803
 30
0.0
  0
LINE
  5
1D3
330
1F
100
AcDbEntity
  8
Object
  6
Continuous
370
    15
100
AcDbLine
 10
9.742024513141192
 20
20.67742027843674
 30
0.0
 11
9.742024513141192
 21
20.65177913464542
 31
0.0
  0
LINE
  5
1D4
330
1F
100
AcDbEntity
  8
Object
  6
Continuous
370
    15
100
AcDbLine
 10
9.742024513141192
 20
20.65177913464542
 30
0.0
 11
9.746848232417175
 21
20.65177913464542
 31
0.0
  0
SPLINE
  5
1D5
330
1F
100
AcDbEntity
  8
Object
  6
Continuous
370
    15
100
AcDbSpline
210
0.0
220
0.0
230
1.0
 70
     8
 71
     3
 72
    11
 73
     7
 74
     0
 42
0.0000000001
 43
0.0000000001
 40
0.0
 40
0.0
 40
0.0
 40
0.0
 40
0.2492740288184352
 40
0.3749332197561543
 40
0.5006441243902372
 40
0.9999999999999998
 40
0.9999999999999998
 40
0.9999999999999998
 40
0.9999999999999998
 10
9.768691193418758
 20
20.66565716099194
 30
0.0
 10
9.768458267927533
 20
20.66762624063105
 30
0.0
 10
9.768107924553207
 20
20.67058793452491
 30
0.0
 10
9.765578287324574
 20
20.67364188327897
 30
0.0
 10
9.760797469658294
 20
20.67705788985446
 30
0.0
 10
9.755778046207808
 20
20.67725934174013
 30
0.0
 10
9.751768108915674
 20
20.67742027843674
 30
0.0
  0
LINE
  5
1D6
330
1F
100
AcDbEntity
  8
Object
  6
Continuous
370
    15
100
AcDbLine
 10
9.751768108915674
 20
20.67742027843674
 30
0.0
 11
9.742024513141192
 21
20.67742027843674
 31
0.0
  0
SPLINE
  5
1D7
330
1F
100
AcDbEntity
  8
Object
  6
Continuous
370
    15
100
AcDbSpline
210
0.0
220
0.0
230
1.0
 70
     8
 71
     3
 72
    12
 73
     8
 74
     0
 42
0.0000000001
 43
0.0000000001
 40
0.0
 40
0.0
 40
0.0
 40
0.0
 40
0.498610638459518
 40
0.624007725168411
 40
0.7494075101135782
 40
0.8747291987653039
 40
1.0
 40
1.0
 40
1.0
 40
1.0
 10
9.746848232417175
 20
20.65177913464542
 30
0.0
 10
9.751871736424664
 20
20.65179228709913
 30
0.0
 10
9.75815861653972
 20
20.65180874730291
 30
0.0
 10
9.764352962847942
 20
20.65586151409343
 30
0.0
 10
9.766758924657024
 20
20.65864637088348
 30
0.0
 10
9.768396888206634
 20
20.66199427682512
 30
0.0
 10
9.768593104963191
 20
20.66443636490664
 30
0.0
 10
9.768691193418758
 20
20.66565716099194
 30
0.0
  0
LINE
  5
1D8
330
1F
100
AcDbEntity
  8
Object
  6
Continuous
370
    15
100
AcDbLine
 10
9.742024513141192
 20
20.64357410943057
 30
0.0
 11
9.742024513141192
 21
20.61383045303182
 31
0.0
  0
LINE
  5
1D9
330
1F
100
AcDbEntity
  8
Object
  6
Continuous
370
    15
100
AcDbLine
 10
9.742024513141192
 20
20.61383045303182
 30
0.0
 11
9.752248876695139
 21
20.61383045303182
 31
0.0
  0
SPLINE
  5
1DA
330
1F
100
AcDbEntity
  8
Object
  6
Continuous
370
    15
100
AcDbSpline
210
0.0
220
0.0
230
1.0
 70
     8
 71
     3
 72
    11
 73
     7
 74
     0
 42
0.0000000001
 43
0.0000000001
 40
0.0
 40
0.0
 40
0.0
 40
0.0
 40
0.4993602402621976
 40
0.7487411905895911
 40
0.8744046953396999
 40
1.0
 40
1.0
 40
1.0
 40
1.0
 10
9.752248876695139
 20
20.61383045303182
 30
0.0
 10
9.757476717219676
 20
20.61383645346507
 30
0.0
 10
9.76531534597494
 20
20.61384545052004
 30
0.0
 10
9.772211889186696
 20
20.6199852602523
 30
0.0
 10
9.774517549890992
 20
20.62453846091894
 30
0.0
 10
9.774735893493851
 20
20.62706856399846
 30
0.0
 10
9.774845035662382
 20
20.62833327216068
 30
0.0
  0
SPLINE
  5
1DB
330
1F
100
AcDbEntity
  8
Object
  6
Continuous
370
    15
100
AcDbSpline
210
0.0
220
0.0
230
1.0
 70
     8
 71
     3
 72
    10
 73
     6
 74
     0
 42
0.0000000001
 43
0.0000000001
 40
0.0
 40
0.0
 40
0.0
 40
0.0
 40
0.2799422127840208
 40
0.5604398816007193
 40
1.0
 40
1.0
 40
1.0
 40
1.0
 10
9.774845035662382
 20
20.62833327216068
 30
0.0
 10
9.774605021753416
 20
20.63029414146944
 30
0.0
 10
9.774124517704438
 20
20.63421977080665
 30
0.0
 10
9.769497464368145
 20
20.63993091209176
 30
0.0
 10
9.764688019701724
 20
20.6416059095383
 30
0.0
 10
9.761752088579891
 20
20.64262841368866
 30
0.0
  0
SPLINE
  5
1DC
330
1F
100
AcDbEntity
  8
Object
  6
Continuous
370
    15
100
AcDbSpline
210
0.0
220
0.0
230
1.0
 70
     8
 71
     3
 72
     9
 73
     5
 74
     0
 42
0.0000000001
 43
0.0000000001
 40
0.0
 40
0.0
 40
0.0
 40
0.0
 40
0.5597351784699708
 40
1.0
 40
1.0
 40
1.0
 40
1.0
 10
9.761752088579891
 20
20.64262841368866
 30
0.0
 10
9.75896915724706
 20
20.64297269421057
 30
0.0
 10
9.753997285833802
 20
20.64358777172429
 30
0.0
 10
9.748989077689209
 20
20.64357828576482
 30
0.0
 10
9.746784139824244
 20
20.64357410943057
 30
0.0
  0
LINE
  5
1DD
330
1F
100
AcDbEntity
  8
Object
  6
Continuous
370
    15
100
AcDbLine
 10
9.746784139824244
 20
20.64357410943057
 30
0.0
 11
9.742024513141192
 21
20.64357410943057
 31
0.0
  0
SPLINE
  5
1DE
330
1F
100
AcDbEntity
  8
Object
  6
Continuous
370
    15
100
AcDbSpline
210
0.0
220
0.0
230
1.0
 70
     8
 71
     3
 72
    11
 73
     7
 74
     0
 42
0.0000000001
 43
0.0000000001
 40
0.0
 40
0.0
 40
0.0
 40
0.0
 40
0.2796285129465858
 40
0.5593499110974425
 40
0.7796347535494949
 40
1.0
 40
1.0
 40
1.0
 40
1.0
 10
9.836223235782842
 20
20.6794712414105
 30
0.0
 10
9.831173183733
 20
20.67881529781022
 30
0.0
 10
9.821071402139443
 20
20.67750319272251
 30
0.0
 10
9.809515792438807
 20
20.6685949555512
 30
0.0
 10
9.802600463880061
 20
20.65725803147316
 30
0.0
 10
9.801874663842701
 20
20.64928966588147
 30
0.0
 10
9.801511697606827
 20
20.64530475610466
 30
0.0
  0
SPLINE
  5
1DF
330
1F
100
AcDbEntity
  8
Object
  6
Continuous
370
    15
100
AcDbSpline
210
0.0
220
0.0
230
1.0
 70
     8
 71
     3
 72
    11
 73
     7
 74
     0
 42
0.0000000001
 43
0.0000000001
 40
0.0
 40
0.0
 40
0.0
 40
0.0
 40
0.279418801073153
 40
0.5590777075948489
 40
0.7794795526213569
 40
1.0
 40
1.0
 40
1.0
 40
1.0
 10
9.801511697606827
 20
20.64530475610466
 30
0.0
 10
9.802123696163826
 20
20.64026320830882
 30
0.0
 10
9.803348219170098
 20
20.63017578049939
 30
0.0
 10
9.813017004552587
 20
20.61930413939278
 30
0.0
 10
9.824351043642492
 20
20.61275299014052
 30
0.0
 10
9.832265128807458
 20
20.61210365719965
 30
0.0
 10
9.836223235782842
 20
20.61177890339817
 30
0.0
  0
SPLINE
  5
1E0
330
1F
100
AcDbEntity
  8
Object
  6
Continuous
370
    15
100
AcDbSpline
210
0.0
220
0.0
230
1.0
 70
     8
 71
     3
 72
    11
 73
     7
 74
     0
 42
0.0000000001
 43
0.0000000001
 40
0.0
 40
0.0
 40
0.0
 40
0.0
 40
0.279831741710035
 40
0.559387809393347
 40
0.7796581568614101
 40
0.9999999999999998
 40
0.9999999999999998
 40
0.9999999999999998
 40
0.9999999999999998
 10
9.836223235782842
 20
20.61177890339817
 30
0.0
 10
9.841303990363732
 20
20.61235808822774
 30
0.0
 10
9.851460494260322
 20
20.61351588730752
 30
0.0
 10
9.863230646123417
 20
20.62227625411034
 30
0.0
 10
9.870151828149378
 20
20.63368121877408
 30
0.0
 10
9.870887430877663
 20
20.6416754262098
 30
0.0
 10
9.871255291922874
 20
20.64567317851528
 30
0.0
  0
SPLINE
  5
1E1
330
1F
100
AcDbEntity
  8
Object
  6
Continuous
370
    15
100
AcDbSpline
210
0.0
220
0.0
230
1.0
 70
     8
 71
     3
 72
    11
 73
     7
 74
     0
 42
0.0000000001
 43
0.0000000001
 40
0.0
 40
0.0
 40
0.0
 40
0.0
 40
0.2794698293262101
 40
0.558868701156495
 40
0.7795167851217711
 40
1.0
 40
1.0
 40
1.0
 40
1.0
 10
9.871255291922874
 20
20.64567317851528
 30
0.0
 10
9.870640854309016
 20
20.65075233907618
 30
0.0
 10
9.869412135087241
 20
20.6609093705972
 30
0.0
 10
9.859677050375951
 20
20.6719243881186
 30
0.0
 10
9.848148924977863
 20
20.67829617076762
 30
0.0
 10
9.840197474918809
 20
20.6790796488023
 30
0.0
 10
9.836223235782842
 20
20.6794712414105
 30
0.0
  0
LINE
  5
1E2
330
1F
100
AcDbEntity
  8
Object
  6
Continuous
370
    15
100
AcDbLine
 10
9.902024521474109
 20
20.67742027843674
 30
0.0
 11
9.902024521474109
 21
20.65177913464542
 31
0.0
  0
LINE
  5
1E3
330
1F
100
AcDbEntity
  8
Object
  6
Continuous
370
    15
100
AcDbLine
 10
9.902024521474109
 20
20.65177913464542
 30
0.0
 11
9.906848236166812
 21
20.65177913464542
 31
0.0
  0
SPLINE
  5
1E4
330
1F
100
AcDbEntity
  8
Object
  6
Continuous
370
    15
100
AcDbSpline
210
0.0
220
0.0
230
1.0
 70
     8
 71
     3
 72
    12
 73
     8
 74
     0
 42
0.0000000001
 43
0.0000000001
 40
0.0
 40
0.0
 40
0.0
 40
0.0
 40
0.4986105533896501
 40
0.6240073957958897
 40
0.7494075084697283
 40
0.8747292481293442
 40
1.0
 40
1.0
 40
1.0
 40
1.0
 10
9.906848236166812
 20
20.65177913464542
 30
0.0
 10
9.911871741951458
 20
20.65179228291686
 30
0.0
 10
9.918158622044812
 20
20.65180873788069
 30
0.0
 10
9.924352953902229
 20
20.65586152122751
 30
0.0
 10
9.926758928390757
 20
20.65864636626349
 30
0.0
 10
9.928396897510875
 20
20.66199427572593
 30
0.0
 10
9.928593102950992
 20
20.66443636486637
 30
0.0
 10
9.928691185710194
 20
20.66565716099194
 30
0.0
  0
SPLINE
  5
1E5
330
1F
100
AcDbEntity
  8
Object
  6
Continuous
370
    15
100
AcDbSpline
210
0.0
220
0.0
230
1.0
 70
     8
 71
     3
 72
    11
 73
     7
 74
     0
 42
0.0000000001
 43
0.0000000001
 40
0.0
 40
0.0
 40
0.0
 40
0.0
 40
0.2492739570729782
 40
0.3749329012011619
 40
0.5006441260058968
 40
1.0
 40
1.0
 40
1.0
 40
1.0
 10
9.928691185710194
 20
20.66565716099194
 30
0.0
 10
9.928458261536976
 20
20.66762623932945
 30
0.0
 10
9.928107920341888
 20
20.67058792960165
 30
0.0
 10
9.925578295006083
 20
20.67364188893228
 30
0.0
 10
9.920797464123166
 20
20.67705788055332
 30
0.0
 10
9.915778042142989
 20
20.67725933765538
 30
0.0
 10
9.911768108082032
 20
20.67742027843674
 30
0.0
  0
LINE
  5
1E6
330
1F
100
AcDbEntity
  8
Object
  6
Continuous
370
    15
100
AcDbLine
 10
9.911768108082032
 20
20.67742027843674
 30
0.0
 11
9.902024521474109
 21
20.67742027843674
 31
0.0
  0
LINE
  5
1E7
330
1F
100
AcDbEntity
  8
Object
  6
Continuous
370
    15
100
AcDbLine
 10
9.902024521474109
 20
20.61383045303182
 30
0.0
 11
9.912248880444774
 21
20.61383045303182
 31
0.0
  0
SPLINE
  5
1E8
330
1F
100
AcDbEntity
  8
Object
  6
Continuous
370
    15
100
AcDbSpline
210
0.0
220
0.0
230
1.0
 70
     8
 71
     3
 72
    10
 73
     6
 74
     0
 42
0.0000000001
 43
0.0000000001
 40
0.0
 40
0.0
 40
0.0
 40
0.0
 40
0.2799421669505589
 40
0.5604400157221421
 40
1.0
 40
1.0
 40
1.0
 40
1.0
 10
9.934845032537097
 20
20.62833327216068
 30
0.0
 10
9.934605019942118
 20
20.63029414182186
 30
0.0
 10
9.934124518330055
 20
20.63421977344679
 30
0.0
 10
9.929497455608533
 20
20.63993090884366
 30
0.0
 10
9.924688012345434
 20
20.64160590854124
 30
0.0
 10
9.921752083162965
 20
20.64262841368866
 30
0.0
  0
SPLINE
  5
1E9
330
1F
100
AcDbEntity
  8
Object
  6
Continuous
370
    15
100
AcDbSpline
210
0.0
220
0.0
230
1.0
 70
     8
 71
     3
 72
     9
 73
     5
 74
     0
 42
0.0000000001
 43
0.0000000001
 40
0.0
 40
0.0
 40
0.0
 40
0.0
 40
0.5597345691835545
 40
0.9999999999999998
 40
0.9999999999999998
 40
0.9999999999999998
 40
0.9999999999999998
 10
9.921752083162965
 20
20.64262841368866
 30
0.0
 10
9.918969154886188
 20
20.64297269417139
 30
0.0
 10
9.913997283520739
 20
20.64358777228466
 30
0.0
 10
9.908989075339743
 20
20.64357828594013
 30
0.0
 10
9.90678413440732
 20
20.64357410943057
 30
0.0
  0
LINE
  5
1EA
330
1F
100
AcDbEntity
  8
Object
  6
Continuous
370
    15
100
AcDbLine
 10
9.90678413440732
 20
20.64357410943057
 30
0.0
 11
9.902024521474109
 21
20.64357410943057
 31
0.0
  0
LINE
  5
1EB
330
1F
100
AcDbEntity
  8
Object
  6
Continuous
370
    15
100
AcDbLine
 10
9.902024521474109
 20
20.64357410943057
 30
0.0
 11
9.902024521474109
 21
20.61383045303182
 31
0.0
  0
SPLINE
  5
1EC
330
1F
100
AcDbEntity
  8
Object
  6
Continuous
370
    15
100
AcDbSpline
210
0.0
220
0.0
230
1.0
 70
     8
 71
     3
 72
    11
 73
     7
 74
     0
 42
0.0000000001
 43
0.0000000001
 40
0.0
 40
0.0
 40
0.0
 40
0.0
 40
0.4993602229349392
 40
0.7487413155488852
 40
0.874404669407631
 40
1.0
 40
1.0
 40
1.0
 40
1.0
 10
9.912248880444774
 20
20.61383045303182
 30
0.0
 10
9.917476717373297
 20
20.61383645546301
 30
0.0
 10
9.925315342316894
 20
20.61384545551551
 30
0.0
 10
9.932211901119027
 20
20.6199852542759
 30
0.0
 10
9.934517541344824
 20
20.62453846415169
 30
0.0
 10
9.934735888510717
 20
20.62706856448238
 30
0.0
 10
9.934845032537097
 20
20.62833327216068
 30
0.0
  0
LINE
  5
1ED
330
1F
100
AcDbEntity
  8
Object
  6
Continuous
370
    15
100
AcDbLine
 10
9.96561426285818
 20
20.65075365315853
 30
0.0
 11
9.980261698609062
 21
20.65064101445974
 31
0.0
  0
LINE
  5
1EE
330
1F
100
AcDbEntity
  8
Object
  6
Continuous
370
    15
100
AcDbLine
 10
9.96561426285818
 20
20.67742027843674
 30
0.0
 11
9.96561426285818
 21
20.65075365315853
 31
0.0
  0
SPLINE
  5
1EF
330
1F
100
AcDbEntity
  8
Object
  6
Continuous
370
    15
100
AcDbSpline
210
0.0
220
0.0
230
1.0
 70
     8
 71
     3
 72
    12
 73
     8
 74
     0
 42
0.0000000001
 43
0.0000000001
 40
0.0
 40
0.0
 40
0.0
 40
0.0
 40
0.1253158856330941
 40
0.2506287036613415
 40
0.3759631365071357
 40
0.5012869300027329
 40
1.0
 40
1.0
 40
1.0
 40
1.0
 10
10.00151169885641
 20
20.66424683061753
 30
0.0
 10
10.00142519808143
 20
20.66541861994175
 30
0.0
 10
10.00125219864892
 20
20.667762169906
 30
0.0
 10
9.999661259432123
 20
20.67095674554993
 30
0.0
 10
9.997410343764531
 20
20.67366493720257
 30
0.0
 10
9.991478075498621
 20
20.67757628648887
 30
0.0
 10
9.985439847967805
 20
20.67748957548348
 30
0.0
 10
9.980614262869544
 20
20.67742027843674
 30
0.0
  0
LINE
  5
1F0
330
1F
100
AcDbEntity
  8
Object
  6
Continuous
370
    15
100
AcDbLine
 10
9.980614262869544
 20
20.67742027843674
 30
0.0
 11
9.96561426285818
 21
20.67742027843674
 31
0.0
  0
SPLINE
  5
1F1
330
1F
100
AcDbEntity
  8
Object
  6
Continuous
370
    15
100
AcDbSpline
210
0.0
220
0.0
230
1.0
 70
     8
 71
     3
 72
    11
 73
     7
 74
     0
 42
0.0000000001
 43
0.0000000001
 40
0.0
 40
0.0
 40
0.0
 40
0.0
 40
0.4998303756880168
 40
0.6254996616985182
 40
0.7512126484409816
 40
1.0
 40
1.0
 40
1.0
 40
1.0
 10
9.980261698609062
 20
20.65064101445974
 30
0.0
 10
9.985175502575003
 20
20.65065658622518
 30
0.0
 10
9.991324754136828
 20
20.65067607310409
 30
0.0
 10
9.997390847652251
 20
20.65458162970851
 30
0.0
 10
10.00056719709411
 20
20.65825791270284
 30
0.0
 10
10.00113469784098
 20
20.66185633414064
 30
0.0
 10
10.00151169885641
 20
20.66424683061753
 30
0.0
  0
LINE
  5
1F2
330
1F
100
AcDbEntity
  8
Object
  6
Continuous
370
    15
100
AcDbLine
 10
10.15125529733892
 20
20.64423116850683
 30
0.0
 11
10.15125529733892
 21
20.60562542781697
 31
0.0
  0
LINE
  5
1F3
330
1F
100
AcDbEntity
  8
Object
  6
Continuous
370
    15
100
AcDbLine
 10
10.18835464209745
 20
20.60562542781697
 30
0.0
 11
10.15125529733892
 21
20.64423116850683
 31
0.0
  0
LINE
  5
1F4
330
1F
100
AcDbEntity
  8
Object
  6
Continuous
370
    15
100
AcDbLine
 10
10.19792194657513
 20
20.60562542781697
 30
0.0
 11
10.18835464209745
 21
20.60562542781697
 31
0.0
  0
LINE
  5
1F5
330
1F
100
AcDbEntity
  8
Object
  6
Continuous
370
    15
100
AcDbLine
 10
10.15553413790938
 20
20.64972758501176
 30
0.0
 11
10.19792194657513
 21
20.60562542781697
 31
0.0
  0
LINE
  5
1F6
330
1F
100
AcDbEntity
  8
Object
  6
Continuous
370
    15
100
AcDbLine
 10
9.596934245903007
 20
20.61186983568104
 30
0.0
 11
9.965438202247206
 21
20.54852875406929
 31
0.0
  0
LINE
  5
1F7
330
1F
100
AcDbEntity
  8
Object
  6
Continuous
370
    15
100
AcDbLine
 10
10.00971682490343
 20
20.60562542781697
 30
0.0
 11
10.0008386212152
 21
20.60562542781697
 31
0.0
  0
ARC
  5
1F8
330
1F
100
AcDbEntity
  8
Object
  6
Continuous
370
    15
100
AcDbCircle
 10
9.602338202247221
 20
20.64330905979652
 30
0.0
 40
0.0318999999999993
100
AcDbArc
 50
99.75309875870662
 51
260.2469012412941
  0
SPLINE
  5
1F9
330
1F
100
AcDbEntity
  8
Object
  6
Continuous
370
    15
100
AcDbSpline
210
0.0
220
0.0
230
1.0
 70
     8
 71
     3
 72
    11
 73
     7
 74
     0
 42
0.0000000001
 43
0.0000000001
 40
0.0
 40
0.0
 40
0.0
 40
0.0
 40
0.3393252478426431
 40
0.5594676034696125
 40
0.7797261286210514
 40
1.0
 40
1.0
 40
1.0
 40
1.0
 10
10.12138349242055
 20
20.66613822210134
 30
0.0
 10
10.11877183997637
 20
20.66886158055643
 30
0.0
 10
10.11446583874795
 20
20.67335175874958
 30
0.0
 10
10.10665068621728
 20
20.67714382400797
 30
0.0
 10
10.09960566098238
 20
20.6791494816704
 30
0.0
 10
10.09474393172276
 20
20.679363985673
 30
0.0
 10
10.09231298241223
 20
20.6794712414105
 30
0.0
  0
LINE
  5
1FA
330
1F
100
AcDbEntity
  8
Object
  6
Continuous
370
    15
100
AcDbLine
 10
10.12766553818316
 20
20.67094589989597
 30
0.0
 11
10.12138349242055
 21
20.66613822210134
 31
0.0
  0
LINE
  5
1FB
330
1F
100
AcDbEntity
  8
Object
  6
Continuous
370
    15
100
AcDbLine
 10
9.734845024412592
 20
20.68562530365158
 30
0.0
 11
9.750454009096268
 21
20.68562530365158
 31
0.0
  0
LINE
  5
1FC
330
1F
100
AcDbEntity
  8
Object
  6
Continuous
370
    15
100
AcDbLine
 10
10.15125529733892
 20
20.60562542781697
 30
0.0
 11
10.14407580861032
 21
20.60562542781697
 31
0.0
  0
LINE
  5
1FD
330
1F
100
AcDbEntity
  8
Object
  6
Continuous
370
    15
100
AcDbLine
 10
10.33394215859137
 20
20.67474804263996
 30
0.0
 11
9.965438202247206
 21
20.73808912425171
 31
0.0
  0
SPLINE
  5
1FE
330
1F
100
AcDbEntity
  8
Object
  6
Continuous
370
    15
100
AcDbSpline
210
0.0
220
0.0
230
1.0
 70
     8
 71
     3
 72
     9
 73
     5
 74
     0
 42
0.0000000001
 43
0.0000000001
 40
0.0
 40
0.0
 40
0.0
 40
0.0
 40
0.5590345615846805
 40
0.9999999999999998
 40
0.9999999999999998
 40
0.9999999999999998
 40
0.9999999999999998
 10
10.05986105646632
 20
20.61756454322863
 30
0.0
 10
10.05655135898538
 20
20.62240976228489
 30
0.0
 10
10.05063097819254
 20
20.63107688125967
 30
0.0
 10
10.04999657629676
 20
20.6414954696428
 30
0.0
 10
10.04971682698666
 20
20.64608970703684
 30
0.0
  0
LINE
  5
1FF
330
1F
100
AcDbEntity
  8
Object
  6
Continuous
370
    15
100
AcDbLine
 10
9.734845024412592
 20
20.60562542781697
 30
0.0
 11
9.734845024412592
 21
20.68562530365158
 31
0.0
  0
LINE
  5
200
330
1F
100
AcDbEntity
  8
Object
  6
Continuous
370
    15
100
AcDbLine
 10
9.965438202247206
 20
20.73808912425171
 30
0.0
 11
9.596934245903007
 21
20.67474804263996
 31
0.0
  0
LINE
  5
201
330
1F
100
AcDbEntity
  8
Object
  6
Continuous
370
    15
100
AcDbLine
 10
10.15125529733892
 20
20.65516064224862
 30
0.0
 11
10.18460463875115
 21
20.68562530365158
 31
0.0
  0
LINE
  5
202
330
1F
100
AcDbEntity
  8
Object
  6
Continuous
370
    15
100
AcDbLine
 10
10.15125529733892
 20
20.68562530365158
 30
0.0
 11
10.15125529733892
 21
20.65516064224862
 31
0.0
  0
ARC
  5
203
330
1F
100
AcDbEntity
  8
Object
  6
Continuous
370
    15
100
AcDbCircle
 10
10.32853820224719
 20
20.64330905979652
 30
0.0
 40
0.0318999999999993
100
AcDbArc
 50
279.7530987587074
 51
80.24690124129337
  0
LINE
  5
204
330
1F
100
AcDbEntity
  8
Object
  6
Continuous
370
    15
100
AcDbLine
 10
10.19484502545332
 20
20.68562530365158
 30
0.0
 11
10.15553413790938
 21
20.64972758501176
 31
0.0
  0
LINE
  5
205
330
1F
100
AcDbEntity
  8
Object
  6
Continuous
370
    15
100
AcDbLine
 10
9.75647964782091
 20
20.60562542781697
 30
0.0
 11
9.734845024412592
 21
20.60562542781697
 31
0.0
  0
SPLINE
  5
206
330
1F
100
AcDbEntity
  8
Object
  6
Continuous
370
    15
100
AcDbSpline
210
0.0
220
0.0
230
1.0
 70
     8
 71
     3
 72
    11
 73
     7
 74
     0
 42
0.0000000001
 43
0.0000000001
 40
0.0
 40
0.0
 40
0.0
 40
0.0
 40
0.2791395009756465
 40
0.5586542190145524
 40
0.7790585085101483
 40
1.0
 40
1.0
 40
1.0
 40
1.0
 10
9.782024524390982
 20
20.62833327216068
 30
0.0
 10
9.781550215851124
 20
20.6247476550699
 30
0.0
 10
9.780600961209698
 20
20.61757160113078
 30
0.0
 10
9.773403340571746
 20
20.60996552500107
 30
0.0
 10
9.764930483146315
 20
20.60610647767819
 30
0.0
 10
9.759298877841972
 20
20.60578590783559
 30
0.0
 10
9.75647964782091
 20
20.60562542781697
 30
0.0
  0
LINE
  5
207
330
1F
100
AcDbEntity
  8
Object
  6
Continuous
370
    15
100
AcDbLine
 10
9.980325801514373
 20
20.64254804128379
 30
0.0
 11
10.00971682490343
 21
20.60562542781697
 31
0.0
  0
SPLINE
  5
208
330
1F
100
AcDbEntity
  8
Object
  6
Continuous
370
    15
100
AcDbSpline
210
0.0
220
0.0
230
1.0
 70
     8
 71
     3
 72
    11
 73
     7
 74
     0
 42
0.0000000001
 43
0.0000000001
 40
0.0
 40
0.0
 40
0.0
 40
0.0
 40
0.1871143188337631
 40
0.3739777782185547
 40
0.560909583302732
 40
1.0
 40
1.0
 40
1.0
 40
1.0
 10
10.00869118758501
 20
20.66423099080051
 30
0.0
 10
10.0084814163286
 20
20.66170097530138
 30
0.0
 10
10.0080621550508
 20
20.65664433623111
 30
0.0
 10
10.00410680262091
 20
20.64992385741456
 30
0.0
 10
9.995090520906353
 20
20.64320167452429
 30
0.0
 10
9.98641252563728
 20
20.64281750019505
 30
0.0
 10
9.980325801514373
 20
20.64254804128379
 30
0.0
  0
SPLINE
  5
209
330
1F
100
AcDbEntity
  8
Object
  6
Continuous
370
    15
100
AcDbSpline
210
0.0
220
0.0
230
1.0
 70
     8
 71
     3
 72
    11
 73
     7
 74
     0
 42
0.0000000001
 43
0.0000000001
 40
0.0
 40
0.0
 40
0.0
 40
0.0
 40
0.2798000134604723
 40
0.5595015173740519
 40
0.779625736407065
 40
1.0
 40
1.0
 40
1.0
 40
1.0
 10
9.992569391117049
 20
20.68453528957685
 30
0.0
 10
9.995079221692433
 20
20.68370271950082
 30
0.0
 10
10.00009799920396
 20
20.68203787247276
 30
0.0
 10
10.00537938774273
 20
20.67664709105116
 30
0.0
 10
10.0082940621545
 20
20.6704393789818
 30
0.0
 10
10.0085587623567
 20
20.66630123651934
 30
0.0
 10
10.00869118758501
 20
20.66423099080051
 30
0.0
  0
SPLINE
  5
20A
330
1F
100
AcDbEntity
  8
Object
  6
Continuous
370
    15
100
AcDbSpline
210
0.0
220
0.0
230
1.0
 70
     8
 71
     3
 72
     9
 73
     5
 74
     0
 42
0.0000000001
 43
0.0000000001
 40
0.0
 40
0.0
 40
0.0
 40
0.0
 40
0.5602393039115233
 40
1.0
 40
1.0
 40
1.0
 40
1.0
 10
9.974444391175678
 20
20.68562530365158
 30
0.0
 10
9.977843209173315
 20
20.68563620182409
 30
0.0
 10
9.983909934542111
 20
20.68565565453372
 30
0.0
 10
9.989924445563604
 20
20.68487749399641
 30
0.0
 10
9.992569391117049
 20
20.68453528957685
 30
0.0
  0
LINE
  5
20B
330
1F
100
AcDbEntity
  8
Object
  6
Continuous
370
    15
100
AcDbLine
 10
9.958434775651372
 20
20.68562530365158
 30
0.0
 11
9.974444391175678
 21
20.68562530365158
 31
0.0
  0
LINE
  5
20C
330
1F
100
AcDbEntity
  8
Object
  6
Continuous
370
    15
100
AcDbLine
 10
9.958434775651372
 20
20.60562542781697
 30
0.0
 11
9.958434775651372
 21
20.68562530365158
 31
0.0
  0
LINE
  5
20D
330
1F
100
AcDbEntity
  8
Object
  6
Continuous
370
    15
100
AcDbLine
 10
9.965438202247206
 20
20.54852875406929
 30
0.0
 11
10.33394215859137
 21
20.61186983568104
 31
0.0
  0
LINE
  5
20E
330
1F
100
AcDbEntity
  8
Object
  6
Continuous
370
    15
100
AcDbLine
 10
10.0008386212152
 20
20.60562542781697
 30
0.0
 11
9.97144759610741
 21
20.64254804128379
 31
0.0
  0
LINE
  5
20F
330
1F
100
AcDbEntity
  8
Object
  6
Continuous
370
    15
100
AcDbLine
 10
10.18460463875115
 20
20.68562530365158
 30
0.0
 11
10.19484502545332
 21
20.68562530365158
 31
0.0
  0
LINE
  5
210
330
1F
100
AcDbEntity
  8
Object
  6
Continuous
370
    15
100
AcDbLine
 10
9.916479646987266
 20
20.60562542781697
 30
0.0
 11
9.894845032745509
 21
20.60562542781697
 31
0.0
  0
SPLINE
  5
211
330
1F
100
AcDbEntity
  8
Object
  6
Continuous
370
    15
100
AcDbSpline
210
0.0
220
0.0
230
1.0
 70
     8
 71
     3
 72
    11
 73
     7
 74
     0
 42
0.0000000001
 43
0.0000000001
 40
0.0
 40
0.0
 40
0.0
 40
0.0
 40
0.2803834998451691
 40
0.5596068979585557
 40
0.7797553864847502
 40
1.0
 40
1.0
 40
1.0
 40
1.0
 10
9.926623876466928
 20
20.64878247592974
 30
0.0
 10
9.929021291156352
 20
20.64781026823274
 30
0.0
 10
9.933806201103656
 20
20.64586987540011
 30
0.0
 10
9.938847339388406
 20
20.64051087257098
 30
0.0
 10
9.941583037054682
 20
20.63439582122503
 30
0.0
 10
9.941877336921901
 20
20.63035441588916
 30
0.0
 10
9.942024518974058
 20
20.62833327216068
 30
0.0
  0
SPLINE
  5
212
330
1F
100
AcDbEntity
  8
Object
  6
Continuous
370
    15
100
AcDbSpline
210
0.0
220
0.0
230
1.0
 70
     8
 71
     3
 72
    10
 73
     6
 74
     0
 42
0.0000000001
 43
0.0000000001
 40
0.0
 40
0.0
 40
0.0
 40
0.0
 40
0.2808622515981497
 40
0.5615420278918979
 40
1.0
 40
1.0
 40
1.0
 40
1.0
 10
9.935870672147155
 20
20.66580147932476
 30
0.0
 10
9.935734711882339
 20
20.66391349484187
 30
0.0
 10
9.935462879685655
 20
20.66013875249356
 30
0.0
 10
9.932823833346533
 20
20.65372392664027
 30
0.0
 10
9.928972209716979
 20
20.65065412975449
 30
0.0
 10
9.926623876466928
 20
20.64878247592974
 30
0.0
  0
SPLINE
  5
213
330
1F
100
AcDbEntity
  8
Object
  6
Continuous
370
    15
100
AcDbSpline
210
0.0
220
0.0
230
1.0
 70
     8
 71
     3
 72
    11
 73
     7
 74
     0
 42
0.0000000001
 43
0.0000000001
 40
0.0
 40
0.0
 40
0.0
 40
0.0
 40
0.2813170401070489
 40
0.5599250608669589
 40
0.7799409111232086
 40
0.9999999999999998
 40
0.9999999999999998
 40
0.9999999999999998
 40
0.9999999999999998
 10
9.910454008262625
 20
20.68562530365158
 30
0.0
 10
9.913880503576468
 20
20.68555242757857
 30
0.0
 10
9.920700497830759
 20
20.68540737721261
 30
0.0
 10
9.929719310641392
 20
20.68132917524399
 30
0.0
 10
9.934970226025964
 20
20.67385066956511
 30
0.0
 10
9.935570503780422
 20
20.66848471847822
 30
0.0
 10
9.935870672147155
 20
20.66580147932476
 30
0.0
  0
LINE
  5
214
330
1F
100
AcDbEntity
  8
Object
  6
Continuous
370
    15
100
AcDbLine
 10
9.894845032745509
 20
20.68562530365158
 30
0.0
 11
9.910454008262625
 21
20.68562530365158
 31
0.0
  0
LINE
  5
215
330
1F
100
AcDbEntity
  8
Object
  6
Continuous
370
    15
100
AcDbLine
 10
9.894845032745509
 20
20.60562542781697
 30
0.0
 11
9.894845032745509
 21
20.68562530365158
 31
0.0
  0
SPLINE
  5
216
330
1F
100
AcDbEntity
  8
Object
  6
Continuous
370
    15
100
AcDbSpline
210
0.0
220
0.0
230
1.0
 70
     8
 71
     3
 72
    11
 73
     7
 74
     0
 42
0.0000000001
 43
0.0000000001
 40
0.0
 40
0.0
 40
0.0
 40
0.0
 40
0.2798550639445635
 40
0.5595181691875984
 40
0.7796862669720947
 40
0.9999999999999998
 40
0.9999999999999998
 40
0.9999999999999998
 40
0.9999999999999998
 10
10.09231298241223
 20
20.6794712414105
 30
0.0
 10
10.08720405022615
 20
20.67888691225102
 30
0.0
 10
10.07698969018216
 20
20.67771865473621
 30
0.0
 10
10.065077096201
 20
20.66903580000955
 30
0.0
 10
10.05798796980025
 20
20.65761745770562
 30
0.0
 10
10.05726028060818
 20
20.64957023055199
 30
0.0
 10
10.05689631571526
 20
20.64554528665936
 30
0.0
  0
SPLINE
  5
217
330
1F
100
AcDbEntity
  8
Object
  6
Continuous
370
    15
100
AcDbSpline
210
0.0
220
0.0
230
1.0
 70
     8
 71
     3
 72
    11
 73
     7
 74
     0
 42
0.0000000001
 43
0.0000000001
 40
0.0
 40
0.0
 40
0.0
 40
0.0
 40
0.2796644496111862
 40
0.5593516150312423
 40
0.7796352612221861
 40
1.0
 40
1.0
 40
1.0
 40
1.0
 10
9.836511698283832
 20
20.60357387818332
 30
0.0
 10
9.830312863134107
 20
20.60426005439625
 30
0.0
 10
9.817914689332852
 20
20.60563246255695
 30
0.0
 10
9.804123278580027
 20
20.6169401700829
 30
0.0
 10
9.79562372877157
 20
20.63067399195917
 30
0.0
 10
9.794762768323566
 20
20.64040572688268
 30
0.0
 10
9.794332208878227
 20
20.64527248981073
 30
0.0
  0
SPLINE
  5
218
330
1F
100
AcDbEntity
  8
Object
  6
Continuous
370
    15
100
AcDbSpline
210
0.0
220
0.0
230
1.0
 70
     8
 71
     3
 72
    11
 73
     7
 74
     0
 42
0.0000000001
 43
0.0000000001
 40
0.0
 40
0.0
 40
0.0
 40
0.0
 40
0.2796297715519631
 40
0.5593428027404287
 40
0.7795974791651331
 40
1.0
 40
1.0
 40
1.0
 40
1.0
 10
9.878434771484913
 20
20.64565733869826
 30
0.0
 10
9.877731248506661
 20
20.63945011455545
 30
0.0
 10
9.87632399307651
 20
20.62703381807169
 30
0.0
 10
9.864929817807723
 20
20.61327103486662
 30
0.0
 10
9.851138161442227
 20
20.60482016762932
 30
0.0
 10
9.841388276394356
 20
20.60398940090853
 30
0.0
 10
9.836511698283832
 20
20.60357387818332
 30
0.0
  0
SPLINE
  5
219
330
1F
100
AcDbEntity
  8
Object
  6
Continuous
370
    15
100
AcDbSpline
210
0.0
220
0.0
230
1.0
 70
     8
 71
     3
 72
    11
 73
     7
 74
     0
 42
0.0000000001
 43
0.0000000001
 40
0.0
 40
0.0
 40
0.0
 40
0.0
 40
0.2797676902439289
 40
0.5593583807373732
 40
0.7795764161202343
 40
1.0
 40
1.0
 40
1.0
 40
1.0
 10
9.835870671522362
 20
20.68767626662535
 30
0.0
 10
9.842139496400481
 20
20.68701860743849
 30
0.0
 10
9.85467318007887
 20
20.68570370514396
 30
0.0
 10
9.868691963021255
 20
20.67435039673487
 30
0.0
 10
9.877200099454885
 20
20.66041331650107
 30
0.0
 10
9.878023086173872
 20
20.65057752735058
 30
0.0
 10
9.878434771484913
 20
20.64565733869826
 30
0.0
  0
SPLINE
  5
21A
330
1F
100
AcDbEntity
  8
Object
  6
Continuous
370
    15
100
AcDbSpline
210
0.0
220
0.0
230
1.0
 70
     8
 71
     3
 72
    11
 73
     7
 74
     0
 42
0.0000000001
 43
0.0000000001
 40
0.0
 40
0.0
 40
0.0
 40
0.0
 40
0.2791395089337171
 40
0.5586542489970592
 40
0.7790586107332156
 40
1.0
 40
1.0
 40
1.0
 40
1.0
 10
9.942024518974058
 20
20.62833327216068
 30
0.0
 10
9.941550211355348
 20
20.62474765506141
 30
0.0
 10
9.940600958533572
 20
20.61757160092477
 30
0.0
 10
9.933403336944159
 20
20.60996552419278
 30
0.0
 10
9.924930479729022
 20
20.60610647870552
 30
0.0
 10
9.919298875404813
 20
20.6057859081361
 30
0.0
 10
9.916479646987266
 20
20.60562542781697
 30
0.0
  0
LINE
  5
21B
330
1F
100
AcDbEntity
  8
Object
  6
Continuous
370
    15
100
AcDbLine
 10
9.97144759610741
 20
20.64254804128379
 30
0.0
 11
9.96561426285818
 21
20.64254804128379
 31
0.0
  0
LINE
  5
21C
330
1F
100
AcDbEntity
  8
Object
  6
Continuous
370
    15
100
AcDbLine
 10
10.03330657030934
 20
20.60562542781697
 30
0.0
 11
10.02612708158074
 21
20.60562542781697
 31
0.0
  0
SPLINE
  5
21D
330
1F
100
AcDbEntity
  8
Object
  6
Continuous
370
    15
100
AcDbSpline
210
0.0
220
0.0
230
1.0
 70
     8
 71
     3
 72
    11
 73
     7
 74
     0
 42
0.0000000001
 43
0.0000000001
 40
0.0
 40
0.0
 40
0.0
 40
0.0
 40
0.2795157568482946
 40
0.559082151594498
 40
0.77937564437777
 40
1.0
 40
1.0
 40
1.0
 40
1.0
 10
10.04971682698666
 20
20.64608970703684
 30
0.0
 10
10.05044738218132
 20
20.65236037253749
 30
0.0
 10
10.05190862492018
 20
20.66490283955104
 30
0.0
 10
10.06374333058108
 20
20.67863691788585
 30
0.0
 10
10.07798927883968
 20
20.68658286826202
 30
0.0
 10
10.08783509334686
 20
20.68731161822064
 30
0.0
 10
10.09276169472867
 20
20.68767626662535
 30
0.0
  0
SPLINE
  5
21E
330
1F
100
AcDbEntity
  8
Object
  6
Continuous
370
    15
100
AcDbSpline
210
0.0
220
0.0
230
1.0
 70
     8
 71
     3
 72
    11
 73
     7
 74
     0
 42
0.0000000001
 43
0.0000000001
 40
0.0
 40
0.0
 40
0.0
 40
0.0
 40
0.2803832905194378
 40
0.5596067619009798
 40
0.7797553633450772
 40
1.0
 40
1.0
 40
1.0
 40
1.0
 10
9.76662387730057
 20
20.64878247592974
 30
0.0
 10
9.769021289545412
 20
20.64781026775885
 30
0.0
 10
9.773806197022567
 20
20.64586987300351
 30
0.0
 10
9.778847333850931
 20
20.64051087156902
 30
0.0
 10
9.781583041276476
 20
20.63439582269301
 30
0.0
 10
9.781877341960395
 20
20.63035441610386
 30
0.0
 10
9.782024524390982
 20
20.62833327216068
 30
0.0
  0
SPLINE
  5
21F
330
1F
100
AcDbEntity
  8
Object
  6
Continuous
370
    15
100
AcDbSpline
210
0.0
220
0.0
230
1.0
 70
     8
 71
     3
 72
    10
 73
     6
 74
     0
 42
0.0000000001
 43
0.0000000001
 40
0.0
 40
0.0
 40
0.0
 40
0.0
 40
0.2808622698427188
 40
0.561542066143552
 40
1.0
 40
1.0
 40
1.0
 40
1.0
 10
9.77587068214736
 20
20.66580147932476
 30
0.0
 10
9.775734719213767
 20
20.66391349483014
 30
0.0
 10
9.775462881680406
 20
20.66013875244644
 30
0.0
 10
9.772823834057875
 20
20.65372392721964
 30
0.0
 10
9.768972210414036
 20
20.650654129902
 30
0.0
 10
9.76662387730057
 20
20.64878247592974
 30
0.0
  0
SPLINE
  5
220
330
1F
100
AcDbEntity
  8
Object
  6
Continuous
370
    15
100
AcDbSpline
210
0.0
220
0.0
230
1.0
 70
     8
 71
     3
 72
    11
 73
     7
 74
     0
 42
0.0000000001
 43
0.0000000001
 40
0.0
 40
0.0
 40
0.0
 40
0.0
 40
0.2813170579455622
 40
0.5599249834043114
 40
0.7799408115476556
 40
1.0
 40
1.0
 40
1.0
 40
1.0
 10
9.750454009096268
 20
20.68562530365158
 30
0.0
 10
9.753880504323898
 20
20.68555242777053
 30
0.0
 10
9.760700497030621
 20
20.68540737781593
 30
0.0
 10
9.769719309403191
 20
20.68132917476287
 30
0.0
 10
9.77497021600746
 20
20.67385066713242
 30
0.0
 10
9.775570507051963
 20
20.66848471816182
 30
0.0
 10
9.77587068214736
 20
20.66580147932476
 30
0.0
  0
LINE
  5
221
330
1F
100
AcDbEntity
  8
Object
  6
Continuous
370
    15
100
AcDbLine
 10
10.12138349242055
 20
20.62511250936721
 30
0.0
 11
10.12766553818316
 21
20.62035293768353
 31
0.0
  0
SPLINE
  5
222
330
1F
100
AcDbEntity
  8
Object
  6
Continuous
370
    15
100
AcDbSpline
210
0.0
220
0.0
230
1.0
 70
     8
 71
     3
 72
     9
 73
     5
 74
     0
 42
0.0000000001
 43
0.0000000001
 40
0.0
 40
0.0
 40
0.0
 40
0.0
 40
0.5587698746348508
 40
1.0
 40
1.0
 40
1.0
 40
1.0
 10
10.09280977333993
 20
20.61177890339817
 30
0.0
 10
10.09899572632561
 20
20.61253367828182
 30
0.0
 10
10.1100663893418
 20
20.61388445776712
 30
0.0
 10
10.11791878076742
 20
20.62167506067118
 30
0.0
 10
10.12138349242055
 20
20.62511250936721
 30
0.0
  0
SPLINE
  5
223
330
1F
100
AcDbEntity
  8
Object
  6
Continuous
370
    15
100
AcDbSpline
210
0.0
220
0.0
230
1.0
 70
     8
 71
     3
 72
    11
 73
     7
 74
     0
 42
0.0000000001
 43
0.0000000001
 40
0.0
 40
0.0
 40
0.0
 40
0.0
 40
0.279435118534677
 40
0.5589216942747455
 40
0.7792838599976141
 40
1.0
 40
1.0
 40
1.0
 40
1.0
 10
10.05689631571526
 20
20.64554528665936
 30
0.0
 10
10.05750623672692
 20
20.64037071699226
 30
0.0
 10
10.05872619106551
 20
20.63002062477533
 30
0.0
 10
10.06875027003955
 20
20.61886614860477
 30
0.0
 10
10.08063578274591
 20
20.61263108473871
 30
0.0
 10
10.08874960597273
 20
20.61206311578055
 30
0.0
 10
10.09280977333993
 20
20.61177890339817
 30
0.0
  0
SPLINE
  5
224
330
1F
100
AcDbEntity
  8
Object
  6
Continuous
370
    15
100
AcDbSpline
210
0.0
220
0.0
230
1.0
 70
     8
 71
     3
 72
     9
 73
     5
 74
     0
 42
0.0000000001
 43
0.0000000001
 40
0.0
 40
0.0
 40
0.0
 40
0.0
 40
0.5595190706507776
 40
1.0
 40
1.0
 40
1.0
 40
1.0
 10
10.09276169472867
 20
20.68767626662535
 30
0.0
 10
10.1004425767209
 20
20.68682631465377
 30
0.0
 10
10.11417022676023
 20
20.68530723868986
 30
0.0
 10
10.12353884188589
 20
20.67533741645808
 30
0.0
 10
10.12766553818316
 20
20.67094589989597
 30
0.0
  0
SPLINE
  5
225
330
1F
100
AcDbEntity
  8
Object
  6
Continuous
370
    15
100
AcDbSpline
210
0.0
220
0.0
230
1.0
 70
     8
 71
     3
 72
    11
 73
     7
 74
     0
 42
0.0000000001
 43
0.0000000001
 40
0.0
 40
0.0
 40
0.0
 40
0.0
 40
0.2797339246131398
 40
0.5593273466660564
 40
0.779681843935534
 40
1.0
 40
1.0
 40
1.0
 40
1.0
 10
9.794332208878227
 20
20.64527248981073
 30
0.0
 10
9.795071089465411
 20
20.65144528659698
 30
0.0
 10
9.796548479520636
 20
20.66378777974556
 30
0.0
 10
9.807497424348357
 20
20.67784816186701
 30
0.0
 10
9.821318781119119
 20
20.68622591734236
 30
0.0
 10
9.831020308075082
 20
20.68719284344437
 30
0.0
 10
9.835870671522362
 20
20.68767626662535
 30
0.0
  0
LINE
  5
226
330
1F
100
AcDbEntity
  8
Object
  6
Continuous
370
    15
100
AcDbLine
 10
10.14407580861032
 20
20.60562542781697
 30
0.0
 11
10.14407580861032
 21
20.68562530365158
 31
0.0
  0
LINE
  5
227
330
1F
100
AcDbEntity
  8
Object
  6
Continuous
370
    15
100
AcDbLine
 10
10.03330657030934
 20
20.68562530365158
 30
0.0
 11
10.03330657030934
 21
20.60562542781697
 31
0.0
  0
LINE
  5
228
330
1F
100
AcDbEntity
  8
Object
  6
Continuous
370
    15
100
AcDbLine
 10
10.02612708158074
 20
20.68562530365158
 30
0.0
 11
10.03330657030934
 21
20.68562530365158
 31
0.0
  0
LINE
  5
229
330
1F
100
AcDbEntity
  8
Object
  6
Continuous
370
    15
100
AcDbLine
 10
10.02612708158074
 20
20.60562542781697
 30
0.0
 11
10.02612708158074
 21
20.68562530365158
 31
0.0
  0
LINE
  5
22A
330
1F
100
AcDbEntity
  8
Object
  6
Continuous
370
    15
100
AcDbLine
 10
10.14407580861032
 20
20.68562530365158
 30
0.0
 11
10.15125529733892
 21
20.68562530365158
 31
0.0
  0
LINE
  5
22B
330
1F
100
AcDbEntity
  8
Object
  6
Continuous
370
    15
100
AcDbLine
 10
9.96561426285818
 20
20.60562542781697
 30
0.0
 11
9.958434775651372
 21
20.60562542781697
 31
0.0
  0
SPLINE
  5
22C
330
1F
100
AcDbEntity
  8
Object
  6
Continuous
370
    15
100
AcDbSpline
210
0.0
220
0.0
230
1.0
 70
     8
 71
     3
 72
    10
 73
     6
 74
     0
 42
0.0000000001
 43
0.0000000001
 40
0.0
 40
0.0
 40
0.0
 40
0.0
 40
0.2804121671773232
 40
0.5607974416804384
 40
1.0
 40
1.0
 40
1.0
 40
1.0
 10
10.12766553818316
 20
20.62035293768353
 30
0.0
 10
10.12519877183779
 20
20.61752778822597
 30
0.0
 10
10.12026547572003
 20
20.61187776025426
 30
0.0
 10
10.10840336747006
 20
20.60507870355257
 30
0.0
 10
10.09874988405507
 20
20.60414423426933
 30
0.0
 10
10.09285785195119
 20
20.60357387818332
 30
0.0
  0
SPLINE
  5
22D
330
1F
100
AcDbEntity
  8
Object
  6
Continuous
370
    15
100
AcDbSpline
210
0.0
220
0.0
230
1.0
 70
     8
 71
     3
 72
     9
 73
     5
 74
     0
 42
0.0000000001
 43
0.0000000001
 40
0.0
 40
0.0
 40
0.0
 40
0.0
 40
0.559801205274491
 40
1.0
 40
1.0
 40
1.0
 40
1.0
 10
10.09285785195119
 20
20.60357387818332
 30
0.0
 10
10.08578177513312
 20
20.60417299166607
 30
0.0
 10
10.07314143647112
 20
20.60524321709092
 30
0.0
 10
10.0639202233626
 20
20.61379851250071
 30
0.0
 10
10.05986105646632
 20
20.61756454322863
 30
0.0
  0
LINE
  5
22E
330
1F
100
AcDbEntity
  8
Object
  6
Continuous
370
    15
100
AcDbLine
 10
9.96561426285818
 20
20.64254804128379
 30
0.0
 11
9.96561426285818
 21
20.60562542781697
 31
0.0
  0
LINE
  5
22F
330
1F
100
AcDbEntity
  8
Object
  6
Continuous
370
    15
100
AcDbLine
 10
5.965438250587965
 20
21.40660214819888
 30
0.0
 11
6.001438341378511
 21
21.40660214819888
 31
0.0
  0
SPLINE
  5
230
330
1F
100
AcDbEntity
  8
Object
  6
Continuous
370
    15
100
AcDbSpline
210
0.0
220
0.0
230
1.0
 70
     8
 71
     3
 72
    11
 73
     7
 74
     0
 42
0.0000000001
 43
0.0000000001
 40
0.0
 40
0.0
 40
0.0
 40
0.0
 40
0.2762936922882134
 40
0.5295529924493824
 40
0.7827520760452311
 40
1.0
 40
1.0
 40
1.0
 40
1.0
 10
6.001438341378511
 20
21.40660214819888
 30
0.0
 10
6.001989359278019
 20
21.40390098437254
 30
0.0
 10
6.003045457139542
 20
21.3987238506657
 30
0.0
 10
6.010760150718729
 20
21.39108385204792
 30
0.0
 10
6.020639747410116
 20
21.38401328837439
 30
0.0
 10
6.028026803186367
 20
21.37942696624465
 30
0.0
 10
6.03143807481903
 20
21.37730904659529
 30
0.0
  0
LINE
  5
231
330
1F
100
AcDbEntity
  8
Object
  6
Continuous
370
    15
100
AcDbLine
 10
13.96543815390641
 20
7.440015971394212
 30
0.0
 11
13.92943806311587
 21
7.440015971394212
 31
0.0
  0
SPLINE
  5
232
330
1F
100
AcDbEntity
  8
Object
  6
Continuous
370
    15
100
AcDbSpline
210
0.0
220
0.0
230
1.0
 70
     8
 71
     3
 72
    11
 73
     7
 74
     0
 42
0.0000000001
 43
0.0000000001
 40
0.0
 40
0.0
 40
0.0
 40
0.0
 40
0.2762936922882134
 40
0.5295529924493824
 40
0.7827520760452311
 40
1.0
 40
1.0
 40
1.0
 40
1.0
 10
13.92943806311587
 20
7.440015971394212
 30
0.0
 10
13.92888704521636
 20
7.442717135220553
 30
0.0
 10
13.92783094735484
 20
7.447894268927401
 30
0.0
 10
13.92011625377565
 20
7.455534267545179
 30
0.0
 10
13.91023665708426
 20
7.462604831218705
 30
0.0
 10
13.90284960130801
 20
7.467191153348444
 30
0.0
 10
13.89943832967535
 20
7.469309072997803
 30
0.0
  0
CIRCLE
  5
233
330
1F
100
AcDbEntity
  8
Object
  6
HIDDEN
370
     0
100
AcDbCircle
 10
8.015438202247192
 20
19.39830905979655
 30
0.0
 40
0.1100000000000004
  0
CIRCLE
  5
234
330
1F
100
AcDbEntity
  8
Object
  6
HIDDEN
370
     0
100
AcDbCircle
 10
11.91543820224719
 20
19.39830905979655
 30
0.0
 40
0.1099999999999987
  0
CIRCLE
  5
235
330
1F
100
AcDbEntity
  8
Object
  6
HIDDEN
370
     0
100
AcDbCircle
 10
11.91543820224719
 20
11.94830905979655
 30
0.0
 40
0.1099999999999987
  0
CIRCLE
  5
236
330
1F
100
AcDbEntity
  8
Object
  6
HIDDEN
370
     0
100
AcDbCircle
 10
8.015438202247192
 20
11.94830905979655
 30
0.0
 40
0.1100000000000004
  0
LINE
  5
237
330
1F
100
AcDbEntity
  8
Object
  6
Continuous
370
    15
100
AcDbLine
 10
22.33193023183417
 20
20.19330912426343
 30
0.0
 11
22.31193011621055
 21
20.19330912426343
 31
0.0
  0
LINE
  5
238
330
1F
100
AcDbEntity
  8
Object
  6
Continuous
370
    15
100
AcDbLine
 10
22.31193011621055
 20
18.69330895906
 30
0.0
 11
22.33193023183417
 21
18.69330895906
 31
0.0
  0
LINE
  5
239
330
1F
100
AcDbEntity
  8
Object
  6
Continuous
370
    15
100
AcDbLine
 10
22.33168002139129
 20
20.65064101445974
 30
0.0
 11
22.33193023183417
 21
20.65064101445974
 31
0.0
  0
CIRCLE
  5
23A
330
1F
100
AcDbEntity
  8
Object
  6
Continuous
370
    15
100
AcDbCircle
 10
22.89393009966021
 20
7.763309059796535
 30
0.0
 40
0.0325000000000006
  0
CIRCLE
  5
23B
330
1F
100
AcDbEntity
  8
Object
  6
Continuous
370
    15
100
AcDbCircle
 10
22.89393009966021
 20
7.763309059796535
 30
0.0
 40
0.1309999999999992
  0
CIRCLE
  5
23C
330
1F
100
AcDbEntity
  8
Object
  6
Continuous
370
    15
100
AcDbCircle
 10
22.89393009966021
 20
7.763309059796535
 30
0.0
 40
0.030638555067298
  0
SPLINE
  5
23D
330
1F
100
AcDbEntity
  8
Object
  6
Continuous
370
    15
100
AcDbSpline
210
0.0
220
0.0
230
1.0
 70
     8
 71
     3
 72
    11
 73
     7
 74
     0
 42
0.0000000001
 43
0.0000000001
 40
0.0
 40
0.0
 40
0.0
 40
0.0
 40
0.2499992820364732
 40
0.499997381358996
 40
0.7499966546372397
 40
1.0
 40
1.0
 40
1.0
 40
1.0
 10
26.80993010159755
 20
21.43730910013622
 30
0.0
 10
26.8146474294416
 20
21.43701433535611
 30
0.0
 10
26.82408206281262
 20
21.43642480719039
 30
0.0
 10
26.83598174918438
 20
21.43554170157109
 30
0.0
 10
26.8443067378619
 20
21.4346573367678
 30
0.0
 10
26.845388976831
 20
21.43406798117725
 30
0.0
 10
26.84593010072249
 20
21.43377330098207
 30
0.0
  0
LINE
  5
23E
330
1F
100
AcDbEntity
  8
Object
  6
Continuous
370
    15
100
AcDbLine
 10
26.84593010072249
 20
7.412844818611021
 30
0.0
 11
26.84593010072249
 21
21.43377330098207
 31
0.0
  0
SPLINE
  5
23F
330
1F
100
AcDbEntity
  8
Object
  6
Continuous
370
    15
100
AcDbSpline
210
0.0
220
0.0
230
1.0
 70
     8
 71
     3
 72
    11
 73
     7
 74
     0
 42
0.0000000001
 43
0.0000000001
 40
0.0
 40
0.0
 40
0.0
 40
0.0
 40
0.2500033453627604
 40
0.5000026186410042
 40
0.7500007179635269
 40
1.0
 40
1.0
 40
1.0
 40
1.0
 10
26.84593010072249
 20
7.412844818611021
 30
0.0
 10
26.845388976831
 20
7.41255013841585
 30
0.0
 10
26.8443067378619
 20
7.411960782825298
 30
0.0
 10
26.83598174918438
 20
7.411076418022005
 30
0.0
 10
26.82408206281262
 20
7.410193312402705
 30
0.0
 10
26.8146474294416
 20
7.409603784236981
 30
0.0
 10
26.80993010159755
 20
7.409309019456875
 30
0.0
  0
LINE
  5
240
330
1F
100
AcDbEntity
  8
Object
  6
Continuous
370
    15
100
AcDbLine
 10
23.11993003545986
 20
7.373309221996274
 30
0.0
 11
26.80993010159755
 21
7.373309221996274
 31
0.0
  0
LINE
  5
241
330
1F
100
AcDbEntity
  8
Object
  6
Continuous
370
    15
100
AcDbLine
 10
23.11993003545986
 20
7.409309019456875
 30
0.0
 11
23.11993003545986
 21
7.373309221996274
 31
0.0
  0
LINE
  5
242
330
1F
100
AcDbEntity
  8
Object
  6
Continuous
370
    15
100
AcDbLine
 10
26.80993010159755
 20
7.409309019456875
 30
0.0
 11
26.80993010159755
 21
7.373309221996274
 31
0.0
  0
LINE
  5
243
330
1F
100
AcDbEntity
  8
Object
  6
Continuous
370
    15
100
AcDbLine
 10
23.11993003545986
 20
21.47330889759683
 30
0.0
 11
23.11993003545986
 21
21.43730910013622
 31
0.0
  0
LINE
  5
244
330
1F
100
AcDbEntity
  8
Object
  6
Continuous
370
    15
100
AcDbLine
 10
23.11993003545986
 20
21.47330889759683
 30
0.0
 11
26.80993010159755
 21
21.47330889759683
 31
0.0
  0
LINE
  5
245
330
1F
100
AcDbEntity
  8
Object
  6
Continuous
370
    15
100
AcDbLine
 10
26.80993010159755
 20
21.47330889759683
 30
0.0
 11
26.80993010159755
 21
21.43730910013622
 31
0.0
  0
LINE
  5
246
330
1F
100
AcDbEntity
  8
Object
  6
Continuous
370
    15
100
AcDbLine
 10
23.08393023799926
 20
21.43377330098207
 30
0.0
 11
23.08393023799926
 21
7.412844818611021
 31
0.0
  0
SPLINE
  5
247
330
1F
100
AcDbEntity
  8
Object
  6
Continuous
370
    15
100
AcDbSpline
210
0.0
220
0.0
230
1.0
 70
     8
 71
     3
 72
    11
 73
     7
 74
     0
 42
0.0000000001
 43
0.0000000001
 40
0.0
 40
0.0
 40
0.0
 40
0.0
 40
0.2500037565586378
 40
0.5000028772804403
 40
0.7500013436213303
 40
1.0
 40
1.0
 40
1.0
 40
1.0
 10
23.08393023799926
 20
21.43377330098207
 30
0.0
 10
23.0844713480866
 20
21.43406798093458
 30
0.0
 10
23.08555355822745
 20
21.43465733537532
 30
0.0
 10
23.09387846466781
 20
21.43554170310132
 30
0.0
 10
23.10577813005972
 20
21.43642480491391
 30
0.0
 10
23.11521273246452
 20
21.43701433498743
 30
0.0
 10
23.11993003545986
 20
21.43730910013622
 30
0.0
  0
SPLINE
  5
248
330
1F
100
AcDbEntity
  8
Object
  6
Continuous
370
    15
100
AcDbSpline
210
0.0
220
0.0
230
1.0
 70
     8
 71
     3
 72
    11
 73
     7
 74
     0
 42
0.0000000001
 43
0.0000000001
 40
0.0
 40
0.0
 40
0.0
 40
0.0
 40
0.2499986563786698
 40
0.4999971227195598
 40
0.7499962434413624
 40
1.0
 40
1.0
 40
1.0
 40
1.0
 10
23.11993003545986
 20
7.409309019456875
 30
0.0
 10
23.11521273246452
 20
7.409603784605668
 30
0.0
 10
23.10577813005972
 20
7.410193314679188
 30
0.0
 10
23.09387846466781
 20
7.411076416491777
 30
0.0
 10
23.08555355822745
 20
7.411960784217784
 30
0.0
 10
23.0844713480866
 20
7.412550138658519
 30
0.0
 10
23.08393023799926
 20
7.412844818611021
 30
0.0
  0
SPLINE
  5
249
330
1F
100
AcDbEntity
  8
Object
  6
Continuous
370
    15
100
AcDbSpline
210
0.0
220
0.0
230
1.0
 70
     8
 71
     3
 72
    11
 73
     7
 74
     0
 42
0.0000000001
 43
0.0000000001
 40
0.0
 40
0.0
 40
0.0
 40
0.0
 40
0.249996747442357
 40
0.4999951232641463
 40
0.7500109495145764
 40
1.0
 40
1.0
 40
1.0
 40
1.0
 10
26.80993010159755
 20
7.391309120726575
 30
0.0
 10
26.81228876360682
 20
7.391579565725034
 30
0.0
 10
26.81700610298874
 20
7.392120457483521
 30
0.0
 10
26.82295612851221
 20
7.39628301339745
 30
0.0
 10
26.82711820564824
 20
7.402233188025024
 30
0.0
 10
26.82765947898468
 20
7.406950493185073
 30
0.0
 10
26.82793010116002
 20
7.409309019456875
 30
0.0
  0
LINE
  5
24A
330
1F
100
AcDbEntity
  8
Object
  6
Continuous
370
    15
100
AcDbLine
 10
26.84593010072249
 20
7.409309019456875
 30
0.0
 11
26.82793010116002
 21
7.409309019456875
 31
0.0
  0
SPLINE
  5
24B
330
1F
100
AcDbEntity
  8
Object
  6
Continuous
370
    15
100
AcDbSpline
210
0.0
220
0.0
230
1.0
 70
     8
 71
     3
 72
    11
 73
     7
 74
     0
 42
0.0000000001
 43
0.0000000001
 40
0.0
 40
0.0
 40
0.0
 40
0.0
 40
0.2500003116741869
 40
0.5000000950097551
 40
0.7500003979256534
 40
1.0
 40
1.0
 40
1.0
 40
1.0
 10
26.80993010159755
 20
7.373309221996274
 30
0.0
 10
26.81464743262442
 20
7.373850343388705
 30
0.0
 10
26.82408208470877
 20
7.37493258502999
 30
0.0
 10
26.83598173077318
 20
7.383257481164186
 30
0.0
 10
26.84430668525224
 20
7.395157083511514
 30
0.0
 10
26.84538896273808
 20
7.40459171188321
 30
0.0
 10
26.84593010072249
 20
7.409309019456875
 30
0.0
  0
LINE
  5
24C
330
1F
100
AcDbEntity
  8
Object
  6
Continuous
370
    15
100
AcDbLine
 10
26.84593010072249
 20
21.43730910013622
 30
0.0
 11
26.82793010116002
 21
21.43730910013622
 31
0.0
  0
SPLINE
  5
24D
330
1F
100
AcDbEntity
  8
Object
  6
Continuous
370
    15
100
AcDbSpline
210
0.0
220
0.0
230
1.0
 70
     8
 71
     3
 72
    11
 73
     7
 74
     0
 42
0.0000000001
 43
0.0000000001
 40
0.0
 40
0.0
 40
0.0
 40
0.0
 40
0.2499890504854236
 40
0.5000048767358536
 40
0.7500032525576429
 40
1.0
 40
1.0
 40
1.0
 40
1.0
 10
26.82793010116002
 20
21.43730910013622
 30
0.0
 10
26.82765947898468
 20
21.43966762640802
 30
0.0
 10
26.82711820564824
 20
21.44438493156808
 30
0.0
 10
26.82295612851221
 20
21.45033510619564
 30
0.0
 10
26.81700610298874
 20
21.45449766210957
 30
0.0
 10
26.81228876360682
 20
21.45503855386806
 30
0.0
 10
26.80993010159755
 20
21.45530899886652
 30
0.0
  0
SPLINE
  5
24E
330
1F
100
AcDbEntity
  8
Object
  6
Continuous
370
    15
100
AcDbSpline
210
0.0
220
0.0
230
1.0
 70
     8
 71
     3
 72
    11
 73
     7
 74
     0
 42
0.0000000001
 43
0.0000000001
 40
0.0
 40
0.0
 40
0.0
 40
0.0
 40
0.2499996020743466
 40
0.499999904990245
 40
0.7499996883258131
 40
1.0
 40
1.0
 40
1.0
 40
1.0
 10
26.84593010072249
 20
21.43730910013622
 30
0.0
 10
26.84538896273808
 20
21.44202640770989
 30
0.0
 10
26.84430668525224
 20
21.45146103608158
 30
0.0
 10
26.83598173077318
 20
21.46336063842891
 30
0.0
 10
26.82408208470877
 20
21.4716855345631
 30
0.0
 10
26.81464743262442
 20
21.47276777620439
 30
0.0
 10
26.80993010159755
 20
21.47330889759683
 30
0.0
  0
SPLINE
  5
24F
330
1F
100
AcDbEntity
  8
Object
  6
Continuous
370
    15
100
AcDbSpline
210
0.0
220
0.0
230
1.0
 70
     8
 71
     3
 72
    11
 73
     7
 74
     0
 42
0.0000000001
 43
0.0000000001
 40
0.0
 40
0.0
 40
0.0
 40
0.0
 40
0.2500000132620614
 40
0.5000001636234613
 40
0.7500003139848611
 40
1.0
 40
1.0
 40
1.0
 40
1.0
 10
23.08393023799926
 20
7.409309019456875
 30
0.0
 10
23.08447136217941
 20
7.404591714652941
 30
0.0
 10
23.08555361083646
 20
7.39515710245811
 30
0.0
 10
23.09387848307906
 20
7.383257465670419
 30
0.0
 10
23.10577810816351
 20
7.374932598983001
 30
0.0
 10
23.1152127292817
 20
7.373850347323489
 30
0.0
 10
23.11993003545986
 20
7.373309221996274
 30
0.0
  0
LINE
  5
250
330
1F
100
AcDbEntity
  8
Object
  6
Continuous
370
    15
100
AcDbLine
 10
23.08393023799926
 20
7.409309019456875
 30
0.0
 11
23.10193013672956
 21
7.409309019456875
 31
0.0
  0
SPLINE
  5
251
330
1F
100
AcDbEntity
  8
Object
  6
Continuous
370
    15
100
AcDbSpline
210
0.0
220
0.0
230
1.0
 70
     8
 71
     3
 72
    11
 73
     7
 74
     0
 42
0.0000000001
 43
0.0000000001
 40
0.0
 40
0.0
 40
0.0
 40
0.0
 40
0.249989408023329
 40
0.5000051553288922
 40
0.7500038096338363
 40
0.9999999999999998
 40
0.9999999999999998
 40
0.9999999999999998
 40
0.9999999999999998
 10
23.10193013672956
 20
7.409309019456873
 30
0.0
 10
23.10220074978772
 20
7.406950494240554
 30
0.0
 10
23.10274200441626
 20
7.402233195309944
 30
0.0
 10
23.10690404752468
 20
7.396283007955991
 30
0.0
 10
23.11285406045927
 20
7.392120463196478
 30
0.0
 10
23.11757138487521
 20
7.391579567328044
 30
0.0
 10
23.11993003545986
 20
7.391309120726575
 30
0.0
  0
SPLINE
  5
252
330
1F
100
AcDbEntity
  8
Object
  6
Continuous
370
    15
100
AcDbSpline
210
0.0
220
0.0
230
1.0
 70
     8
 71
     3
 72
    11
 73
     7
 74
     0
 42
0.0000000001
 43
0.0000000001
 40
0.0
 40
0.0
 40
0.0
 40
0.0
 40
0.2499996860151389
 40
0.4999998363765388
 40
0.7499999867379385
 40
1.0
 40
1.0
 40
1.0
 40
1.0
 10
23.11993003545986
 20
21.47330889759683
 30
0.0
 10
23.1152127292817
 20
21.47276777226961
 30
0.0
 10
23.10577810816351
 20
21.47168552061009
 30
0.0
 10
23.09387848307906
 20
21.46336065392268
 30
0.0
 10
23.08555361083646
 20
21.45146101713498
 30
0.0
 10
23.08447136217941
 20
21.44202640494015
 30
0.0
 10
23.08393023799926
 20
21.43730910013622
 30
0.0
  0
SPLINE
  5
253
330
1F
100
AcDbEntity
  8
Object
  6
Continuous
370
    15
100
AcDbSpline
210
0.0
220
0.0
230
1.0
 70
     8
 71
     3
 72
    11
 73
     7
 74
     0
 42
0.0000000001
 43
0.0000000001
 40
0.0
 40
0.0
 40
0.0
 40
0.0
 40
0.2499961903661636
 40
0.4999948446711079
 40
0.7500105919766709
 40
0.9999999999999998
 40
0.9999999999999998
 40
0.9999999999999998
 40
0.9999999999999998
 10
23.11993003545986
 20
21.45530899886652
 30
0.0
 10
23.11757138487521
 20
21.45503855226505
 30
0.0
 10
23.11285406045927
 20
21.45449765639662
 30
0.0
 10
23.10690404752468
 20
21.45033511163711
 30
0.0
 10
23.10274200441626
 20
21.44438492428315
 30
0.0
 10
23.10220074978772
 20
21.43966762535254
 30
0.0
 10
23.10193013672956
 20
21.43730910013622
 30
0.0
  0
LINE
  5
254
330
1F
100
AcDbEntity
  8
Object
  6
Continuous
370
    15
100
AcDbLine
 10
23.08393023799926
 20
21.43730910013622
 30
0.0
 11
23.10193013672956
 21
21.43730910013622
 31
0.0
  0
LINE
  5
255
330
1F
100
AcDbEntity
  8
Object
  6
Continuous
370
    15
100
AcDbLine
 10
26.84593010072249
 20
7.409309019456875
 30
0.0
 11
26.84593010072249
 21
7.412844818611021
 31
0.0
  0
LINE
  5
256
330
1F
100
AcDbEntity
  8
Object
  6
Continuous
370
    15
100
AcDbLine
 10
26.84593010072249
 20
21.43377330098207
 30
0.0
 11
26.84593010072249
 21
21.43730910013622
 31
0.0
  0
LINE
  5
257
330
1F
100
AcDbEntity
  8
Object
  6
Continuous
370
    15
100
AcDbLine
 10
23.08393023799926
 20
7.412844818611021
 30
0.0
 11
23.08393023799926
 21
7.409309019456875
 31
0.0
  0
LINE
  5
258
330
1F
100
AcDbEntity
  8
Object
  6
Continuous
370
    15
100
AcDbLine
 10
23.08393023799926
 20
21.43730910013622
 30
0.0
 11
23.08393023799926
 21
21.43377330098207
 31
0.0
  0
LINE
  5
259
330
1F
100
AcDbEntity
  8
Object
  6
Continuous
370
    15
100
AcDbLine
 10
22.31193011621055
 20
20.19330912426343
 30
0.0
 11
22.31193011621055
 21
18.69330895906
 31
0.0
  0
LINE
  5
25A
330
1F
100
AcDbEntity
  8
Object
  6
Continuous
370
    15
100
AcDbLine
 10
23.03193017204179
 20
21.49110933196469
 30
0.0
 11
23.03193017204179
 21
21.44330887082636
 31
0.0
  0
LINE
  5
25B
330
1F
100
AcDbEntity
  8
Object
  6
Continuous
370
    15
100
AcDbLine
 10
22.39793005606523
 20
21.44330887082636
 30
0.0
 11
22.02697092808341
 21
21.44330887082636
 31
0.0
  0
LINE
  5
25C
330
1F
100
AcDbEntity
  8
Object
  6
Continuous
370
    15
100
AcDbLine
 10
23.03193017204179
 20
21.49110933196469
 30
0.0
 11
22.02697092808341
 21
21.49110933196469
 31
0.0
  0
ARC
  5
25D
330
1F
100
AcDbEntity
  8
Object
  6
Continuous
370
    15
100
AcDbCircle
 10
22.02697102393528
 20
21.39330905979652
 30
0.0
 40
0.0977999999999995
100
AcDbArc
 50
90.0
 51
180.0
  0
ARC
  5
25E
330
1F
100
AcDbEntity
  8
Object
  6
Continuous
370
    15
100
AcDbCircle
 10
22.02697102393528
 20
21.39330905979652
 30
0.0
 40
0.0500000000000007
100
AcDbArc
 50
90.0
 51
180.0
  0
LINE
  5
25F
330
1F
100
AcDbEntity
  8
Object
  6
Continuous
370
    15
100
AcDbLine
 10
21.97697107901926
 20
20.95134996731093
 30
0.0
 11
21.92917091121088
 21
20.95134996731093
 31
0.0
  0
LINE
  5
260
330
1F
100
AcDbEntity
  8
Object
  6
Continuous
370
    15
100
AcDbLine
 10
21.92917091121088
 20
20.95134996731093
 30
0.0
 11
21.92917091121088
 21
21.20134979929154
 31
0.0
  0
LINE
  5
261
330
1F
100
AcDbEntity
  8
Object
  6
Continuous
370
    15
100
AcDbLine
 10
21.97697107901926
 20
21.20134979929154
 30
0.0
 11
21.97697107901926
 21
20.95134996731093
 31
0.0
  0
LINE
  5
262
330
1F
100
AcDbEntity
  8
Object
  6
Continuous
370
    15
100
AcDbLine
 10
21.92917091121088
 20
21.39330902176221
 30
0.0
 11
21.92917091121088
 21
21.20134979929154
 31
0.0
  0
LINE
  5
263
330
1F
100
AcDbEntity
  8
Object
  6
Continuous
370
    15
100
AcDbLine
 10
21.97697107901926
 20
21.39330902176221
 30
0.0
 11
21.97697107901926
 21
21.20134979929154
 31
0.0
  0
LINE
  5
264
330
1F
100
AcDbEntity
  8
Object
  6
Continuous
370
    15
100
AcDbLine
 10
22.39793005606523
 20
21.40660214819888
 30
0.0
 11
23.08193002110594
 21
21.40660214819888
 31
0.0
  0
LINE
  5
265
330
1F
100
AcDbEntity
  8
Object
  6
Continuous
370
    15
100
AcDbLine
 10
23.08193002110594
 20
21.40660214819888
 30
0.0
 11
23.08193002110594
 21
7.793569487113829
 31
0.0
  0
ARC
  5
266
330
1F
100
AcDbEntity
  8
Object
  6
Continuous
370
    15
100
AcDbCircle
 10
22.83193009966021
 20
7.793569557170985
 30
0.0
 40
0.2500000000000017
100
AcDbArc
 50
315.0000000000009
 51
0.0000000000002036
  0
LINE
  5
267
330
1F
100
AcDbEntity
  8
Object
  6
Continuous
370
    15
100
AcDbLine
 10
23.0087066536552
 20
7.616793022583966
 30
0.0
 11
22.84950358611595
 21
7.457589955044721
 31
0.0
  0
ARC
  5
268
330
1F
100
AcDbEntity
  8
Object
  6
Continuous
370
    15
100
AcDbCircle
 10
22.80707728591782
 20
7.50001616657771
 30
0.0
 40
0.0600000000000003
100
AcDbArc
 50
270.0000000000008
 51
315.0000000000014
  0
LINE
  5
269
330
1F
100
AcDbEntity
  8
Object
  6
Continuous
370
    15
100
AcDbLine
 10
22.39793005606523
 20
7.440015971394212
 30
0.0
 11
22.80707722289559
 21
7.440015971394212
 31
0.0
  0
SPLINE
  5
26A
330
1F
100
AcDbEntity
  8
Object
  6
Continuous
370
    15
100
AcDbSpline
210
0.0
220
0.0
230
1.0
 70
     8
 71
     3
 72
    12
 73
     8
 74
     0
 42
0.0000000001
 43
0.0000000001
 40
0.0
 40
0.0
 40
0.0
 40
0.0
 40
0.2231282107758306
 40
0.4462813878125531
 40
0.6694351864234778
 40
0.892590676823432
 40
1.0
 40
1.0
 40
1.0
 40
1.0
 10
22.33193023183417
 20
21.37730904659529
 30
0.0
 10
22.33271875170493
 20
21.37948871103046
 30
0.0
 10
22.33429587967551
 20
21.3838482837878
 30
0.0
 10
22.34656192340818
 20
21.39038727781303
 30
0.0
 10
22.36448981902066
 20
21.39692412095548
 30
0.0
 10
22.3828559136961
 20
21.40234203112434
 30
0.0
 10
22.39423325460262
 20
21.40555739177782
 30
0.0
 10
22.39793005606523
 20
21.40660214819888
 30
0.0
  0
LINE
  5
26B
330
1F
100
AcDbEntity
  8
Object
  6
Continuous
370
    15
100
AcDbLine
 10
22.33193023183417
 20
7.469309072997803
 30
0.0
 11
22.33193023183417
 21
21.37730904659529
 31
0.0
  0
SPLINE
  5
26C
330
1F
100
AcDbEntity
  8
Object
  6
Continuous
370
    15
100
AcDbSpline
210
0.0
220
0.0
230
1.0
 70
     8
 71
     3
 72
    12
 73
     8
 74
     0
 42
0.0000000001
 43
0.0000000001
 40
0.0
 40
0.0
 40
0.0
 40
0.0
 40
0.2231289420702208
 40
0.4462838857994669
 40
0.6694381456731619
 40
0.8925905456609564
 40
1.0
 40
1.0
 40
1.0
 40
1.0
 10
22.39793005606523
 20
7.440015971394212
 30
0.0
 10
22.39021838160013
 20
7.442195554206769
 30
0.0
 10
22.37479413401317
 20
7.446554973822993
 30
0.0
 10
22.35444782511517
 20
7.453095199840184
 30
0.0
 10
22.33949275098351
 20
7.459630697806559
 30
0.0
 10
22.33269643116991
 20
7.465049032428615
 30
0.0
 10
22.33211813695704
 20
7.468264327317106
 30
0.0
 10
22.33193023183417
 20
7.469309072997803
 30
0.0
  0
LINE
  5
26D
330
1F
100
AcDbEntity
  8
Object
  6
Continuous
370
    15
100
AcDbLine
 10
22.39793005606523
 20
21.44330887082636
 30
0.0
 11
22.39793005606523
 21
21.40730907336576
 31
0.0
  0
SPLINE
  5
26E
330
1F
100
AcDbEntity
  8
Object
  6
Continuous
370
    15
100
AcDbSpline
210
0.0
220
0.0
230
1.0
 70
     8
 71
     3
 72
     9
 73
     5
 74
     0
 42
0.0000000001
 43
0.0000000001
 40
0.0
 40
0.0
 40
0.0
 40
0.0
 40
0.7463134247321355
 40
1.0
 40
1.0
 40
1.0
 40
1.0
 10
22.39793005606523
 20
21.40730907336576
 30
0.0
 10
22.39344780920996
 20
21.40698565885429
 30
0.0
 10
22.38744195870969
 20
21.40655230940519
 30
0.0
 10
22.38290948414916
 20
21.40285783965808
 30
0.0
 10
22.38175965620041
 20
21.4019206022805
 30
0.0
  0
SPLINE
  5
26F
330
1F
100
AcDbEntity
  8
Object
  6
Continuous
370
    15
100
AcDbSpline
210
0.0
220
0.0
230
1.0
 70
     8
 71
     3
 72
    12
 73
     8
 74
     0
 42
0.0000000001
 43
0.0000000001
 40
0.0
 40
0.0
 40
0.0
 40
0.0
 40
0.2231281030489447
 40
0.4462816341986957
 40
0.6694365492472824
 40
0.8925913343012329
 40
0.9999999999999998
 40
0.9999999999999998
 40
0.9999999999999998
 40
0.9999999999999998
 10
22.39793005606523
 20
21.44330887082636
 30
0.0
 10
22.39021838903611
 20
21.44252019389326
 30
0.0
 10
22.37479417614169
 20
21.44094275014795
 30
0.0
 10
22.35444772411495
 20
21.42867726133917
 30
0.0
 10
22.33949271000668
 20
21.41074934814053
 30
0.0
 10
22.33269645909262
 20
21.39238321819717
 30
0.0
 10
22.33211814207859
 20
21.38100584965068
 30
0.0
 10
22.33193023183417
 20
21.37730904659529
 30
0.0
  0
SPLINE
  5
270
330
1F
100
AcDbEntity
  8
Object
  6
Continuous
370
    15
100
AcDbSpline
210
0.0
220
0.0
230
1.0
 70
     8
 71
     3
 72
    12
 73
     8
 74
     0
 42
0.0000000001
 43
0.0000000001
 40
0.0
 40
0.0
 40
0.0
 40
0.0
 40
0.223129840384363
 40
0.446283550894416
 40
0.6694371359002628
 40
0.8925907796367248
 40
1.0
 40
1.0
 40
1.0
 40
1.0
 10
22.33193023183417
 20
7.469309072997802
 30
0.0
 10
22.33271874601172
 20
7.461597301102331
 30
0.0
 10
22.334295858721
 20
7.446172932316561
 30
0.0
 10
22.3465619096789
 20
7.425826424148038
 30
0.0
 10
22.36448971314146
 20
7.410871817029537
 30
0.0
 10
22.382855992524
 20
7.404075451482126
 30
0.0
 10
22.39423326015037
 20
7.403497153976271
 30
0.0
 10
22.39793005606523
 20
7.403309248766738
 30
0.0
  0
SPLINE
  5
271
330
1F
100
AcDbEntity
  8
Object
  6
Continuous
370
    15
100
AcDbSpline
210
0.0
220
0.0
230
1.0
 70
     8
 71
     3
 72
     9
 73
     5
 74
     0
 42
0.0000000001
 43
0.0000000001
 40
0.0
 40
0.0
 40
0.0
 40
0.0
 40
0.4087892508399645
 40
1.0
 40
1.0
 40
1.0
 40
1.0
 10
22.3818690682698
 20
7.444648824541764
 30
0.0
 10
22.38381865853396
 20
7.443279308986796
 30
0.0
 10
22.38858784035601
 20
7.439929133921881
 30
0.0
 10
22.3944589769821
 20
7.439539438405516
 30
0.0
 10
22.39793005606523
 20
7.439309046227339
 30
0.0
  0
LINE
  5
272
330
1F
100
AcDbEntity
  8
Object
  6
Continuous
370
    15
100
AcDbLine
 10
22.39793005606523
 20
7.403309248766738
 30
0.0
 11
22.39793005606523
 21
7.439309046227339
 31
0.0
  0
LINE
  5
273
330
1F
100
AcDbEntity
  8
Object
  6
Continuous
370
    15
100
AcDbLine
 10
22.39793005606523
 20
7.403309248766738
 30
0.0
 11
22.80193016235487
 21
7.403309248766738
 31
0.0
  0
LINE
  5
274
330
1F
100
AcDbEntity
  8
Object
  6
Continuous
370
    15
100
AcDbLine
 10
22.80193016235487
 20
7.439309046227339
 30
0.0
 11
22.80193016235487
 21
7.403309248766738
 31
0.0
  0
LINE
  5
275
330
1F
100
AcDbEntity
  8
Object
  6
Continuous
370
    15
100
AcDbLine
 10
22.39793005606523
 20
7.439309046227339
 30
0.0
 11
22.80193016235487
 21
7.439309046227339
 31
0.0
  0
LINE
  5
276
330
1F
100
AcDbEntity
  8
Object
  6
Continuous
370
    15
100
AcDbLine
 10
23.08193002110594
 20
21.40730907336576
 30
0.0
 11
23.08193002110594
 21
21.44330887082636
 31
0.0
  0
LINE
  5
277
330
1F
100
AcDbEntity
  8
Object
  6
Continuous
370
    15
100
AcDbLine
 10
22.39793005606523
 20
21.44330887082636
 30
0.0
 11
23.08193002110594
 21
21.44330887082636
 31
0.0
  0
LINE
  5
278
330
1F
100
AcDbEntity
  8
Object
  6
Continuous
370
    15
100
AcDbLine
 10
22.39793005606523
 20
21.40730907336576
 30
0.0
 11
23.08193002110594
 21
21.40730907336576
 31
0.0
  0
LINE
  5
279
330
1F
100
AcDbEntity
  8
Object
  6
Continuous
370
    15
100
AcDbLine
 10
23.08193002110594
 20
21.29739716974412
 30
0.0
 11
23.08393023799926
 21
21.29739716974412
 31
0.0
  0
LINE
  5
27A
330
1F
100
AcDbEntity
  8
Object
  6
Continuous
370
    15
100
AcDbLine
 10
23.08393023799926
 20
7.549220949848982
 30
0.0
 11
22.94113458092021
 21
7.549220949848982
 31
0.0
  0
LINE
  5
27B
330
1F
100
AcDbEntity
  8
Object
  6
Continuous
370
    15
100
AcDbLine
 10
23.08393023799926
 20
21.37330919946854
 30
0.0
 11
23.08193002110594
 21
21.37330919946854
 31
0.0
  0
LINE
  5
27C
330
1F
100
AcDbEntity
  8
Object
  6
Continuous
370
    15
100
AcDbLine
 10
23.08393023799926
 20
21.34830927493647
 30
0.0
 11
23.08193002110594
 21
21.34830927493647
 31
0.0
  0
LINE
  5
27D
330
1F
100
AcDbEntity
  8
Object
  6
Continuous
370
    15
100
AcDbLine
 10
22.86522313785568
 20
7.47330892012456
 30
0.0
 11
23.08393023799926
 21
7.47330892012456
 31
0.0
  0
LINE
  5
27E
330
1F
100
AcDbEntity
  8
Object
  6
Continuous
370
    15
100
AcDbLine
 10
22.89022306238775
 20
7.498308844656632
 30
0.0
 11
23.08393023799926
 21
7.498308844656632
 31
0.0
  0
LINE
  5
27F
330
1F
100
AcDbEntity
  8
DIMENSIONS
  6
CENTER
370
     0
100
AcDbLine
 10
26.66018994217985
 20
19.39830905979655
 30
0.0
 11
27.0039205068618
 21
19.39830905979655
 31
0.0
  0
LINE
  5
280
330
1F
100
AcDbEntity
  8
DIMENSIONS
  6
CENTER
370
     0
100
AcDbLine
 10
26.66018994217985
 20
11.94830905979655
 30
0.0
 11
26.9969359890318
 21
11.94830905979655
 31
0.0
  0
LINE
  5
28B
330
1F
100
AcDbEntity
  8
DIMENSIONS
100
AcDbLine
 10
11.82543820224719
 20
11.94830905979655
 30
0.0
 11
12.00543820224719
 21
11.94830905979655
 31
0.0
  0
LINE
  5
28C
330
1F
100
AcDbEntity
  8
DIMENSIONS
100
AcDbLine
 10
11.91543820224719
 20
11.85830905979655
 30
0.0
 11
11.91543820224719
 21
12.03830905979655
 31
0.0
  0
LINE
  5
28D
330
1F
100
AcDbEntity
  8
DIMENSIONS
100
AcDbLine
 10
7.925438202247192
 20
11.94830905979655
 30
0.0
 11
8.105438202247192
 21
11.94830905979655
 31
0.0
  0
LINE
  5
28E
330
1F
100
AcDbEntity
  8
DIMENSIONS
100
AcDbLine
 10
8.015438202247192
 20
11.85830905979655
 30
0.0
 11
8.015438202247192
 21
12.03830905979655
 31
0.0
  0
LINE
  5
28F
330
1F
100
AcDbEntity
  8
DIMENSIONS
100
AcDbLine
 10
7.925438202247192
 20
19.39830905979655
 30
0.0
 11
8.105438202247192
 21
19.39830905979655
 31
0.0
  0
LINE
  5
290
330
1F
100
AcDbEntity
  8
DIMENSIONS
100
AcDbLine
 10
8.015438202247192
 20
19.30830905979655
 30
0.0
 11
8.015438202247192
 21
19.48830905979655
 31
0.0
  0
LINE
  5
291
330
1F
100
AcDbEntity
  8
DIMENSIONS
100
AcDbLine
 10
11.82543820224719
 20
19.39830905979655
 30
0.0
 11
12.00543820224719
 21
19.39830905979655
 31
0.0
  0
LINE
  5
292
330
1F
100
AcDbEntity
  8
DIMENSIONS
100
AcDbLine
 10
11.91543820224719
 20
19.30830905979655
 30
0.0
 11
11.91543820224719
 21
19.48830905979655
 31
0.0
  0
DIMENSION
  5
294
330
1F
100
AcDbEntity
  8
DIMENSIONS
100
AcDbDimension
  2
*D4
 10
13.99543820224719
 20
24.40526822107408
 30
0.0
 11
9.96543820224719
 21
24.40526822107408
 31
0.0
 70
    32
 71
     5
 42
8.059999999999998
  3
Standard
100
AcDbAlignedDimension
 13
5.93543820224719
 23
21.43730905979658
 33
0.0
 14
13.99543820224719
 24
21.43730905979658
 34
0.0
100
AcDbRotatedDimension
  0
DIMENSION
  5
2A4
330
1F
100
AcDbEntity
  8
DIMENSIONS
100
AcDbDimension
  2
*D5
 10
16.57087765000861
 20
7.373309059796573
 30
0.0
 11
16.57087765000861
 21
14.42330905979658
 31
0.0
 70
    32
 71
     5
 42
14.1
  3
Standard
100
AcDbAlignedDimension
 13
13.95943820224719
 23
21.47330905979658
 33
0.0
 14
13.95943820224719
 24
7.373309059796574
 34
0.0
 50
90.0
100
AcDbRotatedDimension
  0
DIMENSION
  5
2B3
330
1F
100
AcDbEntity
  8
DIMENSIONS
100
AcDbDimension
  2
*D6
 10
26.84593010072249
 20
5.178068746512792
 30
0.0
 11
24.58893016627833
 21
5.178068746512792
 31
0.0
 70
    32
 71
     5
 42
4.513999868888323
  3
Standard
100
AcDbAlignedDimension
 13
22.33193023183417
 23
7.469309072997802
 33
0.0
 14
26.84593010072249
 24
7.409309019456875
 34
0.0
100
AcDbRotatedDimension
  0
DIMENSION
  5
2D1
330
1F
100
AcDbEntity
  8
DIMENSIONS
100
AcDbDimension
  2
*D7
 10
22.33193023183417
 20
23.09859114102892
 30
0.0
 11
24.58893016627833
 21
23.09859114102892
 31
0.0
 70
    32
 71
     5
 42
4.513999868888319
  3
Standard
100
AcDbAlignedDimension
 13
26.84593010072249
 23
21.43730910013622
 33
0.0
 14
22.33193023183417
 24
21.37730904659529
 34
0.0
100
AcDbRotatedDimension
  0
DIMENSION
  5
2E0
330
1F
100
AcDbEntity
  8
DIMENSIONS
100
AcDbDimension
  2
*D8
 10
21.92917091121088
 20
23.09859114102892
 30
0.0
 11
20.87917091121088
 21
23.09859114102892
 31
0.0
 70
   160
 71
     5
 42
0.4027593206232929
  3
Standard
100
AcDbAlignedDimension
 13
22.33193023183417
 23
21.37730904659529
 33
0.0
 14
21.92917091121088
 24
21.39330902176221
 34
0.0
100
AcDbRotatedDimension
  0
DIMENSION
  5
303
330
1F
100
AcDbEntity
  8
DIMENSIONS
100
AcDbDimension
  2
*D9
 10
11.91543820224719
 20
5.339627476259693
 30
0.0
 11
9.965438202247192
 21
5.339627476259693
 31
0.0
 70
    32
 71
     5
 42
3.899999999999998
  3
Standard
100
AcDbAlignedDimension
 13
8.015438202247192
 23
11.85830905979655
 33
0.0
 14
11.91543820224719
 24
11.85830905979655
 34
0.0
100
AcDbRotatedDimension
  0
DIMENSION
  5
312
330
1F
100
AcDbEntity
  8
DIMENSIONS
100
AcDbDimension
  2
*D10
 10
13.99543820224719
 20
5.339627476259693
 30
0.0
 11
12.95543820224719
 21
5.339627476259693
 31
0.0
 70
    32
 71
     5
 42
2.079999999999998
  3
Standard
100
AcDbAlignedDimension
 13
11.91543820224719
 23
11.85830905979655
 33
0.0
 14
13.99543820224719
 24
7.409309059796576
 34
0.0
100
AcDbRotatedDimension
  0
DIMENSION
  5
32C
330
1F
100
AcDbEntity
  8
DIMENSIONS
100
AcDbDimension
  2
*D11
 10
29.53819678230795
 20
19.39830905979655
 30
0.0
 11
29.53819678230795
 21
15.67330905979655
 31
0.0
 70
    32
 71
     5
 42
7.449999999999999
  3
Standard
100
AcDbAlignedDimension
 13
26.9969359890318
 23
11.94830905979655
 33
0.0
 14
27.0039205068618
 24
19.39830905979655
 34
0.0
 50
90.0
100
AcDbRotatedDimension
  0
DIMENSION
  5
33B
330
1F
100
AcDbEntity
  8
DIMENSIONS
100
AcDbDimension
  2
*D12
 10
29.53819678230795
 20
7.373309221996274
 30
0.0
 11
29.53819678230795
 21
9.660809140896416
 31
0.0
 70
    32
 71
     5
 42
4.574999837800276
  3
Standard
100
AcDbAlignedDimension
 13
26.9969359890318
 23
11.94830905979655
 33
0.0
 14
26.80993010159755
 24
7.373309221996274
 34
0.0
 50
90.0
100
AcDbRotatedDimension
  0
LINE
  5
355
330
1F
100
AcDbEntity
  8
DIMENSIONS
100
AcDbLine
 10
26.84593010072249
 20
21.43377330098207
 30
0.0
 11
26.84593010072249
 21
29.1749815826072
 31
0.0
  0
LINE
  5
356
330
1F
100
AcDbEntity
  8
DIMENSIONS
100
AcDbLine
 10
26.84593010072249
 20
28.18423833109839
 30
0.0
 11
27.19129469906804
 21
28.94972788584399
 31
0.0
  0
LINE
  5
357
330
1F
100
AcDbEntity
  8
DIMENSIONS
100
AcDbLine
 10
26.84593010072249
 20
27.64740151180649
 30
0.0
 11
27.19129469906804
 21
28.41289106655209
 31
0.0
  0
LINE
  5
358
330
1F
100
AcDbEntity
  8
DIMENSIONS
100
AcDbLine
 10
26.84593010072249
 20
27.00120905647171
 30
0.0
 11
27.19129469906804
 21
27.76669861121732
 31
0.0
  0
LEADER
  5
359
330
1F
100
AcDbEntity
  8
DIMENSIONS
100
AcDbLeader
  3
Standard
 76
     2
 10
26.84593010072249
 20
26.28719861319964
 30
0.0
 10
25.58235579235479
 20
26.28719861319964
 30
0.0
1001
ACAD
1000
DSTYLE
1002
{
1070
   147
1040
0.09
1070
    77
1070
     0
1002
}
  0
MTEXT
  5
35A
330
1F
100
AcDbEntity
  8
DIMENSIONS
100
AcDbMText
 10
21.74587256939024
 20
26.43814139192363
 30
0.0
 40
0.25
 41
3.872121673716293
 71
     1
 72
     5
  1
Finish Face of Wall
 73
     1
 44
1.0
  0
MTEXT
  5
3BD
330
1F
100
AcDbEntity
  8
DIMENSIONS
100
AcDbMText
 10
18.24238491858289
 20
1.87314572054155
 30
0.0
 40
0.5
 41
12.65717407563666
 71
     5
 72
     5
  1
{\fArial|b1|i0|c0|p34;B-35139 SURMTD\PNAPKIN DISPOSAL}
 73
     1
 44
1.0
  0
LINE
  5
3CF
330
1F
100
AcDbEntity
  8
DIMENSIONS
100
AcDbLine
 10
26.98993010159755
 20
21.47330889759683
 30
0.0
 11
32.8372800496843
 21
21.47330889759683
 31
0.0
  0
LINE
  5
3D1
330
1F
100
AcDbEntity
  8
DIMENSIONS
100
AcDbLine
 10
32.6572800496843
 20
21.29330889759682
 30
0.0
 11
32.65728004968429
 21
12.44727624575713
 31
0.0
  0
LINE
  5
3D2
330
1F
100
AcDbEntity
  8
DIMENSIONS
100
AcDbLine
 10
32.65728004968429
 20
4.509815022488857
 30
0.0
 11
32.65728004968429
 21
12.44727624575713
 31
0.0
  0
SOLID
  5
3D3
330
1F
100
AcDbEntity
  8
DIMENSIONS
100
AcDbTrace
 10
32.6272800496843
 20
21.29330889759682
 30
0.0
 11
32.6872800496843
 21
21.29330889759682
 31
0.0
 12
32.6572800496843
 22
21.47330889759683
 32
0.0
 13
32.6572800496843
 23
21.47330889759683
 33
0.0
  0
SOLID
  5
3D4
330
1F
100
AcDbEntity
  8
DIMENSIONS
100
AcDbTrace
 10
32.62728004968429
 20
4.509815022488857
 30
0.0
 11
32.68728004968429
 21
4.509815022488857
 31
0.0
 12
32.65728004968429
 22
4.329815022488857
 32
0.0
 13
32.65728004968429
 23
4.329815022488857
 33
0.0
  0
MTEXT
  5
3D5
330
1F
100
AcDbEntity
  8
DIMENSIONS
100
AcDbMText
 10
33.02802466862173
 20
13.36927063917221
 30
0.0
 40
0.25
 41
0.0
 71
     5
 72
     1
  1
30" [760mm]
 11
0.0000000000000001
 21
1.0
 31
0.0
 73
     1
 44
1.0
  0
MTEXT
  5
3D6
330
1F
100
AcDbEntity
  8
DIMENSIONS
100
AcDbMText
 10
32.17512831046924
 20
13.52954274039997
 30
0.0
 40
0.25
 41
0.0
 71
     5
 72
     1
  1
Recommended Mounting Height Off Floor\Pfor Universal Design
 11
0.0000000000000001
 21
1.0
 31
0.0
 73
     1
 44
1.0
  0
VIEWPORT
  5
3DB
330
1B
100
AcDbEntity
 67
     1
  8
0
100
AcDbViewport
 10
5.375000360443836
 20
4.12500018209923
 30
0.0
 40
18.9722515753332
 41
8.561151442173649
 68
     2
 69
     1
 12
5.375000360443836
 22
4.12500018209923
 13
0.0
 23
0.0
 14
0.5
 24
0.5
 15
0.5
 25
0.5
 16
0.0
 26
0.0
 36
1.0
 17
0.0
 27
0.0
 37
0.0
 42
50.0
 43
0.0
 44
0.0
 45
8.561151442173649
 50
0.0
 51
0.0
 72
  2000
 90
    32800
  1

281
     0
 71
     1
 74
     0
110
0.0
120
0.0
130
0.0
111
1.0
121
0.0
131
0.0
112
0.0
122
1.0
132
0.0
 79
     0
146
0.0
170
     0
  0
VIEWPORT
  5
3DD
330
1B
100
AcDbEntity
 67
     1
  8
Border
100
AcDbViewport
 10
5.385790440465612
 20
4.119608687581129
 30
0.0
 40
10.87639433364778
 41
8.36758789454365
 68
     1
 69
     2
 12
18.26878872467351
 22
15.08538464481788
 13
0.0
 23
0.0
 14
0.5
 24
0.5
 15
0.5
 25
0.5
 16
0.0
 26
0.0
 36
1.0
 17
0.0
 27
0.0
 37
0.0
 42
50.0
 43
0.0
 44
0.0
 45
29.25901461364878
 50
0.0
 51
0.0
 72
  2000
 90
    32864
  1

281
     0
 71
     1
 74
     0
110
0.0
120
0.0
130
0.0
111
1.0
121
0.0
131
0.0
112
0.0
122
1.0
132
0.0
 79
     0
146
0.0
170
     0
  0
ENDSEC
  0
SECTION
  2
OBJECTS
  0
DICTIONARY
  5
C
330
0
100
AcDbDictionary
281
     1
  3
ACAD_COLOR
350
283
  3
ACAD_GROUP
350
D
  3
ACAD_LAYOUT
350
1A
  3
ACAD_MATERIAL
350
282
  3
ACAD_MLINESTYLE
350
17
  3
ACAD_PLOTSETTINGS
350
19
  3
ACAD_PLOTSTYLENAME
350
E
  3
ACAD_SCALELIST
350
47
  0
DICTIONARY
  5
283
102
{ACAD_REACTORS
330
C
102
}
330
C
100
AcDbDictionary
281
     1
  0
DICTIONARY
  5
D
102
{ACAD_REACTORS
330
C
102
}
330
C
100
AcDbDictionary
281
     1
  0
DICTIONARY
  5
1A
102
{ACAD_REACTORS
330
C
102
}
330
C
100
AcDbDictionary
281
     1
  3
Layout1
350
1E
  3
Layout2
350
26
  3
Model
350
22
  0
DICTIONARY
  5
282
102
{ACAD_REACTORS
330
C
102
}
330
C
100
AcDbDictionary
281
     1
  0
DICTIONARY
  5
17
102
{ACAD_REACTORS
330
C
102
}
330
C
100
AcDbDictionary
281
     1
  3
Standard
350
18
  0
DICTIONARY
  5
19
102
{ACAD_REACTORS
330
C
102
}
330
C
100
AcDbDictionary
281
     1
  0
ACDBDICTIONARYWDFLT
  5
E
102
{ACAD_REACTORS
330
C
102
}
330
C
100
AcDbDictionary
281
     1
  3
Normal
350
F
100
AcDbDictionaryWithDefault
340
F
  0
DICTIONARY
  5
47
102
{ACAD_REACTORS
330
C
102
}
330
C
100
AcDbDictionary
281
     1
  3
A0
350
48
  3
A1
350
49
  3
A2
350
4A
  3
A3
350
4B
  3
A4
350
4C
  3
A5
350
4D
  3
A6
350
4E
  3
A7
350
4F
  3
A8
350
50
  3
A9
350
51
  3
B0
350
52
  3
B1
350
53
  3
B2
350
54
  3
B3
350
55
  3
B4
350
56
  3
B5
350
57
  3
B6
350
58
  3
B7
350
59
  3
B8
350
5A
  3
B9
350
5B
  3
C0
350
5C
  3
C1
350
5D
  3
C2
350
5E
  3
C3
350
5F
  3
C4
350
60
  3
C5
350
61
  3
C6
350
62
  3
C7
350
63
  3
C8
350
64
  3
C9
350
65
  3
D0
350
66
  3
D1
350
67
  3
D2
350
68
  0
LAYOUT
  5
1E
102
{ACAD_REACTORS
330
1A
102
}
330
1A
100
AcDbPlotSettings
  1

  2
Adobe PDF.pc3
  4
User202
  6

 40
3.174999952316284
 41
3.174999952316284
 42
3.175003051757812
 43
3.17498779296875
 44
215.9000091552734
 45
279.3999938964844
 46
0.0
 47
0.0
 48
0.0
 49
0.0
140
0.0
141
0.0
142
1.0
143
1.0
 70
   688
 72
     0
 73
     1
 74
     5
  7
monochrome.ctb
 75
    16
147
1.0
 76
     1
 77
     2
 78
   300
148
0.0
149
0.0
100
AcDbLayout
  1
Layout1
 70
     1
 71
     1
 10
-0.1249995194082185
 20
-0.1249999981226883
 11
10.87500024029589
 21
8.375000362321149
 12
0.0
 22
0.0
 32
0.0
 14
-0.0524067263582779
 24
-0.0641852596906958
 34
0.0
 15
10.8239876072895
 25
8.303402634852954
 35
0.0
146
0.0
 13
0.0
 23
0.0
 33
0.0
 16
1.0
 26
0.0
 36
0.0
 17
0.0
 27
1.0
 37
0.0
 76
     0
330
1B
331
3DD
  0
LAYOUT
  5
26
102
{ACAD_REACTORS
330
1A
102
}
330
1A
100
AcDbPlotSettings
  1

  2
none_device
  4

  6

 40
0.0
 41
0.0
 42
0.0
 43
0.0
 44
0.0
 45
0.0
 46
0.0
 47
0.0
 48
0.0
 49
0.0
140
0.0
141
0.0
142
1.0
143
1.0
 70
   688
 72
     0
 73
     0
 74
     5
  7

 75
    16
147
1.0
 76
     0
 77
     2
 78
   300
148
0.0
149
0.0
100
AcDbLayout
  1
Layout2
 70
     1
 71
     2
 10
0.0
 20
0.0
 11
0.0
 21
0.0
 12
0.0
 22
0.0
 32
0.0
 14
0.0
 24
0.0
 34
0.0
 15
0.0
 25
0.0
 35
0.0
146
0.0
 13
0.0
 23
0.0
 33
0.0
 16
1.0
 26
0.0
 36
0.0
 17
0.0
 27
1.0
 37
0.0
 76
     0
330
23
  0
LAYOUT
  5
22
102
{ACAD_REACTORS
330
1A
102
}
330
1A
100
AcDbPlotSettings
  1

  2
none_device
  4
Letter_(8.50_x_11.00_Inches)
  6

 40
6.349999999999999
 41
6.349999999999999
 42
6.350005079999999
 43
6.350005079999999
 44
215.9
 45
279.4
 46
0.0
 47
0.0
 48
0.0
 49
0.0
140
0.0
141
0.0
142
1.0
143
1.0
 70
  1712
 72
     0
 73
     0
 74
     0
  7

 75
     0
147
1.0
 76
     0
 77
     2
 78
   300
148
0.0
149
0.0
100
AcDbLayout
  1
Model
 70
     1
 71
     0
 10
0.0
 20
0.0
 11
34.0
 21
22.0
 12
0.0
 22
0.0
 32
0.0
 14
0.0
 24
0.0
 34
0.0
 15
34.0
 25
22.0
 35
0.0
146
0.0
 13
0.0
 23
0.0
 33
0.0
 16
1.0
 26
0.0
 36
0.0
 17
0.0
 27
1.0
 37
0.0
 76
     0
330
1F
  0
MLINESTYLE
  5
18
102
{ACAD_REACTORS
330
17
102
}
330
17
100
AcDbMlineStyle
  2
STANDARD
 70
     0
  3

 62
   256
 51
90.0
 52
90.0
 71
     2
 49
0.5
 62
   256
  6
BYLAYER
 49
-0.5
 62
   256
  6
BYLAYER
  0
ACDBPLACEHOLDER
  5
F
102
{ACAD_REACTORS
330
E
102
}
330
E
  0
ACAD_PROXY_OBJECT
  5
48
102
{ACAD_REACTORS
330
47
102
}
330
47
100
AcDbProxyObject
 90
      499
 91
      503
 95
   393239
 70
     0
 93
       41
310
903313A31580
 94
        0
  0
ACAD_PROXY_OBJECT
  5
49
102
{ACAD_REACTORS
330
47
102
}
330
47
100
AcDbProxyObject
 90
      499
 91
      503
 95
   393239
 70
     0
 93
      105
310
903313A324000000000000004013
 94
        0
  0
ACAD_PROXY_OBJECT
  5
4A
102
{ACAD_REACTORS
330
47
102
}
330
47
100
AcDbProxyObject
 90
      499
 91
      503
 95
   393239
 70
     0
 93
      105
310
903313A34400000000000010400C
 94
        0
  0
ACAD_PROXY_OBJECT
  5
4B
102
{ACAD_REACTORS
330
47
102
}
330
47
100
AcDbProxyObject
 90
      499
 91
      503
 95
   393239
 70
     0
 93
      105
310
903313A354000000000000144013
 94
        0
  0
ACAD_PROXY_OBJECT
  5
4C
102
{ACAD_REACTORS
330
47
102
}
330
47
100
AcDbProxyObject
 90
      499
 91
      503
 95
   393239
 70
     0
 93
      105
310
903313A38400000000000020400C
 94
        0
  0
ACAD_PROXY_OBJECT
  5
4D
102
{ACAD_REACTORS
330
47
102
}
330
47
100
AcDbProxyObject
 90
      499
 91
      503
 95
   393239
 70
     0
 93
      113
310
904313A31304000000000000244023
 94
        0
  0
ACAD_PROXY_OBJECT
  5
4E
102
{ACAD_REACTORS
330
47
102
}
330
47
100
AcDbProxyObject
 90
      499
 91
      503
 95
   393239
 70
     0
 93
      113
310
904313A31364000000000000304057
 94
        0
  0
ACAD_PROXY_OBJECT
  5
4F
102
{ACAD_REACTORS
330
47
102
}
330
47
100
AcDbProxyObject
 90
      499
 91
      503
 95
   393239
 70
     0
 93
      113
310
904313A32304000000000000344023
 94
        0
  0
ACAD_PROXY_OBJECT
  5
50
102
{ACAD_REACTORS
330
47
102
}
330
47
100
AcDbProxyObject
 90
      499
 91
      503
 95
   393239
 70
     0
 93
      113
310
904313A333040000000000003E4057
 94
        0
  0
ACAD_PROXY_OBJECT
  5
51
102
{ACAD_REACTORS
330
47
102
}
330
47
100
AcDbProxyObject
 90
      499
 91
      503
 95
   393239
 70
     0
 93
      113
310
904313A34304000000000000444023
 94
        0
  0
ACAD_PROXY_OBJECT
  5
52
102
{ACAD_REACTORS
330
47
102
}
330
47
100
AcDbProxyObject
 90
      499
 91
      503
 95
   393239
 70
     0
 93
      113
310
904313A35304000000000000494057
 94
        0
  0
ACAD_PROXY_OBJECT
  5
53
102
{ACAD_REACTORS
330
47
102
}
330
47
100
AcDbProxyObject
 90
      499
 91
      503
 95
   393239
 70
     0
 93
      121
310
905313A3130304000000000000594015
 94
        0
  0
ACAD_PROXY_OBJECT
  5
54
102
{ACAD_REACTORS
330
47
102
}
330
47
100
AcDbProxyObject
 90
      499
 91
      503
 95
   393239
 70
     0
 93
      105
310
903323A310000000000000010140
 94
        0
  0
ACAD_PROXY_OBJECT
  5
55
102
{ACAD_REACTORS
330
47
102
}
330
47
100
AcDbProxyObject
 90
      499
 91
      503
 95
   393239
 70
     0
 93
      105
310
903343A310000000000000410159
 94
        0
  0
ACAD_PROXY_OBJECT
  5
56
102
{ACAD_REACTORS
330
47
102
}
330
47
100
AcDbProxyObject
 90
      499
 91
      503
 95
   393239
 70
     0
 93
      105
310
903383A310000000000000810140
 94
        0
  0
ACAD_PROXY_OBJECT
  5
57
102
{ACAD_REACTORS
330
47
102
}
330
47
100
AcDbProxyObject
 90
      499
 91
      503
 95
   393239
 70
     0
 93
      113
310
90431303A310000000000000910140
 94
        0
  0
ACAD_PROXY_OBJECT
  5
58
102
{ACAD_REACTORS
330
47
102
}
330
47
100
AcDbProxyObject
 90
      499
 91
      503
 95
   393239
 70
     0
 93
      121
310
9053130303A310000000000001650100
 94
        0
  0
ACAD_PROXY_OBJECT
  5
59
102
{ACAD_REACTORS
330
47
102
}
330
47
100
AcDbProxyObject
 90
      499
 91
      503
 95
   393239
 70
     0
 93
      257
310
90E312F31323822203D2031272D3022000000000000200FC000000000000284000
 94
        0
  0
ACAD_PROXY_OBJECT
  5
5A
102
{ACAD_REACTORS
330
47
102
}
330
47
100
AcDbProxyObject
 90
      499
 91
      503
 95
   393239
 70
     0
 93
      249
310
90D312F363422203D2031272D3022000000000000240FC000000000000284000
 94
        0
  0
ACAD_PROXY_OBJECT
  5
5B
102
{ACAD_REACTORS
330
47
102
}
330
47
100
AcDbProxyObject
 90
      499
 91
      503
 95
   393239
 70
     0
 93
      249
310
90D312F333222203D2031272D3022000000000000280FC000000000000284000
 94
        0
  0
ACAD_PROXY_OBJECT
  5
5C
102
{ACAD_REACTORS
330
47
102
}
330
47
100
AcDbProxyObject
 90
      499
 91
      503
 95
   393239
 70
     0
 93
      249
310
90D312F313622203D2031272D30220000000000002C0FC000000000000284000
 94
        0
  0
ACAD_PROXY_OBJECT
  5
5D
102
{ACAD_REACTORS
330
47
102
}
330
47
100
AcDbProxyObject
 90
      499
 91
      503
 95
   393239
 70
     0
 93
      249
310
90D332F333222203D2031272D30220000000000002E0FC000000000000284000
 94
        0
  0
ACAD_PROXY_OBJECT
  5
5E
102
{ACAD_REACTORS
330
47
102
}
330
47
100
AcDbProxyObject
 90
      499
 91
      503
 95
   393239
 70
     0
 93
      241
310
90C312F3822203D2031272D3022000000000000300FC000000000000284040
 94
        0
  0
ACAD_PROXY_OBJECT
  5
5F
102
{ACAD_REACTORS
330
47
102
}
330
47
100
AcDbProxyObject
 90
      499
 91
      503
 95
   393239
 70
     0
 93
      249
310
90D332F313622203D2031272D3022000000000000320FC000000000000284000
 94
        0
  0
ACAD_PROXY_OBJECT
  5
60
102
{ACAD_REACTORS
330
47
102
}
330
47
100
AcDbProxyObject
 90
      499
 91
      503
 95
   393239
 70
     0
 93
      241
310
90C312F3422203D2031272D3022000000000000340FC000000000000284040
 94
        0
  0
ACAD_PROXY_OBJECT
  5
61
102
{ACAD_REACTORS
330
47
102
}
330
47
100
AcDbProxyObject
 90
      499
 91
      503
 95
   393239
 70
     0
 93
      241
310
90C332F3822203D2031272D3022000000000000360FC000000000000284040
 94
        0
  0
ACAD_PROXY_OBJECT
  5
62
102
{ACAD_REACTORS
330
47
102
}
330
47
100
AcDbProxyObject
 90
      499
 91
      503
 95
   393239
 70
     0
 93
      241
310
90C312F3222203D2031272D3022000000000000380FC000000000000284040
 94
        0
  0
ACAD_PROXY_OBJECT
  5
63
102
{ACAD_REACTORS
330
47
102
}
330
47
100
AcDbProxyObject
 90
      499
 91
      503
 95
   393239
 70
     0
 93
      241
310
90C332F3422203D2031272D30220000000000003A0FC000000000000284040
 94
        0
  0
ACAD_PROXY_OBJECT
  5
64
102
{ACAD_REACTORS
330
47
102
}
330
47
100
AcDbProxyObject
 90
      499
 91
      503
 95
   393239
 70
     0
 93
      161
310
90A3122203D2031272D30224000000000000284000
 94
        0
  0
ACAD_PROXY_OBJECT
  5
65
102
{ACAD_REACTORS
330
47
102
}
330
47
100
AcDbProxyObject
 90
      499
 91
      503
 95
   393239
 70
     0
 93
      257
310
90E312D312F3222203D2031272D30220000000000003E0FC000000000000284000
 94
        0
  0
ACAD_PROXY_OBJECT
  5
66
102
{ACAD_REACTORS
330
47
102
}
330
47
100
AcDbProxyObject
 90
      499
 91
      503
 95
   393239
 70
     0
 93
      225
310
90A3322203D2031272D302200000000000002100000000000000284028
 94
        0
  0
ACAD_PROXY_OBJECT
  5
67
102
{ACAD_REACTORS
330
47
102
}
330
47
100
AcDbProxyObject
 90
      499
 91
      503
 95
   393239
 70
     0
 93
      225
310
90A3622203D2031272D302200000000000006100000000000000284000
 94
        0
  0
ACAD_PROXY_OBJECT
  5
68
102
{ACAD_REACTORS
330
47
102
}
330
47
100
AcDbProxyObject
 90
      499
 91
      503
 95
   393239
 70
     0
 93
      249
310
90D31272D3022203D2031272D30220000000000000A100000000000000284000
 94
        0
  0
ENDSEC
  0
EOF
