  0
SECTION
  2
HEADER
  9
$ACADVER
  1
AC1018
  9
$ACADMAINTVER
 70
     0
  9
$DWGCODEPAGE
  3
ANSI_1252
  9
$INSBASE
 10
0.0
 20
0.0
 30
0.0
  9
$EXTMIN
 10
4.347963532426803
 20
1.351601523159408
 30
0.0
  9
$EXTMAX
 10
61.36781219412585
 20
47.85871867868943
 30
0.0
  9
$LIMMIN
 10
0.0
 20
0.0
  9
$LIMMAX
 10
34.0
 20
22.0
  9
$ORTHOMODE
 70
     1
  9
$REGENMODE
 70
     1
  9
$FILLMODE
 70
     1
  9
$QTEXTMODE
 70
     0
  9
$MIRRTEXT
 70
     1
  9
$LTSCALE
 40
1.0
  9
$ATTMODE
 70
     1
  9
$TEXTSIZE
 40
0.125
  9
$TRACEWID
 40
0.05
  9
$TEXTSTYLE
  7
Standard
  9
$CLAYER
  8
DIMENSIONS
  9
$CELTYPE
  6
ByLayer
  9
$CECOLOR
 62
   256
  9
$CELTSCALE
 40
1.0
  9
$DISPSILH
 70
     0
  9
$DIMSCALE
 40
1.0
  9
$DIMASZ
 40
0.36
  9
$DIMEXO
 40
0.18
  9
$DIMDLI
 40
0.38
  9
$DIMRND
 40
0.0
  9
$DIMDLE
 40
0.0
  9
$DIMEXE
 40
0.18
  9
$DIMTP
 40
0.0
  9
$DIMTM
 40
0.0
  9
$DIMTXT
 40
0.36
  9
$DIMCEN
 40
0.09
  9
$DIMTSZ
 40
0.0
  9
$DIMTOL
 70
     0
  9
$DIMLIM
 70
     0
  9
$DIMTIH
 70
     1
  9
$DIMTOH
 70
     1
  9
$DIMSE1
 70
     0
  9
$DIMSE2
 70
     0
  9
$DIMTAD
 70
     0
  9
$DIMZIN
 70
     4
  9
$DIMBLK
  1

  9
$DIMASO
 70
     1
  9
$DIMSHO
 70
     1
  9
$DIMPOST
  1
"\X
  9
$DIMAPOST
  1
mm
  9
$DIMALT
 70
     1
  9
$DIMALTD
 70
     0
  9
$DIMALTF
 40
25.4
  9
$DIMLFAC
 40
1.0
  9
$DIMTOFL
 70
     0
  9
$DIMTVP
 40
0.0
  9
$DIMTIX
 70
     0
  9
$DIMSOXD
 70
     0
  9
$DIMSAH
 70
     0
  9
$DIMBLK1
  1

  9
$DIMBLK2
  1

  9
$DIMSTYLE
  2
Standard
  9
$DIMCLRD
 70
     0
  9
$DIMCLRE
 70
     0
  9
$DIMCLRT
 70
     0
  9
$DIMTFAC
 40
1.0
  9
$DIMGAP
 40
0.09
  9
$DIMJUST
 70
     0
  9
$DIMSD1
 70
     0
  9
$DIMSD2
 70
     0
  9
$DIMTOLJ
 70
     1
  9
$DIMTZIN
 70
     0
  9
$DIMALTZ
 70
     4
  9
$DIMALTTZ
 70
     0
  9
$DIMUPT
 70
     0
  9
$DIMDEC
 70
     4
  9
$DIMTDEC
 70
     4
  9
$DIMALTU
 70
     2
  9
$DIMALTTD
 70
     0
  9
$DIMTXSTY
  7
Standard
  9
$DIMAUNIT
 70
     0
  9
$DIMADEC
 70
     0
  9
$DIMALTRND
 40
5.0
  9
$DIMAZIN
 70
     1
  9
$DIMDSEP
 70
    46
  9
$DIMATFIT
 70
     0
  9
$DIMFRAC
 70
     2
  9
$DIMLDRBLK
  1

  9
$DIMLUNIT
 70
     5
  9
$DIMLWD
 70
    -2
  9
$DIMLWE
 70
    -2
  9
$DIMTMOVE
 70
     0
  9
$LUNITS
 70
     2
  9
$LUPREC
 70
     2
  9
$SKETCHINC
 40
0.1
  9
$FILLETRAD
 40
0.5
  9
$AUNITS
 70
     0
  9
$AUPREC
 70
     0
  9
$MENU
  1
.
  9
$ELEVATION
 40
0.0
  9
$PELEVATION
 40
0.0
  9
$THICKNESS
 40
0.0
  9
$LIMCHECK
 70
     0
  9
$CHAMFERA
 40
0.0
  9
$CHAMFERB
 40
0.0
  9
$CHAMFERC
 40
0.0
  9
$CHAMFERD
 40
0.0
  9
$SKPOLY
 70
     0
  9
$TDCREATE
 40
2457610.608360868
  9
$TDUCREATE
 40
2457610.900027535
  9
$TDUPDATE
 40
2457618.416053148
  9
$TDUUPDATE
 40
2457618.707719815
  9
$TDINDWG
 40
0.0669709375
  9
$TDUSRTIMER
 40
0.0669709375
  9
$USRTIMER
 70
     1
  9
$ANGBASE
 50
0.0
  9
$ANGDIR
 70
     0
  9
$PDMODE
 70
     0
  9
$PDSIZE
 40
-1.0
  9
$PLINEWID
 40
0.0
  9
$SPLFRAME
 70
     0
  9
$SPLINETYPE
 70
     6
  9
$SPLINESEGS
 70
     8
  9
$HANDSEED
  5
6FE
  9
$SURFTAB1
 70
     6
  9
$SURFTAB2
 70
     6
  9
$SURFTYPE
 70
     6
  9
$SURFU
 70
     6
  9
$SURFV
 70
     6
  9
$UCSBASE
  2

  9
$UCSNAME
  2

  9
$UCSORG
 10
0.0
 20
0.0
 30
0.0
  9
$UCSXDIR
 10
1.0
 20
0.0
 30
0.0
  9
$UCSYDIR
 10
0.0
 20
1.0
 30
0.0
  9
$UCSORTHOREF
  2

  9
$UCSORTHOVIEW
 70
     0
  9
$UCSORGTOP
 10
0.0
 20
0.0
 30
0.0
  9
$UCSORGBOTTOM
 10
0.0
 20
0.0
 30
0.0
  9
$UCSORGLEFT
 10
0.0
 20
0.0
 30
0.0
  9
$UCSORGRIGHT
 10
0.0
 20
0.0
 30
0.0
  9
$UCSORGFRONT
 10
0.0
 20
0.0
 30
0.0
  9
$UCSORGBACK
 10
0.0
 20
0.0
 30
0.0
  9
$PUCSBASE
  2

  9
$PUCSNAME
  2

  9
$PUCSORG
 10
0.0
 20
0.0
 30
0.0
  9
$PUCSXDIR
 10
1.0
 20
0.0
 30
0.0
  9
$PUCSYDIR
 10
0.0
 20
1.0
 30
0.0
  9
$PUCSORTHOREF
  2

  9
$PUCSORTHOVIEW
 70
     0
  9
$PUCSORGTOP
 10
0.0
 20
0.0
 30
0.0
  9
$PUCSORGBOTTOM
 10
0.0
 20
0.0
 30
0.0
  9
$PUCSORGLEFT
 10
0.0
 20
0.0
 30
0.0
  9
$PUCSORGRIGHT
 10
0.0
 20
0.0
 30
0.0
  9
$PUCSORGFRONT
 10
0.0
 20
0.0
 30
0.0
  9
$PUCSORGBACK
 10
0.0
 20
0.0
 30
0.0
  9
$USERI1
 70
     0
  9
$USERI2
 70
     0
  9
$USERI3
 70
     0
  9
$USERI4
 70
     0
  9
$USERI5
 70
     0
  9
$USERR1
 40
0.0
  9
$USERR2
 40
0.0
  9
$USERR3
 40
0.0
  9
$USERR4
 40
0.0
  9
$USERR5
 40
0.0
  9
$WORLDVIEW
 70
     1
  9
$SHADEDGE
 70
     3
  9
$SHADEDIF
 70
    70
  9
$TILEMODE
 70
     1
  9
$MAXACTVP
 70
    64
  9
$PINSBASE
 10
0.0
 20
0.0
 30
0.0
  9
$PLIMCHECK
 70
     0
  9
$PEXTMIN
 10
-0.0632319169492561
 20
-0.0863494639527964
 30
-0.0015258207003583
  9
$PEXTMAX
 10
10.82414272301373
 20
8.336349867732462
 30
0.0000000349246037
  9
$PLIMMIN
 10
-0.1249995194082185
 20
-0.1249999981226883
  9
$PLIMMAX
 10
10.87500024029589
 20
8.375000362321149
  9
$UNITMODE
 70
     0
  9
$VISRETAIN
 70
     1
  9
$PLINEGEN
 70
     0
  9
$PSLTSCALE
 70
     1
  9
$TREEDEPTH
 70
  3020
  9
$CMLSTYLE
  2
Standard
  9
$CMLJUST
 70
     0
  9
$CMLSCALE
 40
1.0
  9
$PROXYGRAPHICS
 70
     1
  9
$MEASUREMENT
 70
     0
  9
$CELWEIGHT
370
    -1
  9
$ENDCAPS
280
     0
  9
$JOINSTYLE
280
     0
  9
$LWDISPLAY
290
     1
  9
$INSUNITS
 70
     1
  9
$HYPERLINKBASE
  1

  9
$STYLESHEET
  1

  9
$XEDIT
290
     1
  9
$CEPSNTYPE
380
     0
  9
$PSTYLEMODE
290
     1
  9
$FINGERPRINTGUID
  2
{8843718B-EBC0-443E-B06F-8B719CCE7656}
  9
$VERSIONGUID
  2
{C6E8A298-4BBC-461F-8A64-A9339B2C9ACA}
  9
$EXTNAMES
290
     1
  9
$PSVPSCALE
 40
0.0
  9
$OLESTARTUP
290
     0
  9
$SORTENTS
280
   127
  9
$INDEXCTL
280
     0
  9
$HIDETEXT
280
     0
  9
$XCLIPFRAME
290
     0
  9
$HALOGAP
280
     0
  9
$OBSCOLOR
 70
   257
  9
$OBSLTYPE
280
     0
  9
$INTERSECTIONDISPLAY
280
     0
  9
$INTERSECTIONCOLOR
 70
   257
  9
$DIMASSOC
280
     1
  9
$PROJECTNAME
  1

  0
ENDSEC
  0
SECTION
  2
CLASSES
  0
CLASS
  1
ACDBDICTIONARYWDFLT
  2
AcDbDictionaryWithDefault
  3
ObjectDBX Classes
 90
        0
 91
        1
280
     0
281
     0
  0
CLASS
  1
VISUALSTYLE
  2
AcDbVisualStyle
  3
ObjectDBX Classes
 90
     4095
 91
        0
280
     0
281
     0
  0
CLASS
  1
MATERIAL
  2
AcDbMaterial
  3
ObjectDBX Classes
 90
        0
 91
        0
280
     0
281
     0
  0
CLASS
  1
SCALE
  2
AcDbScale
  3
ObjectDBX Classes
 90
     1153
 91
       34
280
     0
281
     0
  0
CLASS
  1
SUN
  2
AcDbSun
  3
SCENEOE
 90
     1153
 91
        0
280
     0
281
     0
  0
CLASS
  1
ACDBPLACEHOLDER
  2
AcDbPlaceHolder
  3
ObjectDBX Classes
 90
        0
 91
        1
280
     0
281
     0
  0
CLASS
  1
LAYOUT
  2
AcDbLayout
  3
ObjectDBX Classes
 90
        0
 91
        3
280
     0
281
     0
  0
ENDSEC
  0
SECTION
  2
TABLES
  0
TABLE
  2
VPORT
  5
8
330
0
100
AcDbSymbolTable
 70
     6
  0
VPORT
  5
6FD
330
8
100
AcDbSymbolTableRecord
100
AcDbViewportTableRecord
  2
*Active
 70
     0
 10
0.0
 20
0.0
 11
1.0
 21
1.0
 12
32.85734944729636
 22
24.60453170972253
 13
0.0
 23
0.0
 14
0.5
 24
0.5
 15
0.5
 25
0.5
 16
0.0
 26
0.0
 36
1.0
 17
0.0
 27
0.0
 37
0.0
 40
46.84443808962699
 41
2.216086434573829
 42
50.0
 43
0.0
 44
0.0
 50
0.0
 51
0.0
 71
     0
 72
  2000
 73
     1
 74
     3
 75
     0
 76
     0
 77
     0
 78
     0
281
     0
 65
     1
110
0.0
120
0.0
130
0.0
111
1.0
121
0.0
131
0.0
112
0.0
122
1.0
132
0.0
 79
     0
146
0.0
  0
ENDTAB
  0
TABLE
  2
LTYPE
  5
5
330
0
100
AcDbSymbolTable
 70
    10
  0
LTYPE
  5
14
330
5
100
AcDbSymbolTableRecord
100
AcDbLinetypeTableRecord
  2
ByBlock
 70
     0
  3

 72
    65
 73
     0
 40
0.0
  0
LTYPE
  5
15
330
5
100
AcDbSymbolTableRecord
100
AcDbLinetypeTableRecord
  2
ByLayer
 70
     0
  3

 72
    65
 73
     0
 40
0.0
  0
LTYPE
  5
16
330
5
100
AcDbSymbolTableRecord
100
AcDbLinetypeTableRecord
  2
Continuous
 70
     0
  3
Solid line
 72
    65
 73
     0
 40
0.0
  0
LTYPE
  5
6A
330
5
100
AcDbSymbolTableRecord
100
AcDbLinetypeTableRecord
  2
HIDDEN
 70
     0
  3
Hidden __ __ __ __ __ __ __ __ __ __ __ __ __ __
 72
    65
 73
     2
 40
0.075
 49
0.05
 74
     0
 49
-0.025
 74
     0
  0
LTYPE
  5
6B
330
5
100
AcDbSymbolTableRecord
100
AcDbLinetypeTableRecord
  2
PHANTOM
 70
     0
  3
Phantom ______  __  __  ______  __  __  ______
 72
    65
 73
     6
 40
0.5
 49
0.25
 74
     0
 49
-0.05
 74
     0
 49
0.05
 74
     0
 49
-0.05
 74
     0
 49
0.05
 74
     0
 49
-0.05
 74
     0
  0
LTYPE
  5
6C
330
5
100
AcDbSymbolTableRecord
100
AcDbLinetypeTableRecord
  2
CENTER
 70
     0
  3
Center ____ _ ____ _ ____ _ ____ _ ____ _ ____
 72
    65
 73
     4
 40
0.4
 49
0.25
 74
     0
 49
-0.05
 74
     0
 49
0.05
 74
     0
 49
-0.05
 74
     0
  0
LTYPE
  5
6D
330
5
100
AcDbSymbolTableRecord
100
AcDbLinetypeTableRecord
  2
CENTERX2
 70
     0
  3
Center (2x) ________  __  ________  __  _____
 72
    65
 73
     4
 40
0.8
 49
0.5
 74
     0
 49
-0.1
 74
     0
 49
0.1
 74
     0
 49
-0.1
 74
     0
  0
LTYPE
  5
6E
330
5
100
AcDbSymbolTableRecord
100
AcDbLinetypeTableRecord
  2
DOT2
 70
     0
  3
Dot (.5x) ........................................
 72
    65
 73
     2
 40
0.025
 49
0.0
 74
     0
 49
-0.025
 74
     0
  0
LTYPE
  5
454
330
5
100
AcDbSymbolTableRecord
100
AcDbLinetypeTableRecord
  2
HIDDENX2
 70
     0
  3
Hidden (2x) ____ ____ ____ ____ ____ ____ ____
 72
    65
 73
     2
 40
0.75
 49
0.5
 74
     0
 49
-0.25
 74
     0
  0
LTYPE
  5
455
330
5
100
AcDbSymbolTableRecord
100
AcDbLinetypeTableRecord
  2
DASHED
 70
     0
  3
Dashed __ __ __ __ __ __ __ __ __ __ __ __ __ _
 72
    65
 73
     2
 40
0.75
 49
0.5
 74
     0
 49
-0.25
 74
     0
  0
LTYPE
  5
456
330
5
100
AcDbSymbolTableRecord
100
AcDbLinetypeTableRecord
  2
DASHDOTX2
 70
     0
  3
Dash dot (2x) ____  .  ____  .  ____  .  ___
 72
    65
 73
     4
 40
2.0
 49
1.0
 74
     0
 49
-0.5
 74
     0
 49
0.0
 74
     0
 49
-0.5
 74
     0
  0
LTYPE
  5
457
330
5
100
AcDbSymbolTableRecord
100
AcDbLinetypeTableRecord
  2
DASHEDX2
 70
     0
  3
Dashed (2x) ____  ____  ____  ____  ____  ___
 72
    65
 73
     2
 40
1.5
 49
1.0
 74
     0
 49
-0.5
 74
     0
  0
ENDTAB
  0
TABLE
  2
LAYER
  5
2
330
0
100
AcDbSymbolTable
 70
     8
  0
LAYER
  5
10
330
2
100
AcDbSymbolTableRecord
100
AcDbLayerTableRecord
  2
0
 70
     0
 62
     7
  6
Continuous
370
    -3
390
F
  0
LAYER
  5
6F
330
2
100
AcDbSymbolTableRecord
100
AcDbLayerTableRecord
  2
FORMAT
 70
     0
 62
     8
  6
Continuous
370
    30
390
F
  0
LAYER
  5
70
330
2
100
AcDbSymbolTableRecord
100
AcDbLayerTableRecord
  2
TITLE_BLOCK_TEXT
 70
     0
 62
     7
  6
Continuous
370
    30
390
F
  0
LAYER
  5
71
330
2
100
AcDbSymbolTableRecord
100
AcDbLayerTableRecord
  2
DIMENSIONS
 70
     0
 62
     1
  6
Continuous
370
    -3
390
F
  0
LAYER
  5
72
330
2
100
AcDbSymbolTableRecord
100
AcDbLayerTableRecord
  2
SLD-0
 70
     0
 62
   179
  6
Continuous
370
    -3
390
F
  0
LAYER
  5
393
330
2
100
AcDbSymbolTableRecord
100
AcDbLayerTableRecord
  2
Object
 70
     0
 62
     4
  6
Continuous
370
    -3
390
F
  0
LAYER
  5
394
330
2
100
AcDbSymbolTableRecord
100
AcDbLayerTableRecord
  2
Border
 70
     0
 62
    -2
  6
Continuous
370
    -3
390
F
  0
LAYER
  5
395
330
2
100
AcDbSymbolTableRecord
100
AcDbLayerTableRecord
  2
Defpoints
 70
     0
 62
     7
  6
Continuous
290
     0
370
    -3
390
F
  0
ENDTAB
  0
TABLE
  2
STYLE
  5
3
330
0
100
AcDbSymbolTable
 70
     8
  0
STYLE
  5
11
330
3
100
AcDbSymbolTableRecord
100
AcDbTextStyleTableRecord
  2
Standard
 70
     0
 40
0.0
 41
1.0
 50
0.0
 71
     0
 42
0.125
  3
romans.shx
  4

  0
STYLE
  5
99
330
3
100
AcDbSymbolTableRecord
100
AcDbTextStyleTableRecord
  2
SLDTEXTSTYLE0
 70
     0
 40
0.0
 41
0.7
 50
0.0
 71
     0
 42
0.125
  3
TXT
  4

  0
STYLE
  5
9B
330
3
100
AcDbSymbolTableRecord
100
AcDbTextStyleTableRecord
  2
SLDTEXTSTYLE1
 70
     0
 40
0.0
 41
0.605
 50
0.0
 71
     0
 42
0.125
  3
TXT
  4

  0
STYLE
  5
A1
330
3
100
AcDbSymbolTableRecord
100
AcDbTextStyleTableRecord
  2
SLDTEXTSTYLE2
 70
     0
 40
0.0
 41
0.8764128766729262
 50
0.0
 71
     0
 42
0.125
  3
TXT
  4

  0
STYLE
  5
A3
330
3
100
AcDbSymbolTableRecord
100
AcDbTextStyleTableRecord
  2
SLDTEXTSTYLE3
 70
     0
 40
0.0
 41
0.6163697320172487
 50
0.0
 71
     0
 42
0.125
  3
TXT
  4

  0
STYLE
  5
C2
330
3
100
AcDbSymbolTableRecord
100
AcDbTextStyleTableRecord
  2
SLDTEXTSTYLE4
 70
     0
 40
0.0
 41
0.565625
 50
0.0
 71
     0
 42
0.125
  3
TXT
  4

  0
STYLE
  5
C5
330
3
100
AcDbSymbolTableRecord
100
AcDbTextStyleTableRecord
  2
SLDTEXTSTYLE5
 70
     0
 40
0.0
 41
0.5735
 50
0.0
 71
     0
 42
0.125
  3
TXT
  4

  0
STYLE
  5
453
330
3
100
AcDbSymbolTableRecord
100
AcDbTextStyleTableRecord
  2

 70
     1
 40
0.0
 41
1.0
 50
0.0
 71
     0
 42
0.125
  3
ltypeshp.shx
  4

  0
ENDTAB
  0
TABLE
  2
VIEW
  5
6
330
0
100
AcDbSymbolTable
 70
     0
  0
ENDTAB
  0
TABLE
  2
UCS
  5
7
330
0
100
AcDbSymbolTable
 70
     0
  0
ENDTAB
  0
TABLE
  2
APPID
  5
9
330
0
100
AcDbSymbolTable
 70
     1
  0
APPID
  5
12
330
9
100
AcDbSymbolTableRecord
100
AcDbRegAppTableRecord
  2
ACAD
 70
     0
  0
ENDTAB
  0
TABLE
  2
DIMSTYLE
  5
A
330
0
100
AcDbSymbolTable
 70
     1
100
AcDbDimStyleTable
 71
     1
340
27
  0
DIMSTYLE
105
27
102
{ACAD_REACTORS
330
3CC
330
408
330
42B
330
45C
330
46B
330
47A
330
4C8
330
4D7
330
4E6
330
617
330
504
330
507
330
64A
102
}
330
A
100
AcDbSymbolTableRecord
100
AcDbDimStyleTableRecord
  2
Standard
 70
     0
  3
"\X
  4
mm
 41
0.36
 42
0.18
 78
     4
 79
     1
140
0.36
148
5.0
170
     1
171
     0
274
     0
276
     2
277
     5
285
     4
289
     0
340
11
  0
ENDTAB
  0
TABLE
  2
BLOCK_RECORD
  5
1
330
0
100
AcDbSymbolTable
 70
    16
  0
BLOCK_RECORD
  5
1F
330
1
100
AcDbSymbolTableRecord
100
AcDbBlockTableRecord
  2
*Model_Space
340
22
  0
BLOCK_RECORD
  5
1B
330
1
100
AcDbSymbolTableRecord
100
AcDbBlockTableRecord
  2
*Paper_Space
340
1E
  0
BLOCK_RECORD
  5
23
330
1
100
AcDbSymbolTableRecord
100
AcDbBlockTableRecord
  2
*Paper_Space0
340
26
  0
BLOCK_RECORD
  5
73
330
1
100
AcDbSymbolTableRecord
100
AcDbBlockTableRecord
  2
D
340
0
  0
BLOCK_RECORD
  5
A5
330
1
100
AcDbSymbolTableRecord
100
AcDbBlockTableRecord
  2
SW_NOTE_0
340
0
102
{BLKREFS
331
AD
102
}
  0
BLOCK_RECORD
  5
AE
330
1
100
AcDbSymbolTableRecord
100
AcDbBlockTableRecord
  2
SW_NOTE_1
340
0
102
{BLKREFS
331
B5
102
}
  0
BLOCK_RECORD
  5
246
330
1
100
AcDbSymbolTableRecord
100
AcDbBlockTableRecord
  2
_D
340
0
  0
BLOCK_RECORD
  5
3CD
330
1
100
AcDbSymbolTableRecord
100
AcDbBlockTableRecord
  2
*D5
340
0
  0
BLOCK_RECORD
  5
409
330
1
100
AcDbSymbolTableRecord
100
AcDbBlockTableRecord
  2
*D6
340
0
  0
BLOCK_RECORD
  5
42C
330
1
100
AcDbSymbolTableRecord
100
AcDbBlockTableRecord
  2
*D7
340
0
  0
BLOCK_RECORD
  5
45D
330
1
100
AcDbSymbolTableRecord
100
AcDbBlockTableRecord
  2
*D8
340
0
  0
BLOCK_RECORD
  5
46C
330
1
100
AcDbSymbolTableRecord
100
AcDbBlockTableRecord
  2
*D9
340
0
  0
BLOCK_RECORD
  5
47B
330
1
100
AcDbSymbolTableRecord
100
AcDbBlockTableRecord
  2
*D10
340
0
  0
BLOCK_RECORD
  5
4C9
330
1
100
AcDbSymbolTableRecord
100
AcDbBlockTableRecord
  2
*D11
340
0
  0
BLOCK_RECORD
  5
4D8
330
1
100
AcDbSymbolTableRecord
100
AcDbBlockTableRecord
  2
*D12
340
0
  0
BLOCK_RECORD
  5
4E7
330
1
100
AcDbSymbolTableRecord
100
AcDbBlockTableRecord
  2
*D13
340
0
  0
BLOCK_RECORD
  5
618
330
1
100
AcDbSymbolTableRecord
100
AcDbBlockTableRecord
  2
*D14
340
0
  0
ENDTAB
  0
ENDSEC
  0
SECTION
  2
BLOCKS
  0
BLOCK
  5
20
330
1F
100
AcDbEntity
  8
0
100
AcDbBlockBegin
  2
*Model_Space
 70
     0
 10
0.0
 20
0.0
 30
0.0
  3
*Model_Space
  1

  0
ENDBLK
  5
21
330
1F
100
AcDbEntity
  8
0
100
AcDbBlockEnd
  0
BLOCK
  5
1C
330
1B
100
AcDbEntity
 67
     1
  8
0
100
AcDbBlockBegin
  2
*Paper_Space
 70
     0
 10
0.0
 20
0.0
 30
0.0
  3
*Paper_Space
  1

  0
ENDBLK
  5
1D
330
1B
100
AcDbEntity
 67
     1
  8
0
100
AcDbBlockEnd
  0
BLOCK
  5
24
330
23
100
AcDbEntity
  8
0
100
AcDbBlockBegin
  2
*Paper_Space0
 70
     0
 10
0.0
 20
0.0
 30
0.0
  3
*Paper_Space0
  1

  0
ENDBLK
  5
25
330
23
100
AcDbEntity
  8
0
100
AcDbBlockEnd
  0
BLOCK
  5
74
330
73
100
AcDbEntity
  8
0
100
AcDbBlockBegin
  2
D
 70
     0
 10
0.0
 20
0.0
 30
0.0
  3
D
  1

  0
CIRCLE
  5
76
330
73
100
AcDbEntity
  8
FORMAT
100
AcDbCircle
 10
31.60339110637787
 20
0.6244098795826005
 30
0.0
 40
0.0174532499999967
  0
CIRCLE
  5
77
330
73
100
AcDbEntity
  8
FORMAT
100
AcDbCircle
 10
32.43436632794418
 20
0.6273875012279925
 30
0.0
 40
0.0174532499999964
  0
CIRCLE
  5
78
330
73
100
AcDbEntity
  8
FORMAT
100
AcDbCircle
 10
30.77339110637787
 20
0.6244098795826005
 30
0.0
 40
0.0174532472800571
  0
CIRCLE
  5
79
330
73
100
AcDbEntity
  8
FORMAT
100
AcDbCircle
 10
30.77339110637787
 20
0.6244098795826005
 30
0.0
 40
0.0174532500000001
  0
LINE
  5
7A
330
73
100
AcDbEntity
  8
FORMAT
  6
Continuous
370
    30
100
AcDbLine
 10
33.075
 20
21.10500000000001
 30
0.0
 11
0.2000000000000022
 21
21.105
 31
0.0
  0
LINE
  5
7B
330
73
100
AcDbEntity
  8
FORMAT
  6
Continuous
370
    30
100
AcDbLine
 10
0.2000000000000022
 20
21.105
 30
0.0
 11
0.2000000000000022
 21
0.0000000000000044
 31
0.0
  0
LINE
  5
7C
330
73
100
AcDbEntity
  8
FORMAT
  6
Continuous
370
    30
100
AcDbLine
 10
28.275
 20
20.23000000000005
 30
0.0
 11
28.275
 21
20.48000000000005
 31
0.0
  0
LINE
  5
7D
330
73
100
AcDbEntity
  8
FORMAT
  6
Continuous
370
    30
100
AcDbLine
 10
28.9
 20
20.23000000000005
 30
0.0
 11
28.9
 21
20.48000000000006
 31
0.0
  0
LINE
  5
7E
330
73
100
AcDbEntity
  8
FORMAT
  6
Continuous
370
    30
100
AcDbLine
 10
33.075
 20
0.0000000000000044
 30
0.0
 11
33.075
 21
21.10500000000001
 31
0.0
  0
LINE
  5
7F
330
73
100
AcDbEntity
  8
FORMAT
  6
Continuous
370
    30
100
AcDbLine
 10
32.02499999999999
 20
20.23000000000005
 30
0.0
 11
32.02499999999999
 21
20.48000000000005
 31
0.0
  0
LINE
  5
80
330
73
100
AcDbEntity
  8
FORMAT
  6
Continuous
370
    30
100
AcDbLine
 10
32.4625
 20
20.23000000000005
 30
0.0
 11
32.4625
 21
20.48000000000005
 31
0.0
  0
LINE
  5
81
330
73
100
AcDbEntity
  8
FORMAT
  6
Continuous
370
    40
100
AcDbLine
 10
27.825
 20
20.23000000000005
 30
0.0
 11
33.075
 21
20.23000000000005
 31
0.0
  0
LINE
  5
82
330
73
100
AcDbEntity
  8
FORMAT
  6
Continuous
370
    40
100
AcDbLine
 10
27.825
 20
20.23000000000005
 30
0.0
 11
27.825
 21
21.10500000000001
 31
0.0
  0
LINE
  5
83
330
73
100
AcDbEntity
  8
FORMAT
  6
Continuous
370
    30
100
AcDbLine
 10
33.075
 20
0.0000000000000044
 30
0.0
 11
0.2000000000000022
 21
0.0000000000000044
 31
0.0
  0
LINE
  5
84
330
73
100
AcDbEntity
  8
FORMAT
  6
Continuous
370
    30
100
AcDbLine
 10
25.8875
 20
0.0000000000000076
 30
0.0
 11
25.8875
 21
1.500000000000005
 31
0.0
  0
LINE
  5
85
330
73
100
AcDbEntity
  8
FORMAT
  6
Continuous
370
    30
100
AcDbLine
 10
30.075
 20
0.5000000000000072
 30
0.0
 11
33.075
 21
0.5000000000000072
 31
0.0
  0
LINE
  5
86
330
73
100
AcDbEntity
  8
FORMAT
  6
Continuous
370
    30
100
AcDbLine
 10
22.7625
 20
1.125000000000005
 30
0.0
 11
30.075
 21
1.125000000000005
 31
0.0
  0
LINE
  5
87
330
73
100
AcDbEntity
  8
FORMAT
  6
Continuous
370
    30
100
AcDbLine
 10
22.7625
 20
0.0000000000000076
 30
0.0
 11
22.7625
 21
1.500000000000005
 31
0.0
  0
LINE
  5
88
330
73
100
AcDbEntity
  8
FORMAT
  6
Continuous
370
    30
100
AcDbLine
 10
28.725
 20
0.9062000000000079
 30
0.0
 11
28.725
 21
1.500000000000005
 31
0.0
  0
LINE
  5
89
330
73
100
AcDbEntity
  8
FORMAT
  6
Continuous
370
    15
100
AcDbLine
 10
25.10385570751344
 20
0.0529622366790725
 30
0.0
 11
25.10385570751344
 21
0.887531843849992
 31
0.0
  0
LINE
  5
8A
330
73
100
AcDbEntity
  8
FORMAT
  6
Continuous
370
    30
100
AcDbLine
 10
22.7625
 20
1.500000000000005
 30
0.0
 11
33.075
 21
1.500000000000005
 31
0.0
  0
LINE
  5
8B
330
73
100
AcDbEntity
  8
FORMAT
  6
Continuous
370
    30
100
AcDbLine
 10
25.8875
 20
0.9062000000000079
 30
0.0
 11
30.075
 21
0.9062000000000079
 31
0.0
  0
LINE
  5
8C
330
73
100
AcDbEntity
  8
FORMAT
  6
Continuous
370
    30
100
AcDbLine
 10
27.325
 20
0.9062000000000079
 30
0.0
 11
27.325
 21
1.500000000000005
 31
0.0
  0
LINE
  5
8D
330
73
100
AcDbEntity
  8
FORMAT
100
AcDbLine
 10
24.325
 20
1.125000000000005
 30
0.0
 11
24.325
 21
1.500000000000005
 31
0.0
  0
LINE
  5
8E
330
73
100
AcDbEntity
  8
FORMAT
  6
Continuous
370
    30
100
AcDbLine
 10
27.325
 20
1.312500000000005
 30
0.0
 11
30.075
 21
1.312500000000005
 31
0.0
  0
LINE
  5
8F
330
73
100
AcDbEntity
  8
FORMAT
  6
Continuous
370
    30
100
AcDbLine
 10
30.075
 20
0.0000000000000055
 30
0.0
 11
30.075
 21
1.500000000000003
 31
0.0
  0
LINE
  5
90
330
73
100
AcDbEntity
  8
FORMAT
  6
Continuous
370
    30
100
AcDbLine
 10
33.075
 20
7.550000000000004
 30
0.0
 11
32.575
 21
7.550000000000004
 31
0.0
  0
LINE
  5
91
330
73
100
AcDbEntity
  8
FORMAT
  6
Continuous
370
    30
100
AcDbLine
 10
33.075
 20
9.550000000000009
 30
0.0
 11
32.575
 21
9.550000000000009
 31
0.0
  0
LINE
  5
92
330
73
100
AcDbEntity
  8
FORMAT
  6
Continuous
370
    30
100
AcDbLine
 10
33.075
 20
10.0
 30
0.0
 11
32.625
 21
10.0
 31
0.0
  0
LINE
  5
93
330
73
100
AcDbEntity
  8
FORMAT
  6
Continuous
100
AcDbLine
 10
32.575
 20
7.550000000000004
 30
0.0
 11
32.575
 21
9.550000000000009
 31
0.0
  0
LINE
  5
94
330
73
100
AcDbEntity
  8
FORMAT
  6
Continuous
100
AcDbLine
 10
32.625
 20
9.550000000000009
 30
0.0
 11
32.625
 21
10.0
 31
0.0
  0
LINE
  5
95
330
73
100
AcDbEntity
  8
FORMAT
  6
Continuous
370
    40
100
AcDbLine
 10
27.825
 20
20.48000000000005
 30
0.0
 11
33.075
 21
20.48000000000005
 31
0.0
  0
HATCH
  5
96
330
73
100
AcDbEntity
  8
FORMAT
  6
Continuous
100
AcDbHatch
 10
0.0
 20
0.0
 30
0.0
210
0.0
220
0.0
230
1.0
  2
SOLID
 70
     1
 71
     0
 91
        1
 92
        0
 93
        1
 72
     2
 10
30.77339110637787
 20
0.6244098795826005
 40
0.0174532472800566
 50
0.0
 51
360.0
 73
     1
 97
        0
 75
     0
 76
     1
 98
        1
 10
0.0
 20
0.0
450
        0
451
        0
460
0.0
461
0.0
452
        0
462
0.0
453
        0
470

  0
HATCH
  5
97
330
73
100
AcDbEntity
  8
FORMAT
  6
Continuous
100
AcDbHatch
 10
0.0
 20
0.0
 30
0.0
210
0.0
220
0.0
230
1.0
  2
SOLID
 70
     1
 71
     0
 91
        1
 92
        0
 93
        1
 72
     2
 10
31.60339110637787
 20
0.6244098795826005
 40
0.0174532499999962
 50
0.0
 51
360.0
 73
     1
 97
        0
 75
     0
 76
     1
 98
        1
 10
0.0
 20
0.0
450
        0
451
        0
460
0.0
461
0.0
452
        0
462
0.0
453
        0
470

  0
HATCH
  5
98
330
73
100
AcDbEntity
  8
FORMAT
  6
Continuous
100
AcDbHatch
 10
0.0
 20
0.0
 30
0.0
210
0.0
220
0.0
230
1.0
  2
SOLID
 70
     1
 71
     0
 91
        1
 92
        0
 93
        1
 72
     2
 10
32.43436632794418
 20
0.6273875012279925
 40
0.0174532499999959
 50
0.0
 51
360.0
 73
     1
 97
        0
 75
     0
 76
     1
 98
        1
 10
0.0
 20
0.0
450
        0
451
        0
460
0.0
461
0.0
452
        0
462
0.0
453
        0
470

  0
MTEXT
  5
9A
330
73
100
AcDbEntity
  8
FORMAT
100
AcDbMText
 10
30.44161720785566
 20
20.36319306818741
 30
0.0
 40
0.07
 41
0.0
 71
     2
 72
     1
  1
DESCRIPTION OF CHANGE
  7
SLDTEXTSTYLE0
 73
     1
 44
1.0
  0
MTEXT
  5
9C
330
73
100
AcDbEntity
  8
FORMAT
100
AcDbMText
 10
0.3406435258590261
 20
0.3651649014509443
 30
0.0
 40
0.17
 41
0.0
 71
     1
 72
     1
  1
NOTE:
  7
SLDTEXTSTYLE1
 73
     1
 44
1.0
  0
MTEXT
  5
9D
330
73
100
AcDbEntity
  8
FORMAT
100
AcDbMText
 10
28.07175603500805
 20
20.35913829976436
 30
0.0
 40
0.07
 41
0.0
 71
     2
 72
     1
  1
REV.
  7
SLDTEXTSTYLE0
 73
     1
 44
1.0
  0
MTEXT
  5
9E
330
73
100
AcDbEntity
  8
FORMAT
100
AcDbMText
 10
28.55857705076207
 20
20.3564104212415
 30
0.0
 40
0.07
 41
0.0
 71
     2
 72
     1
  1
DATE
  7
SLDTEXTSTYLE0
 73
     1
 44
1.0
  0
MTEXT
  5
9F
330
73
100
AcDbEntity
  8
FORMAT
100
AcDbMText
 10
32.25229754695327
 20
20.36759061973484
 30
0.0
 40
0.07
 41
0.0
 71
     2
 72
     1
  1
BY
  7
SLDTEXTSTYLE0
 73
     1
 44
1.0
  0
MTEXT
  5
A0
330
73
100
AcDbEntity
  8
FORMAT
100
AcDbMText
 10
32.74202674224478
 20
20.36759061973485
 30
0.0
 40
0.07
 41
0.0
 71
     2
 72
     1
  1
CHECK
  7
SLDTEXTSTYLE0
 73
     1
 44
1.0
  0
MTEXT
  5
A2
330
73
100
AcDbEntity
  8
FORMAT
100
AcDbMText
 10
31.11933798915107
 20
20.78173440267642
 30
0.0
 40
0.07
 41
0.0
 71
     1
 72
     1
  1
DO NOT DESTROY
  7
SLDTEXTSTYLE2
 73
     1
 44
1.0
  0
MTEXT
  5
A4
330
73
100
AcDbEntity
  8
FORMAT
100
AcDbMText
 10
27.97225845239749
 20
21.00209464394158
 30
0.0
 40
0.12
 41
0.0
 71
     1
 72
     1
  1
PROPERTY OF BOBRICK WASHROOM EQUIPMENT, INC.
  7
SLDTEXTSTYLE3
 73
     1
 44
1.0
  0
INSERT
  5
AD
330
73
100
AcDbEntity
  8
FORMAT
 62
     8
100
AcDbBlockReference
  2
SW_NOTE_0
 10
27.97281922236897
 20
20.98506755538077
 30
0.0
  0
INSERT
  5
B5
330
73
100
AcDbEntity
  8
FORMAT
 62
     8
100
AcDbBlockReference
  2
SW_NOTE_1
 10
30.60506208147322
 20
20.98202961599092
 30
0.0
  0
MTEXT
  5
B6
330
73
100
AcDbEntity
  8
FORMAT
100
AcDbMText
 10
28.0611725877304
 20
0.1724440845690909
 30
0.0
 40
0.07
 41
0.0
 71
     2
 72
     1
  1
PART NAME
  7
SLDTEXTSTYLE0
 73
     1
 44
1.0
  0
MTEXT
  5
B7
330
73
100
AcDbEntity
  8
FORMAT
100
AcDbMText
 10
30.37025885106279
 20
0.4692356211129586
 30
0.0
 40
0.07
 41
0.0
 71
     2
 72
     1
  1
DWG. NO.
  7
SLDTEXTSTYLE0
 73
     1
 44
1.0
  0
MTEXT
  5
B8
330
73
100
AcDbEntity
  8
FORMAT
100
AcDbMText
 10
22.97373483058121
 20
0.39799715317596
 30
0.0
 40
0.07
 41
0.0
 71
     1
 72
     1
  1
3.  ALL DIA's CONCENTRIC WITHIN .010 TIR
  7
SLDTEXTSTYLE1
 73
     1
 44
1.0
  0
MTEXT
  5
B9
330
73
100
AcDbEntity
  8
FORMAT
100
AcDbMText
 10
23.35604788375365
 20
1.016658214471895
 30
0.0
 40
0.07
 41
0.0
 71
     1
 72
     1
  1
TOLERANCES UNLESS OTHERWISE SPECIFIED
  7
SLDTEXTSTYLE1
 73
     1
 44
1.0
  0
MTEXT
  5
BA
330
73
100
AcDbEntity
  8
FORMAT
100
AcDbMText
 10
28.91120397397544
 20
1.230090288894468
 30
0.0
 40
0.06
 41
0.0
 71
     2
 72
     1
  1
PROD.
  7
SLDTEXTSTYLE0
 73
     1
 44
1.0
  0
MTEXT
  5
BB
330
73
100
AcDbEntity
  8
FORMAT
100
AcDbMText
 10
31.65312089127594
 20
0.6529667658515692
 30
0.0
 40
0.07
 41
0.0
 71
     1
 72
     1
  1
JACKSON, TN
  7
SLDTEXTSTYLE0
 73
     1
 44
1.0
  0
MTEXT
  5
BC
330
73
100
AcDbEntity
  8
FORMAT
100
AcDbMText
 10
22.97373483058121
 20
0.5972973626647788
 30
0.0
 40
0.07
 41
0.0
 71
     1
 72
     1
  1
2.  ALL MACH SURFACES 125 RMS.
  7
SLDTEXTSTYLE1
 73
     1
 44
1.0
  0
MTEXT
  5
BD
330
73
100
AcDbEntity
  8
FORMAT
100
AcDbMText
 10
30.18058231123797
 20
0.9912827556420925
 30
0.0
 40
0.1666666666666666
 41
0.0
 71
     1
 72
     1
  1
BOBRICK WASHROOM EQUIPMENT, INC.
  7
SLDTEXTSTYLE0
 73
     1
 44
1.0
  0
MTEXT
  5
BE
330
73
100
AcDbEntity
  8
FORMAT
100
AcDbMText
 10
30.8292227888737
 20
0.6520623907430573
 30
0.0
 40
0.07
 41
0.0
 71
     1
 72
     1
  1
LOS ANGELES
  7
SLDTEXTSTYLE0
 73
     1
 44
1.0
  0
MTEXT
  5
BF
330
73
100
AcDbEntity
  8
FORMAT
100
AcDbMText
 10
25.43552890673779
 20
0.8901757080132696
 30
0.0
 40
0.06
 41
0.0
 71
     1
 72
     1
  1
DEC
  7
SLDTEXTSTYLE1
 73
     1
 44
1.0
  0
MTEXT
  5
C0
330
73
100
AcDbEntity
  8
FORMAT
100
AcDbMText
 10
27.53571539410476
 20
1.234518794589696
 30
0.0
 40
0.06
 41
0.0
 71
     2
 72
     1
  1
DFTMN
  7
SLDTEXTSTYLE0
 73
     1
 44
1.0
  0
MTEXT
  5
C1
330
73
100
AcDbEntity
  8
FORMAT
100
AcDbMText
 10
28.93632776913067
 20
1.420874845871628
 30
0.0
 40
0.06
 41
0.0
 71
     2
 72
     1
  1
APPVD.
  7
SLDTEXTSTYLE0
 73
     1
 44
1.0
  0
MTEXT
  5
C3
330
73
100
AcDbEntity
  8
FORMAT
100
AcDbMText
 10
25.39863550404208
 20
0.7764046651472981
 30
0.0
 40
0.06
 41
0.0
 71
     1
 72
     1
  1
X = ± .1
  7
SLDTEXTSTYLE4
 73
     1
 44
1.0
  0
MTEXT
  5
C4
330
73
100
AcDbEntity
  8
FORMAT
100
AcDbMText
 10
25.43552890673779
 20
0.4394570642572756
 30
0.0
 40
0.06
 41
0.0
 71
     1
 72
     1
  1
FRAC
  7
SLDTEXTSTYLE1
 73
     1
 44
1.0
  0
MTEXT
  5
C6
330
73
100
AcDbEntity
  8
FORMAT
100
AcDbMText
 10
25.34403326586704
 20
0.6745105466752276
 30
0.0
 40
0.06
 41
0.0
 71
     1
 72
     1
  1
XX = ± .02
  7
SLDTEXTSTYLE5
 73
     1
 44
1.0
  0
MTEXT
  5
C7
330
73
100
AcDbEntity
  8
FORMAT
100
AcDbMText
 10
32.5003094452076
 20
0.6529667658515682
 30
0.0
 40
0.07
 41
0.0
 71
     1
 72
     1
  1
TORONTO
  7
SLDTEXTSTYLE0
 73
     1
 44
1.0
  0
MTEXT
  5
C8
330
73
100
AcDbEntity
  8
FORMAT
100
AcDbMText
 10
28.99535232586629
 20
1.02054003778839
 30
0.0
 40
0.06
 41
0.0
 71
     2
 72
     1
  1
REL.DATE
  7
SLDTEXTSTYLE0
 73
     1
 44
1.0
  0
MTEXT
  5
C9
330
73
100
AcDbEntity
  8
FORMAT
100
AcDbMText
 10
25.44952307514425
 20
0.3451894045223454
 30
0.0
 40
0.06
 41
0.0
 71
     1
 72
     1
  1
± 1/32
  7
SLDTEXTSTYLE1
 73
     1
 44
1.0
  0
MTEXT
  5
CA
330
73
100
AcDbEntity
  8
FORMAT
100
AcDbMText
 10
30.16994701697175
 20
0.655275435501623
 30
0.0
 40
0.07
 41
0.0
 71
     1
 72
     1
  1
NEW YORK
  7
SLDTEXTSTYLE0
 73
     1
 44
1.0
  0
MTEXT
  5
CB
330
73
100
AcDbEntity
  8
FORMAT
100
AcDbMText
 10
22.97373483058121
 20
0.7965975721535953
 30
0.0
 40
0.07
 41
0.0
 71
     1
 72
     1
  1
1.  DEBURR ALL CORNERS AND EDGES.
  7
SLDTEXTSTYLE1
 73
     1
 44
1.0
  0
MTEXT
  5
CC
330
73
100
AcDbEntity
  8
FORMAT
100
AcDbMText
 10
27.53506956824832
 20
1.420874845871627
 30
0.0
 40
0.06
 41
0.0
 71
     2
 72
     1
  1
SCALE
  7
SLDTEXTSTYLE0
 73
     1
 44
1.0
  0
MTEXT
  5
CD
330
73
100
AcDbEntity
  8
FORMAT
100
AcDbMText
 10
25.40881119275927
 20
0.2190078936720642
 30
0.0
 40
0.06
 41
0.0
 71
     1
 72
     1
  1
ANGLE
  7
SLDTEXTSTYLE1
 73
     1
 44
1.0
  0
MTEXT
  5
CE
330
73
100
AcDbEntity
  8
FORMAT
100
AcDbMText
 10
27.55631956540009
 20
1.026795269164697
 30
0.0
 40
0.06
 41
0.0
 71
     2
 72
     1
  1
CHECK
  7
SLDTEXTSTYLE0
 73
     1
 44
1.0
  0
MTEXT
  5
CF
330
73
100
AcDbEntity
  8
FORMAT
100
AcDbMText
 10
25.28500383248081
 20
0.5620235188609052
 30
0.0
 40
0.06
 41
0.0
 71
     1
 72
     1
  1
XXX = ± .010
  7
SLDTEXTSTYLE1
 73
     1
 44
1.0
  0
MTEXT
  5
D0
330
73
100
AcDbEntity
  8
FORMAT
100
AcDbMText
 10
25.45422755851495
 20
0.1247402339371439
 30
0.0
 40
0.06
 41
0.0
 71
     1
 72
     1
  1
± 1°
  7
SLDTEXTSTYLE1
 73
     1
 44
1.0
  0
MTEXT
  5
D1
330
73
100
AcDbEntity
  8
FORMAT
100
AcDbMText
 10
26.2343020645711
 20
1.025630599088518
 30
0.0
 40
0.06
 41
0.0
 71
     3
 72
     1
  1
FINISH
  7
SLDTEXTSTYLE0
 73
     1
 44
1.0
  0
MTEXT
  5
D2
330
73
100
AcDbEntity
  8
FORMAT
100
AcDbMText
 10
26.19822982127122
 20
1.443076586783654
 30
0.0
 40
0.06
 41
0.0
 71
     3
 72
     1
  1
MAT'L
  7
SLDTEXTSTYLE0
 73
     1
 44
1.0
  0
MTEXT
  5
D3
330
73
100
AcDbEntity
  8
FORMAT
100
AcDbMText
 10
23.66799991478947
 20
1.463251144221145
 30
0.0
 40
0.2916666666666666
 41
0.0
 71
     1
 72
     1
  1
D
  7
SLDTEXTSTYLE1
 73
     1
 44
1.0
  0
MTEXT
  5
D4
330
73
100
AcDbEntity
  8
FORMAT
100
AcDbMText
 10
22.90119417862591
 20
1.452644275012908
 30
0.0
 40
0.07
 41
0.0
 71
     1
 72
     1
  1
DRAWING SIZE
  7
SLDTEXTSTYLE1
 73
     1
 44
1.0
  0
MTEXT
  5
D5
330
73
100
AcDbEntity
  8
FORMAT
100
AcDbMText
 10
25.51453209472147
 20
1.449047053026664
 30
0.0
 40
0.07
 41
0.0
 71
     3
 72
     1
  1
3D MODEL REVISION
  7
SLDTEXTSTYLE0
 73
     1
 44
1.0
  0
ENDBLK
  5
75
330
73
100
AcDbEntity
  8
0
100
AcDbBlockEnd
  0
BLOCK
  5
A6
330
A5
100
AcDbEntity
  8
0
100
AcDbBlockBegin
  2
SW_NOTE_0
 70
     0
 10
0.0
 20
0.0
 30
0.0
  3
SW_NOTE_0
  1

  0
MTEXT
  5
A8
330
A5
100
AcDbEntity
  8
FORMAT
 62
     0
100
AcDbMText
 10
0.0
 20
0.0725100603621735
 30
0.0
 40
0.05625
 41
0.0
 71
     1
 72
     1
  1
NOTICE IS HEREBY GIVEN THAT THIS DRAWING IS THE
  7
SLDTEXTSTYLE1
 73
     1
 44
1.0
  0
MTEXT
  5
A9
330
A5
100
AcDbEntity
  8
FORMAT
 62
     0
100
AcDbMText
 10
0.0
 20
-0.1142399339526228
 30
0.0
 40
0.05625
 41
0.0
 71
     1
 72
     1
  1
THE PERSONS, PARTNERSHIP OR CORPORATION ACCEPTING
  7
SLDTEXTSTYLE1
 73
     1
 44
1.0
  0
MTEXT
  5
AA
330
A5
100
AcDbEntity
  8
FORMAT
 62
     0
100
AcDbMText
 10
0.0
 20
-0.207614931110021
 30
0.0
 40
0.05625
 41
0.0
 71
     1
 72
     1
  1
THIS DRAWING AGREES THAT ALL INFORMATION SET FORTH IN
  7
SLDTEXTSTYLE1
 73
     1
 44
1.0
  0
MTEXT
  5
AB
330
A5
100
AcDbEntity
  8
FORMAT
 62
     0
100
AcDbMText
 10
0.0
 20
-0.3009899282674191
 30
0.0
 40
0.05625
 41
0.0
 71
     1
 72
     1
  1
THIS DRAWING WILL BE HELD CONFIDENTIAL AND THAT IT WILL
  7
SLDTEXTSTYLE1
 73
     1
 44
1.0
  0
MTEXT
  5
AC
330
A5
100
AcDbEntity
  8
FORMAT
 62
     0
100
AcDbMText
 10
0.0
 20
-0.3943649254248173
 30
0.0
 40
0.05625
 41
0.0
 71
     1
 72
     1
  1
NOT BE DISCLOSED TO ANYONE OTHER THAN AN OFFICIAL OF
  7
SLDTEXTSTYLE1
 73
     1
 44
1.0
  0
ENDBLK
  5
A7
330
A5
100
AcDbEntity
  8
0
100
AcDbBlockEnd
  0
BLOCK
  5
AF
330
AE
100
AcDbEntity
  8
0
100
AcDbBlockBegin
  2
SW_NOTE_1
 70
     0
 10
0.0
 20
0.0
 30
0.0
  3
SW_NOTE_1
  1

  0
MTEXT
  5
B1
330
AE
100
AcDbEntity
  8
FORMAT
 62
     0
100
AcDbMText
 10
0.0
 20
0.0725100603621735
 30
0.0
 40
0.05625
 41
0.0
 71
     1
 72
     1
  1
THE UNITED STATES GOVERNMENT OR AN EMPLOYEE OF
  7
SLDTEXTSTYLE1
 73
     1
 44
1.0
  0
MTEXT
  5
B2
330
AE
100
AcDbEntity
  8
FORMAT
 62
     0
100
AcDbMText
 10
0.0
 20
-0.0208649367952247
 30
0.0
 40
0.05625
 41
0.0
 71
     1
 72
     1
  1
BOBRICK WASHROOM EQUIPMENT, INC.
  7
SLDTEXTSTYLE1
 73
     1
 44
1.0
  0
MTEXT
  5
B3
330
AE
100
AcDbEntity
  8
FORMAT
 62
     0
100
AcDbMText
 10
0.0
 20
-0.3009899282674191
 30
0.0
 40
0.05625
 41
0.0
 71
     1
 72
     1
  1
WHEN FINISHED WITH THIS DRAWING, RETURN TO BOBRICK
  7
SLDTEXTSTYLE1
 73
     1
 44
1.0
  0
MTEXT
  5
B4
330
AE
100
AcDbEntity
  8
FORMAT
 62
     0
100
AcDbMText
 10
0.0
 20
-0.3943649254248173
 30
0.0
 40
0.05625
 41
0.0
 71
     1
 72
     1
  1
WASHROOM EQUIPMENT, INC.
  7
SLDTEXTSTYLE1
 73
     1
 44
1.0
  0
ENDBLK
  5
B0
330
AE
100
AcDbEntity
  8
0
100
AcDbBlockEnd
  0
BLOCK
  5
247
330
246
100
AcDbEntity
  8
0
100
AcDbBlockBegin
  2
_D
 70
     0
 10
0.0
 20
0.0
 30
0.0
  3
_D
  1

  0
LINE
  5
3C2
330
246
100
AcDbEntity
  8
Object
 62
     0
370
    -2
100
AcDbLine
 10
-3.98397466259462
 20
23.54302064353661
 30
0.0
 11
-3.98397466259462
 21
26.19368599786731
 31
0.0
  0
LINE
  5
3C3
330
246
100
AcDbEntity
  8
Object
 62
     0
370
    -2
100
AcDbLine
 10
10.17602533740538
 20
23.54302064353661
 30
0.0
 11
10.17602533740538
 21
26.19368599786731
 31
0.0
  0
LINE
  5
3C4
330
246
100
AcDbEntity
  8
Object
 62
     0
370
    -2
100
AcDbLine
 10
-3.80397466259462
 20
26.19368599786731
 30
0.0
 11
3.049466348867196
 21
26.19368599786731
 31
0.0
  0
LINE
  5
3C5
330
246
100
AcDbEntity
  8
Object
 62
     0
370
    -2
100
AcDbLine
 10
9.996025337405384
 20
26.19368599786731
 30
0.0
 11
3.461966348867195
 21
26.19368599786731
 31
0.0
  0
SOLID
  5
3C6
330
246
100
AcDbEntity
  8
Object
 62
     0
100
AcDbTrace
 10
-3.80397466259462
 20
26.22368599786732
 30
0.0
 11
-3.80397466259462
 21
26.16368599786731
 31
0.0
 12
-3.98397466259462
 22
26.19368599786731
 32
0.0
 13
-3.98397466259462
 23
26.19368599786731
 33
0.0
  0
SOLID
  5
3C7
330
246
100
AcDbEntity
  8
Object
 62
     0
100
AcDbTrace
 10
9.996025337405384
 20
26.22368599786732
 30
0.0
 11
9.996025337405384
 21
26.16368599786731
 31
0.0
 12
10.17602533740538
 22
26.19368599786731
 32
0.0
 13
10.17602533740538
 23
26.19368599786731
 33
0.0
  0
MTEXT
  5
3C8
330
246
100
AcDbEntity
  8
Object
 62
     0
100
AcDbMText
 10
3.255716348867196
 20
26.25618599786732
 30
0.0
 40
0.125
 41
0.0
 71
     2
 72
     1
  1
\A1;28.32
  7
SLDTEXTSTYLE0
 73
     1
 44
1.0
  0
POINT
  5
3C9
330
246
100
AcDbEntity
  8
Defpoints
 62
     0
100
AcDbPoint
 10
-3.98397466259462
 20
23.48052064353661
 30
0.0
  0
POINT
  5
3CA
330
246
100
AcDbEntity
  8
Defpoints
 62
     0
100
AcDbPoint
 10
10.17602533740538
 20
23.48052064353661
 30
0.0
  0
POINT
  5
3CB
330
246
100
AcDbEntity
  8
Defpoints
 62
     0
100
AcDbPoint
 10
10.17602533740538
 20
26.19368599786731
 30
0.0
  0
ENDBLK
  5
248
330
246
100
AcDbEntity
  8
0
100
AcDbBlockEnd
  0
BLOCK
  5
3D8
330
3CD
100
AcDbEntity
  8
0
100
AcDbBlockBegin
  2
*D5
 70
     1
 10
0.0
 20
0.0
 30
0.0
  3
*D5
  1

  0
LINE
  5
6E5
330
3CD
100
AcDbEntity
  8
DIMENSIONS
 62
     0
370
    -2
100
AcDbLine
 10
10.45004974746065
 20
38.6547953512057
 30
0.0
 11
10.45004974746065
 21
42.76810730597911
 31
0.0
  0
LINE
  5
6E6
330
3CD
100
AcDbEntity
  8
DIMENSIONS
 62
     0
370
    -2
100
AcDbLine
 10
24.6100497381345
 20
38.65479558014776
 30
0.0
 11
24.6100497381345
 21
42.76810730597911
 31
0.0
  0
LINE
  5
6E7
330
3CD
100
AcDbEntity
  8
DIMENSIONS
 62
     0
370
    -2
100
AcDbLine
 10
10.81004974746065
 20
42.5881073059791
 30
0.0
 11
16.16681783779438
 21
42.5881073059791
 31
0.0
  0
LINE
  5
6E8
330
3CD
100
AcDbEntity
  8
DIMENSIONS
 62
     0
370
    -2
100
AcDbLine
 10
24.2500497381345
 20
42.5881073059791
 30
0.0
 11
19.08967498065152
 21
42.5881073059791
 31
0.0
  0
SOLID
  5
6E9
330
3CD
100
AcDbEntity
  8
DIMENSIONS
 62
     0
100
AcDbTrace
 10
10.81004974746065
 20
42.6481073059791
 30
0.0
 11
10.81004974746065
 21
42.5281073059791
 31
0.0
 12
10.45004974746065
 22
42.5881073059791
 32
0.0
 13
10.45004974746065
 23
42.5881073059791
 33
0.0
  0
SOLID
  5
6EA
330
3CD
100
AcDbEntity
  8
DIMENSIONS
 62
     0
100
AcDbTrace
 10
24.2500497381345
 20
42.6481073059791
 30
0.0
 11
24.2500497381345
 21
42.5281073059791
 31
0.0
 12
24.6100497381345
 22
42.5881073059791
 32
0.0
 13
24.6100497381345
 23
42.5881073059791
 33
0.0
  0
MTEXT
  5
6EB
330
3CD
100
AcDbEntity
  8
DIMENSIONS
 62
     0
100
AcDbMText
 10
17.62824640922295
 20
42.5881073059791
 30
0.0
 40
0.36
 41
0.0
 71
     5
 72
     1
  1
\A1;14 3/16"\P [360mm]
 73
     1
 44
1.0
  0
POINT
  5
6EC
330
3CD
100
AcDbEntity
  8
Defpoints
 62
     0
100
AcDbPoint
 10
10.45004974746065
 20
38.4747953512057
 30
0.0
  0
POINT
  5
6ED
330
3CD
100
AcDbEntity
  8
Defpoints
 62
     0
100
AcDbPoint
 10
24.6100497381345
 20
38.47479558014777
 30
0.0
  0
POINT
  5
6EE
330
3CD
100
AcDbEntity
  8
Defpoints
 62
     0
100
AcDbPoint
 10
24.6100497381345
 20
42.5881073059791
 30
0.0
  0
ENDBLK
  5
3D9
330
3CD
100
AcDbEntity
  8
0
100
AcDbBlockEnd
  0
BLOCK
  5
415
330
409
100
AcDbEntity
  8
0
100
AcDbBlockBegin
  2
*D6
 70
     1
 10
0.0
 20
0.0
 30
0.0
  3
*D6
  1

  0
LINE
  5
686
330
409
100
AcDbEntity
  8
DIMENSIONS
 62
     0
370
    -2
100
AcDbLine
 10
24.75404973813449
 20
38.51079558014777
 30
0.0
 11
32.33280522906121
 21
38.51079558014777
 31
0.0
  0
LINE
  5
687
330
409
100
AcDbEntity
  8
DIMENSIONS
 62
     0
370
    -2
100
AcDbLine
 10
24.75404973813449
 20
10.32079558014776
 30
0.0
 11
32.3328052290612
 21
10.32079558014776
 31
0.0
  0
LINE
  5
688
330
409
100
AcDbEntity
  8
DIMENSIONS
 62
     0
370
    -2
100
AcDbLine
 10
32.15280522906121
 20
38.15079558014777
 30
0.0
 11
32.15280522906121
 21
25.37859249402643
 31
0.0
  0
LINE
  5
689
330
409
100
AcDbEntity
  8
DIMENSIONS
 62
     0
370
    -2
100
AcDbLine
 10
32.1528052290612
 20
10.68079558014775
 30
0.0
 11
32.15280522906121
 21
23.98144963688357
 31
0.0
  0
SOLID
  5
68A
330
409
100
AcDbEntity
  8
DIMENSIONS
 62
     0
100
AcDbTrace
 10
32.09280522906121
 20
38.15079558014777
 30
0.0
 11
32.21280522906121
 21
38.15079558014777
 31
0.0
 12
32.15280522906121
 22
38.51079558014777
 32
0.0
 13
32.15280522906121
 23
38.51079558014777
 33
0.0
  0
SOLID
  5
68B
330
409
100
AcDbEntity
  8
DIMENSIONS
 62
     0
100
AcDbTrace
 10
32.0928052290612
 20
10.68079558014775
 30
0.0
 11
32.2128052290612
 21
10.68079558014775
 31
0.0
 12
32.1528052290612
 22
10.32079558014776
 32
0.0
 13
32.1528052290612
 23
10.32079558014776
 33
0.0
  0
MTEXT
  5
68C
330
409
100
AcDbEntity
  8
DIMENSIONS
 62
     0
100
AcDbMText
 10
32.1528052290612
 20
24.68002106545501
 30
0.0
 40
0.36
 41
0.0
 71
     5
 72
     1
  1
\A1;28 3/16"\P [715mm]
 73
     1
 44
1.0
  0
POINT
  5
68D
330
409
100
AcDbEntity
  8
Defpoints
 62
     0
100
AcDbPoint
 10
24.57404973813449
 20
38.51079558014777
 30
0.0
  0
POINT
  5
68E
330
409
100
AcDbEntity
  8
Defpoints
 62
     0
100
AcDbPoint
 10
24.57404973813449
 20
10.32079558014776
 30
0.0
  0
POINT
  5
68F
330
409
100
AcDbEntity
  8
Defpoints
 62
     0
100
AcDbPoint
 10
32.1528052290612
 20
10.32079558014776
 30
0.0
  0
ENDBLK
  5
416
330
409
100
AcDbEntity
  8
0
100
AcDbBlockEnd
  0
BLOCK
  5
438
330
42C
100
AcDbEntity
  8
0
100
AcDbBlockBegin
  2
*D7
 70
     1
 10
0.0
 20
0.0
 30
0.0
  3
*D7
  1

  0
LINE
  5
690
330
42C
100
AcDbEntity
  8
DIMENSIONS
 62
     0
370
    -2
100
AcDbLine
 10
22.42904965774017
 20
31.2307953011793
 30
0.0
 11
28.74660664925577
 21
31.2307953011793
 31
0.0
  0
LINE
  5
691
330
42C
100
AcDbEntity
  8
DIMENSIONS
 62
     0
370
    -2
100
AcDbLine
 10
24.75404973813449
 20
10.32079558014776
 30
0.0
 11
28.74660664925576
 21
10.32079558014776
 31
0.0
  0
LINE
  5
692
330
42C
100
AcDbEntity
  8
DIMENSIONS
 62
     0
370
    -2
100
AcDbLine
 10
28.56660664925577
 20
30.8707953011793
 30
0.0
 11
28.56660664925577
 21
21.46223233656238
 31
0.0
  0
LINE
  5
693
330
42C
100
AcDbEntity
  8
DIMENSIONS
 62
     0
370
    -2
100
AcDbLine
 10
28.56660664925577
 20
10.68079558014775
 30
0.0
 11
28.56660664925577
 21
20.06508947941952
 31
0.0
  0
SOLID
  5
694
330
42C
100
AcDbEntity
  8
DIMENSIONS
 62
     0
100
AcDbTrace
 10
28.50660664925577
 20
30.8707953011793
 30
0.0
 11
28.62660664925577
 21
30.8707953011793
 31
0.0
 12
28.56660664925577
 22
31.2307953011793
 32
0.0
 13
28.56660664925577
 23
31.2307953011793
 33
0.0
  0
SOLID
  5
695
330
42C
100
AcDbEntity
  8
DIMENSIONS
 62
     0
100
AcDbTrace
 10
28.50660664925577
 20
10.68079558014775
 30
0.0
 11
28.62660664925576
 21
10.68079558014775
 31
0.0
 12
28.56660664925577
 22
10.32079558014776
 32
0.0
 13
28.56660664925577
 23
10.32079558014776
 33
0.0
  0
MTEXT
  5
696
330
42C
100
AcDbEntity
  8
DIMENSIONS
 62
     0
100
AcDbMText
 10
28.56660664925576
 20
20.76366090799095
 30
0.0
 40
0.36
 41
0.0
 71
     5
 72
     1
  1
\A1;20 15/16"\P [530mm]
 73
     1
 44
1.0
  0
POINT
  5
697
330
42C
100
AcDbEntity
  8
Defpoints
 62
     0
100
AcDbPoint
 10
22.24904965774017
 20
31.2307953011793
 30
0.0
  0
POINT
  5
698
330
42C
100
AcDbEntity
  8
Defpoints
 62
     0
100
AcDbPoint
 10
24.57404973813449
 20
10.32079558014776
 30
0.0
  0
POINT
  5
699
330
42C
100
AcDbEntity
  8
Defpoints
 62
     0
100
AcDbPoint
 10
28.56660664925577
 20
10.32079558014776
 30
0.0
  0
ENDBLK
  5
439
330
42C
100
AcDbEntity
  8
0
100
AcDbBlockEnd
  0
BLOCK
  5
469
330
45D
100
AcDbEntity
  8
0
100
AcDbBlockBegin
  2
*D8
 70
     1
 10
0.0
 20
0.0
 30
0.0
  3
*D8
  1

  0
LINE
  5
69A
330
45D
100
AcDbEntity
  8
DIMENSIONS
 62
     0
370
    -2
100
AcDbLine
 10
12.6860496503323
 20
36.53579508341115
 30
0.0
 11
12.6860496503323
 21
40.46085665384398
 31
0.0
  0
LINE
  5
69B
330
45D
100
AcDbEntity
  8
DIMENSIONS
 62
     0
370
    -2
100
AcDbLine
 10
22.37404986706042
 20
36.53579508341115
 30
0.0
 11
22.37404986706042
 21
40.46085665384398
 31
0.0
  0
LINE
  5
69C
330
45D
100
AcDbEntity
  8
DIMENSIONS
 62
     0
370
    -2
100
AcDbLine
 10
13.0460496503323
 20
40.28085665384399
 30
0.0
 11
16.13719261583922
 21
40.28085665384399
 31
0.0
  0
LINE
  5
69D
330
45D
100
AcDbEntity
  8
DIMENSIONS
 62
     0
370
    -2
100
AcDbLine
 10
22.01404986706042
 20
40.28085665384399
 30
0.0
 11
18.9229069015535
 21
40.28085665384399
 31
0.0
  0
SOLID
  5
69E
330
45D
100
AcDbEntity
  8
DIMENSIONS
 62
     0
100
AcDbTrace
 10
13.0460496503323
 20
40.34085665384399
 30
0.0
 11
13.0460496503323
 21
40.22085665384398
 31
0.0
 12
12.6860496503323
 22
40.28085665384399
 32
0.0
 13
12.6860496503323
 23
40.28085665384399
 33
0.0
  0
SOLID
  5
69F
330
45D
100
AcDbEntity
  8
DIMENSIONS
 62
     0
100
AcDbTrace
 10
22.01404986706042
 20
40.34085665384399
 30
0.0
 11
22.01404986706042
 21
40.22085665384398
 31
0.0
 12
22.37404986706042
 22
40.28085665384399
 32
0.0
 13
22.37404986706042
 23
40.28085665384399
 33
0.0
  0
MTEXT
  5
6A0
330
45D
100
AcDbEntity
  8
DIMENSIONS
 62
     0
100
AcDbMText
 10
17.53004975869636
 20
40.6451423681297
 30
0.0
 40
0.36
 41
0.0
 71
     5
 72
     1
  1
\A1;9 11/16"
 73
     1
 44
1.0
  0
MTEXT
  5
6A1
330
45D
100
AcDbEntity
  8
DIMENSIONS
 62
     0
100
AcDbMText
 10
17.53004975869636
 20
39.91657093955827
 30
0.0
 40
0.36
 41
0.0
 71
     5
 72
     1
  1
\A1;[245mm]
 73
     1
 44
1.0
  0
POINT
  5
6A2
330
45D
100
AcDbEntity
  8
Defpoints
 62
     0
100
AcDbPoint
 10
12.6860496503323
 20
36.35579508341115
 30
0.0
  0
POINT
  5
6A3
330
45D
100
AcDbEntity
  8
Defpoints
 62
     0
100
AcDbPoint
 10
22.37404986706042
 20
36.35579508341115
 30
0.0
  0
POINT
  5
6A4
330
45D
100
AcDbEntity
  8
Defpoints
 62
     0
100
AcDbPoint
 10
22.37404986706042
 20
40.28085665384399
 30
0.0
  0
ENDBLK
  5
46A
330
45D
100
AcDbEntity
  8
0
100
AcDbBlockEnd
  0
BLOCK
  5
478
330
46C
100
AcDbEntity
  8
0
100
AcDbBlockBegin
  2
*D9
 70
     1
 10
0.0
 20
0.0
 30
0.0
  3
*D9
  1

  0
LINE
  5
6A5
330
46C
100
AcDbEntity
  8
DIMENSIONS
 62
     0
370
    -2
100
AcDbLine
 10
12.63104985965255
 20
36.48079587939129
 30
0.0
 11
6.869705652807787
 21
36.48079587939129
 31
0.0
  0
LINE
  5
6A6
330
46C
100
AcDbEntity
  8
DIMENSIONS
 62
     0
370
    -2
100
AcDbLine
 10
12.63104985965255
 20
31.2307953011793
 30
0.0
 11
6.869705652807787
 21
31.23079530117931
 31
0.0
  0
LINE
  5
6A7
330
46C
100
AcDbEntity
  8
DIMENSIONS
 62
     0
370
    -2
100
AcDbLine
 10
7.049705652807787
 20
36.12079587939129
 30
0.0
 11
7.049705652807787
 21
34.58436701885672
 31
0.0
  0
LINE
  5
6A8
330
46C
100
AcDbEntity
  8
DIMENSIONS
 62
     0
370
    -2
100
AcDbLine
 10
7.049705652807786
 20
31.5907953011793
 30
0.0
 11
7.049705652807786
 21
33.12722416171387
 31
0.0
  0
SOLID
  5
6A9
330
46C
100
AcDbEntity
  8
DIMENSIONS
 62
     0
100
AcDbTrace
 10
6.989705652807788
 20
36.12079587939129
 30
0.0
 11
7.109705652807787
 21
36.12079587939129
 31
0.0
 12
7.049705652807787
 22
36.48079587939129
 32
0.0
 13
7.049705652807787
 23
36.48079587939129
 33
0.0
  0
SOLID
  5
6AA
330
46C
100
AcDbEntity
  8
DIMENSIONS
 62
     0
100
AcDbTrace
 10
6.989705652807787
 20
31.5907953011793
 30
0.0
 11
7.109705652807786
 21
31.5907953011793
 31
0.0
 12
7.049705652807786
 22
31.23079530117931
 32
0.0
 13
7.049705652807786
 23
31.23079530117931
 33
0.0
  0
MTEXT
  5
6AB
330
46C
100
AcDbEntity
  8
DIMENSIONS
 62
     0
100
AcDbMText
 10
7.049705652807781
 20
34.22008130457102
 30
0.0
 40
0.36
 41
0.0
 71
     5
 72
     1
  1
\A1;5 1/4"
 73
     1
 44
1.0
  0
MTEXT
  5
6AC
330
46C
100
AcDbEntity
  8
DIMENSIONS
 62
     0
100
AcDbMText
 10
7.049705652807781
 20
33.49150987599958
 30
0.0
 40
0.36
 41
0.0
 71
     5
 72
     1
  1
\A1;[135mm]
 73
     1
 44
1.0
  0
POINT
  5
6AD
330
46C
100
AcDbEntity
  8
Defpoints
 62
     0
100
AcDbPoint
 10
12.81104985965255
 20
36.48079587939129
 30
0.0
  0
POINT
  5
6AE
330
46C
100
AcDbEntity
  8
Defpoints
 62
     0
100
AcDbPoint
 10
12.81104985965255
 20
31.2307953011793
 30
0.0
  0
POINT
  5
6AF
330
46C
100
AcDbEntity
  8
Defpoints
 62
     0
100
AcDbPoint
 10
7.049705652807786
 20
31.23079530117931
 30
0.0
  0
ENDBLK
  5
479
330
46C
100
AcDbEntity
  8
0
100
AcDbBlockEnd
  0
BLOCK
  5
487
330
47B
100
AcDbEntity
  8
0
100
AcDbBlockBegin
  2
*D10
 70
     1
 10
0.0
 20
0.0
 30
0.0
  3
*D10
  1

  0
LINE
  5
6B0
330
47B
100
AcDbEntity
  8
DIMENSIONS
 62
     0
370
    -2
100
AcDbLine
 10
12.46604973813417
 20
18.27079558014783
 30
0.0
 11
12.46604973813417
 21
7.137777790890794
 31
0.0
  0
LINE
  5
6B1
330
47B
100
AcDbEntity
  8
DIMENSIONS
 62
     0
370
    -2
100
AcDbLine
 10
22.52604973813417
 20
18.27079558014783
 30
0.0
 11
22.52604973813417
 21
7.137777790890794
 31
0.0
  0
LINE
  5
6B2
330
47B
100
AcDbEntity
  8
DIMENSIONS
 62
     0
370
    -2
100
AcDbLine
 10
12.82604973813416
 20
7.317777790890794
 30
0.0
 11
16.12890688099131
 21
7.317777790890794
 31
0.0
  0
LINE
  5
6B3
330
47B
100
AcDbEntity
  8
DIMENSIONS
 62
     0
370
    -2
100
AcDbLine
 10
22.16604973813417
 20
7.317777790890794
 30
0.0
 11
18.86319259527702
 21
7.317777790890794
 31
0.0
  0
SOLID
  5
6B4
330
47B
100
AcDbEntity
  8
DIMENSIONS
 62
     0
100
AcDbTrace
 10
12.82604973813416
 20
7.377777790890793
 30
0.0
 11
12.82604973813416
 21
7.257777790890794
 31
0.0
 12
12.46604973813417
 22
7.317777790890794
 32
0.0
 13
12.46604973813417
 23
7.317777790890794
 33
0.0
  0
SOLID
  5
6B5
330
47B
100
AcDbEntity
  8
DIMENSIONS
 62
     0
100
AcDbTrace
 10
22.16604973813417
 20
7.377777790890793
 30
0.0
 11
22.16604973813417
 21
7.257777790890794
 31
0.0
 12
22.52604973813417
 22
7.317777790890794
 32
0.0
 13
22.52604973813417
 23
7.317777790890794
 33
0.0
  0
MTEXT
  5
6B6
330
47B
100
AcDbEntity
  8
DIMENSIONS
 62
     0
100
AcDbMText
 10
17.49604973813417
 20
7.682063505176508
 30
0.0
 40
0.36
 41
0.0
 71
     5
 72
     1
  1
\A1;10 1/16"
 73
     1
 44
1.0
  0
MTEXT
  5
6B7
330
47B
100
AcDbEntity
  8
DIMENSIONS
 62
     0
100
AcDbMText
 10
17.49604973813417
 20
6.95349207660508
 30
0.0
 40
0.36
 41
0.0
 71
     5
 72
     1
  1
\A1;[255mm]
 73
     1
 44
1.0
  0
POINT
  5
6B8
330
47B
100
AcDbEntity
  8
Defpoints
 62
     0
100
AcDbPoint
 10
12.46604973813417
 20
18.45079558014783
 30
0.0
  0
POINT
  5
6B9
330
47B
100
AcDbEntity
  8
Defpoints
 62
     0
100
AcDbPoint
 10
22.52604973813417
 20
18.45079558014783
 30
0.0
  0
POINT
  5
6BA
330
47B
100
AcDbEntity
  8
Defpoints
 62
     0
100
AcDbPoint
 10
22.52604973813417
 20
7.317777790890794
 30
0.0
  0
ENDBLK
  5
488
330
47B
100
AcDbEntity
  8
0
100
AcDbBlockEnd
  0
BLOCK
  5
4D5
330
4C9
100
AcDbEntity
  8
0
100
AcDbBlockBegin
  2
*D11
 70
     1
 10
0.0
 20
0.0
 30
0.0
  3
*D11
  1

  0
LINE
  5
6BB
330
4C9
100
AcDbEntity
  8
DIMENSIONS
 62
     0
370
    -2
100
AcDbLine
 10
40.10991023385289
 20
38.58179608783295
 30
0.0
 11
40.10991023385289
 21
41.01376399365615
 31
0.0
  0
LINE
  5
6BC
330
4C9
100
AcDbEntity
  8
DIMENSIONS
 62
     0
370
    -2
100
AcDbLine
 10
44.62191011501191
 20
38.65126013871164
 30
0.0
 11
44.62191011501191
 21
41.01376399365615
 31
0.0
  0
LINE
  5
6BD
330
4C9
100
AcDbEntity
  8
DIMENSIONS
 62
     0
370
    -2
100
AcDbLine
 10
40.46991023385288
 20
40.83376399365614
 30
0.0
 11
41.08448160300382
 21
40.83376399365614
 31
0.0
  0
LINE
  5
6BE
330
4C9
100
AcDbEntity
  8
DIMENSIONS
 62
     0
370
    -2
100
AcDbLine
 10
44.26191011501191
 20
40.83376399365614
 30
0.0
 11
43.64733874586097
 21
40.83376399365614
 31
0.0
  0
SOLID
  5
6BF
330
4C9
100
AcDbEntity
  8
DIMENSIONS
 62
     0
100
AcDbTrace
 10
40.46991023385288
 20
40.89376399365614
 30
0.0
 11
40.46991023385288
 21
40.77376399365614
 31
0.0
 12
40.10991023385289
 22
40.83376399365614
 32
0.0
 13
40.10991023385289
 23
40.83376399365614
 33
0.0
  0
SOLID
  5
6C0
330
4C9
100
AcDbEntity
  8
DIMENSIONS
 62
     0
100
AcDbTrace
 10
44.26191011501191
 20
40.89376399365614
 30
0.0
 11
44.26191011501191
 21
40.77376399365614
 31
0.0
 12
44.62191011501191
 22
40.83376399365614
 32
0.0
 13
44.62191011501191
 23
40.83376399365614
 33
0.0
  0
MTEXT
  5
6C1
330
4C9
100
AcDbEntity
  8
DIMENSIONS
 62
     0
100
AcDbMText
 10
42.3659101744324
 20
41.19804970794187
 30
0.0
 40
0.36
 41
0.0
 71
     5
 72
     1
  1
\A1;4 1/2"
 73
     1
 44
1.0
  0
MTEXT
  5
6C2
330
4C9
100
AcDbEntity
  8
DIMENSIONS
 62
     0
100
AcDbMText
 10
42.3659101744324
 20
40.46947827937042
 30
0.0
 40
0.36
 41
0.0
 71
     5
 72
     1
  1
\A1;[115mm]
 73
     1
 44
1.0
  0
POINT
  5
6C3
330
4C9
100
AcDbEntity
  8
Defpoints
 62
     0
100
AcDbPoint
 10
40.10991023385289
 20
38.40179608783296
 30
0.0
  0
POINT
  5
6C4
330
4C9
100
AcDbEntity
  8
Defpoints
 62
     0
100
AcDbPoint
 10
44.62191011501191
 20
38.47126013871164
 30
0.0
  0
POINT
  5
6C5
330
4C9
100
AcDbEntity
  8
Defpoints
 62
     0
100
AcDbPoint
 10
44.62191011501191
 20
40.83376399365614
 30
0.0
  0
ENDBLK
  5
4D6
330
4C9
100
AcDbEntity
  8
0
100
AcDbBlockEnd
  0
BLOCK
  5
4E4
330
4D8
100
AcDbEntity
  8
0
100
AcDbBlockBegin
  2
*D12
 70
     1
 10
0.0
 20
0.0
 30
0.0
  3
*D12
  1

  0
LINE
  5
6C6
330
4D8
100
AcDbEntity
  8
DIMENSIONS
 62
     0
370
    -2
100
AcDbLine
 10
44.87139042905604
 20
30.49579558014783
 30
0.0
 11
50.05899896579446
 21
30.49579558014783
 31
0.0
  0
LINE
  5
6C7
330
4D8
100
AcDbEntity
  8
DIMENSIONS
 62
     0
370
    -2
100
AcDbLine
 10
44.87139042905604
 20
18.54079558014783
 30
0.0
 11
50.05899896579446
 21
18.54079558014783
 31
0.0
  0
LINE
  5
6C8
330
4D8
100
AcDbEntity
  8
DIMENSIONS
 62
     0
370
    -2
100
AcDbLine
 10
49.87899896579446
 20
30.13579558014783
 30
0.0
 11
49.87899896579446
 21
25.24686700871926
 31
0.0
  0
LINE
  5
6C9
330
4D8
100
AcDbEntity
  8
DIMENSIONS
 62
     0
370
    -2
100
AcDbLine
 10
49.87899896579446
 20
18.90079558014783
 30
0.0
 11
49.87899896579446
 21
23.7897241515764
 31
0.0
  0
SOLID
  5
6CA
330
4D8
100
AcDbEntity
  8
DIMENSIONS
 62
     0
100
AcDbTrace
 10
49.81899896579446
 20
30.13579558014783
 30
0.0
 11
49.93899896579446
 21
30.13579558014783
 31
0.0
 12
49.87899896579446
 22
30.49579558014783
 32
0.0
 13
49.87899896579446
 23
30.49579558014783
 33
0.0
  0
SOLID
  5
6CB
330
4D8
100
AcDbEntity
  8
DIMENSIONS
 62
     0
100
AcDbTrace
 10
49.81899896579446
 20
18.90079558014783
 30
0.0
 11
49.93899896579446
 21
18.90079558014783
 31
0.0
 12
49.87899896579446
 22
18.54079558014783
 32
0.0
 13
49.87899896579446
 23
18.54079558014783
 33
0.0
  0
MTEXT
  5
6CC
330
4D8
100
AcDbEntity
  8
DIMENSIONS
 62
     0
100
AcDbMText
 10
49.87899896579445
 20
24.88258129443355
 30
0.0
 40
0.36
 41
0.0
 71
     5
 72
     1
  1
\A1;11 15/16"
 73
     1
 44
1.0
  0
MTEXT
  5
6CD
330
4D8
100
AcDbEntity
  8
DIMENSIONS
 62
     0
100
AcDbMText
 10
49.87899896579445
 20
24.15400986586212
 30
0.0
 40
0.36
 41
0.0
 71
     5
 72
     1
  1
\A1;[305mm]
 73
     1
 44
1.0
  0
POINT
  5
6CE
330
4D8
100
AcDbEntity
  8
Defpoints
 62
     0
100
AcDbPoint
 10
44.69139042905604
 20
30.49579558014783
 30
0.0
  0
POINT
  5
6CF
330
4D8
100
AcDbEntity
  8
Defpoints
 62
     0
100
AcDbPoint
 10
44.69139042905604
 20
18.54079558014783
 30
0.0
  0
POINT
  5
6D0
330
4D8
100
AcDbEntity
  8
Defpoints
 62
     0
100
AcDbPoint
 10
49.87899896579446
 20
18.54079558014783
 30
0.0
  0
ENDBLK
  5
4E5
330
4D8
100
AcDbEntity
  8
0
100
AcDbBlockEnd
  0
BLOCK
  5
4F3
330
4E7
100
AcDbEntity
  8
0
100
AcDbBlockBegin
  2
*D13
 70
     1
 10
0.0
 20
0.0
 30
0.0
  3
*D13
  1

  0
LINE
  5
6D1
330
4E7
100
AcDbEntity
  8
DIMENSIONS
 62
     0
370
    -2
100
AcDbLine
 10
44.76591011588697
 20
10.32079600194218
 30
0.0
 11
50.05899896579446
 21
10.32079600194218
 31
0.0
  0
LINE
  5
6D2
330
4E7
100
AcDbEntity
  8
DIMENSIONS
 62
     0
370
    -2
100
AcDbLine
 10
44.87139042905604
 20
18.54079558014783
 30
0.0
 11
50.05899896579446
 21
18.54079558014783
 31
0.0
  0
LINE
  5
6D3
330
4E7
100
AcDbEntity
  8
DIMENSIONS
 62
     0
370
    -2
100
AcDbLine
 10
49.87899896579445
 20
10.68079600194218
 30
0.0
 11
49.87899896579445
 21
13.70222436247358
 31
0.0
  0
LINE
  5
6D4
330
4E7
100
AcDbEntity
  8
DIMENSIONS
 62
     0
370
    -2
100
AcDbLine
 10
49.87899896579446
 20
18.18079558014783
 30
0.0
 11
49.87899896579445
 21
15.15936721961643
 31
0.0
  0
SOLID
  5
6D5
330
4E7
100
AcDbEntity
  8
DIMENSIONS
 62
     0
100
AcDbTrace
 10
49.81899896579445
 20
10.68079600194218
 30
0.0
 11
49.93899896579446
 21
10.68079600194218
 31
0.0
 12
49.87899896579445
 22
10.32079600194218
 32
0.0
 13
49.87899896579445
 23
10.32079600194218
 33
0.0
  0
SOLID
  5
6D6
330
4E7
100
AcDbEntity
  8
DIMENSIONS
 62
     0
100
AcDbTrace
 10
49.81899896579446
 20
18.18079558014783
 30
0.0
 11
49.93899896579446
 21
18.18079558014783
 31
0.0
 12
49.87899896579446
 22
18.54079558014783
 32
0.0
 13
49.87899896579446
 23
18.54079558014783
 33
0.0
  0
MTEXT
  5
6D7
330
4E7
100
AcDbEntity
  8
DIMENSIONS
 62
     0
100
AcDbMText
 10
49.87899896579445
 20
14.79508150533073
 30
0.0
 40
0.36
 41
0.0
 71
     5
 72
     1
  1
\A1;8 1/4"
 73
     1
 44
1.0
  0
MTEXT
  5
6D8
330
4E7
100
AcDbEntity
  8
DIMENSIONS
 62
     0
100
AcDbMText
 10
49.87899896579445
 20
14.0665100767593
 30
0.0
 40
0.36
 41
0.0
 71
     5
 72
     1
  1
\A1;[210mm]
 73
     1
 44
1.0
  0
POINT
  5
6D9
330
4E7
100
AcDbEntity
  8
Defpoints
 62
     0
100
AcDbPoint
 10
44.58591011588697
 20
10.32079600194218
 30
0.0
  0
POINT
  5
6DA
330
4E7
100
AcDbEntity
  8
Defpoints
 62
     0
100
AcDbPoint
 10
44.69139042905604
 20
18.54079558014783
 30
0.0
  0
POINT
  5
6DB
330
4E7
100
AcDbEntity
  8
Defpoints
 62
     0
100
AcDbPoint
 10
49.87899896579446
 20
18.54079558014783
 30
0.0
  0
ENDBLK
  5
4F4
330
4E7
100
AcDbEntity
  8
0
100
AcDbBlockEnd
  0
BLOCK
  5
624
330
618
100
AcDbEntity
  8
0
100
AcDbBlockBegin
  2
*D14
 70
     1
 10
0.0
 20
0.0
 30
0.0
  3
*D14
  1

  0
LINE
  5
6EF
330
618
100
AcDbEntity
  8
DIMENSIONS
 62
     0
370
    -2
100
AcDbLine
 10
22.52604973813417
 20
18.27079558014783
 30
0.0
 11
22.52604973813417
 21
7.137622700323568
 31
0.0
  0
LINE
  5
6F0
330
618
100
AcDbEntity
  8
DIMENSIONS
 62
     0
370
    -2
100
AcDbLine
 10
24.61004947660213
 20
10.17679579940279
 30
0.0
 11
24.61004947660213
 21
7.137622700323568
 31
0.0
  0
LINE
  5
6F1
330
618
100
AcDbEntity
  8
DIMENSIONS
 62
     0
370
    -2
100
AcDbLine
 10
22.16604973813417
 20
7.317622700323568
 30
0.0
 11
21.80604973813417
 21
7.317622700323568
 31
0.0
  0
LINE
  5
6F2
330
618
100
AcDbEntity
  8
DIMENSIONS
 62
     0
370
    -2
100
AcDbLine
 10
24.97004947660213
 20
7.317622700323568
 30
0.0
 11
25.47745828617487
 21
7.317622700323568
 31
0.0
  0
SOLID
  5
6F3
330
618
100
AcDbEntity
  8
DIMENSIONS
 62
     0
100
AcDbTrace
 10
22.16604973813417
 20
7.377622700323567
 30
0.0
 11
22.16604973813417
 21
7.257622700323568
 31
0.0
 12
22.52604973813417
 22
7.317622700323568
 32
0.0
 13
22.52604973813417
 23
7.317622700323568
 33
0.0
  0
SOLID
  5
6F4
330
618
100
AcDbEntity
  8
DIMENSIONS
 62
     0
100
AcDbTrace
 10
24.97004947660213
 20
7.377622700323567
 30
0.0
 11
24.97004947660213
 21
7.257622700323568
 31
0.0
 12
24.61004947660213
 22
7.317622700323568
 32
0.0
 13
24.61004947660213
 23
7.317622700323568
 33
0.0
  0
MTEXT
  5
6F5
330
618
100
AcDbEntity
  8
DIMENSIONS
 62
     0
100
AcDbMText
 10
26.76745828617487
 20
7.317622700323568
 30
0.0
 40
0.36
 41
0.0
 71
     5
 72
     1
  1
\A1;2 1/16"\P [55mm]
 73
     1
 44
1.0
  0
POINT
  5
6F6
330
618
100
AcDbEntity
  8
Defpoints
 62
     0
100
AcDbPoint
 10
22.52604973813417
 20
18.45079558014783
 30
0.0
  0
POINT
  5
6F7
330
618
100
AcDbEntity
  8
Defpoints
 62
     0
100
AcDbPoint
 10
24.61004947660213
 20
10.35679579940279
 30
0.0
  0
POINT
  5
6F8
330
618
100
AcDbEntity
  8
Defpoints
 62
     0
100
AcDbPoint
 10
24.61004947660213
 20
7.317622700323568
 30
0.0
  0
ENDBLK
  5
625
330
618
100
AcDbEntity
  8
0
100
AcDbBlockEnd
  0
ENDSEC
  0
SECTION
  2
ENTITIES
  0
CIRCLE
  5
167
330
1F
100
AcDbEntity
  8
Object
  6
Continuous
370
    15
100
AcDbCircle
 10
12.4400497381345
 20
28.73079558014777
 30
0.0
 40
0.4550000000000019
  0
LINE
  5
168
330
1F
100
AcDbEntity
  8
Object
  6
Continuous
370
    15
100
AcDbLine
 10
17.52954973884763
 20
10.33879590067249
 30
0.0
 11
17.53054973729556
 21
10.33879590067249
 31
0.0
  0
LINE
  5
169
330
1F
100
AcDbEntity
  8
Object
  6
Continuous
370
    15
100
AcDbLine
 10
10.53010418266498
 20
10.40438564964078
 30
0.0
 11
10.48604954492125
 21
10.36033101189705
 31
0.0
  0
LINE
  5
16A
330
1F
100
AcDbEntity
  8
Object
  6
Continuous
370
    15
100
AcDbLine
 10
10.48604954492125
 20
38.47126013871164
 30
0.0
 11
10.53053244438433
 21
38.42677723924856
 31
0.0
  0
LINE
  5
16B
330
1F
100
AcDbEntity
  8
Object
  6
Continuous
370
    15
100
AcDbLine
 10
10.53363939515924
 20
38.43074188678194
 30
0.0
 11
10.4895853440754
 21
38.4747953512059
 31
0.0
  0
LINE
  5
16C
330
1F
100
AcDbEntity
  8
Object
  6
Continuous
370
    15
100
AcDbLine
 10
24.57051446664727
 20
38.4747953512059
 30
0.0
 11
24.53034234405239
 21
38.4346244019308
 31
0.0
  0
LINE
  5
16D
330
1F
100
AcDbEntity
  8
Object
  6
Continuous
370
    15
100
AcDbLine
 10
24.52999562805768
 20
38.42720550096791
 30
0.0
 11
24.57404967914153
 21
38.47126013871164
 31
0.0
  0
LINE
  5
16E
330
1F
100
AcDbEntity
  8
Object
  6
Continuous
370
    15
100
AcDbLine
 10
24.57404967914153
 20
10.36033101189705
 30
0.0
 11
24.52956677967845
 21
10.40481391136013
 31
0.0
  0
SPLINE
  5
16F
330
1F
100
AcDbEntity
  8
Object
  6
Continuous
370
    15
100
AcDbSpline
210
0.0
220
0.0
230
1.0
 70
     8
 71
     3
 72
    11
 73
     7
 74
     0
 42
0.0000000001
 43
0.0000000001
 40
0.0
 40
0.0
 40
0.0
 40
0.0
 40
0.2499987182674844
 40
0.4999979008806474
 40
0.7500012817325157
 40
1.0
 40
1.0
 40
1.0
 40
1.0
 10
10.45004974746065
 20
38.4747953512059
 30
0.0
 10
10.45059086634573
 20
38.47450081332683
 30
0.0
 10
10.45167310512094
 20
38.4739117370216
 30
0.0
 10
10.4599981150412
 20
38.47302874041054
 30
0.0
 10
10.47189747605356
 20
38.47214326135882
 30
0.0
 10
10.48133221795875
 20
38.47155451109732
 30
0.0
 10
10.48604954492125
 20
38.47126013871164
 30
0.0
  0
SPLINE
  5
170
330
1F
100
AcDbEntity
  8
Object
  6
Continuous
370
    15
100
AcDbSpline
210
0.0
220
0.0
230
1.0
 70
     8
 71
     3
 72
    11
 73
     7
 74
     0
 42
0.0000000001
 43
0.0000000001
 40
0.0
 40
0.0
 40
0.0
 40
0.0
 40
0.2499987182674844
 40
0.5000020991193527
 40
0.7500012817325157
 40
1.0
 40
1.0
 40
1.0
 40
1.0
 10
10.48604954492125
 20
10.36033101189705
 30
0.0
 10
10.48133221795875
 20
10.36003663951138
 30
0.0
 10
10.47189747605356
 20
10.35944788924988
 30
0.0
 10
10.4599981150412
 20
10.35856241019815
 30
0.0
 10
10.45167310512094
 20
10.35767941358709
 30
0.0
 10
10.45059086634573
 20
10.35709033728187
 30
0.0
 10
10.45004974746065
 20
10.35679579940279
 30
0.0
  0
LINE
  5
171
330
1F
100
AcDbEntity
  8
Object
  6
Continuous
370
    15
100
AcDbLine
 10
10.45004974746065
 20
10.35679579940279
 30
0.0
 11
10.45004974746065
 21
38.4747953512059
 31
0.0
  0
SPLINE
  5
172
330
1F
100
AcDbEntity
  8
Object
  6
Continuous
370
    15
100
AcDbSpline
210
0.0
220
0.0
230
1.0
 70
     8
 71
     3
 72
    11
 73
     7
 74
     0
 42
0.0000000001
 43
0.0000000001
 40
0.0
 40
0.0
 40
0.0
 40
0.0
 40
0.2499953011297386
 40
0.4999924409541445
 40
0.7499931241804231
 40
1.0
 40
1.0
 40
1.0
 40
1.0
 10
24.57404967914153
 20
38.51079514866651
 30
0.0
 10
24.57375491007176
 20
38.51025427234941
 30
0.0
 10
24.57316536976423
 20
38.50917251573712
 30
0.0
 10
24.57228231859249
 20
38.50084734558805
 30
0.0
 10
24.57139775453459
 20
38.48894783160877
 30
0.0
 10
24.57080889837404
 20
38.47951288362413
 30
0.0
 10
24.57051446664727
 20
38.4747953512059
 30
0.0
  0
SPLINE
  5
173
330
1F
100
AcDbEntity
  8
Object
  6
Continuous
370
    15
100
AcDbSpline
210
0.0
220
0.0
230
1.0
 70
     8
 71
     3
 72
    11
 73
     7
 74
     0
 42
0.0000000001
 43
0.0000000001
 40
0.0
 40
0.0
 40
0.0
 40
0.0
 40
0.2500073665768338
 40
0.5000072318434427
 40
0.7500048624569593
 40
1.0
 40
1.0
 40
1.0
 40
1.0
 10
10.4895853440754
 20
38.4747953512059
 30
0.0
 10
10.489290581139
 20
38.47951287713557
 30
0.0
 10
10.48870106411039
 20
38.48894778744858
 30
0.0
 10
10.48781794971447
 20
38.50084738388567
 30
0.0
 10
10.48693359420558
 20
38.50917250220014
 30
0.0
 10
10.48634422703645
 20
38.51025426830902
 30
0.0
 10
10.48604954492125
 20
38.51079514866651
 30
0.0
  0
LINE
  5
174
330
1F
100
AcDbEntity
  8
Object
  6
Continuous
370
    15
100
AcDbLine
 10
10.48604954492125
 20
38.51079514866651
 30
0.0
 11
24.57404967914153
 21
38.51079514866651
 31
0.0
  0
LINE
  5
175
330
1F
100
AcDbEntity
  8
Object
  6
Continuous
370
    15
100
AcDbLine
 10
24.57404967914153
 20
38.4927952499362
 30
0.0
 11
24.57404967914153
 21
38.51079514866651
 31
0.0
  0
SPLINE
  5
176
330
1F
100
AcDbEntity
  8
Object
  6
Continuous
370
    15
100
AcDbSpline
210
0.0
220
0.0
230
1.0
 70
     8
 71
     3
 72
    11
 73
     7
 74
     0
 42
0.0000000001
 43
0.0000000001
 40
0.0
 40
0.0
 40
0.0
 40
0.0
 40
0.2499911780510891
 40
0.4999976633218206
 40
0.749995314027532
 40
1.0
 40
1.0
 40
1.0
 40
1.0
 10
24.57404967914153
 20
38.4927952499362
 30
0.0
 10
24.57375490476429
 20
38.49252509744243
 30
0.0
 10
24.57316533796046
 20
38.49198477591318
 30
0.0
 10
24.57228234929768
 20
38.48782125466918
 30
0.0
 10
24.5713977487698
 20
38.48187162658182
 30
0.0
 10
24.57080889678325
 20
38.47715413179032
 30
0.0
 10
24.57051446664727
 20
38.4747953512059
 30
0.0
  0
LINE
  5
177
330
1F
100
AcDbEntity
  8
Object
  6
Continuous
370
    15
100
AcDbLine
 10
10.48604954492125
 20
38.51079514866651
 30
0.0
 11
10.48604954492125
 21
38.4927952499362
 31
0.0
  0
SPLINE
  5
178
330
1F
100
AcDbEntity
  8
Object
  6
Continuous
370
    15
100
AcDbSpline
210
0.0
220
0.0
230
1.0
 70
     8
 71
     3
 72
    11
 73
     7
 74
     0
 42
0.0000000001
 43
0.0000000001
 40
0.0
 40
0.0
 40
0.0
 40
0.0
 40
0.2500066260816634
 40
0.5000010432371481
 40
0.7500094685938037
 40
1.0
 40
1.0
 40
1.0
 40
1.0
 10
10.4895853440754
 20
38.4747953512059
 30
0.0
 10
10.48929058431613
 20
38.47715411896476
 30
0.0
 10
10.48870107919202
 20
38.48187153929345
 30
0.0
 10
10.487817909091
 20
38.48782133037277
 30
0.0
 10
10.48693363134727
 20
38.49198474915784
 30
0.0
 10
10.48634423336547
 20
38.49252508945598
 30
0.0
 10
10.48604954492125
 20
38.4927952499362
 30
0.0
  0
LINE
  5
179
330
1F
100
AcDbEntity
  8
Object
  6
Continuous
370
    15
100
AcDbLine
 10
10.46804964619095
 20
38.4747953512059
 30
0.0
 11
10.45004974746065
 21
38.4747953512059
 31
0.0
  0
SPLINE
  5
17A
330
1F
100
AcDbEntity
  8
Object
  6
Continuous
370
    15
100
AcDbSpline
210
0.0
220
0.0
230
1.0
 70
     8
 71
     3
 72
    11
 73
     7
 74
     0
 42
0.0000000001
 43
0.0000000001
 40
0.0
 40
0.0
 40
0.0
 40
0.0
 40
0.2500025010673918
 40
0.5000034555816402
 40
0.7500095856987668
 40
1.0
 40
1.0
 40
1.0
 40
1.0
 10
10.46804964619095
 20
38.4747953512059
 30
0.0
 10
10.46832032569057
 20
38.47450081427569
 30
0.0
 10
10.46886168301536
 20
38.47391174223734
 30
0.0
 10
10.47302411672703
 20
38.47302873497504
 30
0.0
 10
10.47897371276411
 20
38.4721432852364
 30
0.0
 10
10.48369098362639
 20
38.47155451471785
 30
0.0
 10
10.48604954492125
 20
38.47126013871164
 30
0.0
  0
LINE
  5
17B
330
1F
100
AcDbEntity
  8
Object
  6
Continuous
370
    15
100
AcDbLine
 10
10.45004974746065
 20
10.35679579940279
 30
0.0
 11
10.46804964619095
 21
10.35679579940279
 31
0.0
  0
SPLINE
  5
17C
330
1F
100
AcDbEntity
  8
Object
  6
Continuous
370
    15
100
AcDbSpline
210
0.0
220
0.0
230
1.0
 70
     8
 71
     3
 72
    11
 73
     7
 74
     0
 42
0.0000000001
 43
0.0000000001
 40
0.0
 40
0.0
 40
0.0
 40
0.0
 40
0.2499904143012333
 40
0.4999965444183598
 40
0.7499974989326083
 40
1.0
 40
1.0
 40
1.0
 40
1.0
 10
10.48604954492125
 20
10.36033101189705
 30
0.0
 10
10.48369098362639
 20
10.36003663589085
 30
0.0
 10
10.47897371276411
 20
10.35944786537229
 30
0.0
 10
10.47302411672703
 20
10.35856241563365
 30
0.0
 10
10.46886168301536
 20
10.35767940837136
 30
0.0
 10
10.46832032569058
 20
10.357090336333
 30
0.0
 10
10.46804964619095
 20
10.35679579940279
 30
0.0
  0
SPLINE
  5
17D
330
1F
100
AcDbEntity
  8
Object
  6
Continuous
370
    15
100
AcDbSpline
210
0.0
220
0.0
230
1.0
 70
     8
 71
     3
 72
    11
 73
     7
 74
     0
 42
0.0000000001
 43
0.0000000001
 40
0.0
 40
0.0
 40
0.0
 40
0.0
 40
0.2499987182674844
 40
0.4999979008806474
 40
0.7500012817325157
 40
1.0
 40
1.0
 40
1.0
 40
1.0
 10
24.61004947660213
 20
10.35679579940279
 30
0.0
 10
24.60950835771705
 20
10.35709033728187
 30
0.0
 10
24.60842611894184
 20
10.35767941358709
 30
0.0
 10
24.60010110902158
 20
10.35856241019815
 30
0.0
 10
24.58820174800921
 20
10.35944788924988
 30
0.0
 10
24.57876700610403
 20
10.36003663951138
 30
0.0
 10
24.57404967914153
 20
10.36033101189705
 30
0.0
  0
LINE
  5
17E
330
1F
100
AcDbEntity
  8
Object
  6
Continuous
370
    15
100
AcDbLine
 10
24.59204957787183
 20
10.35679579940279
 30
0.0
 11
24.61004947660213
 21
10.35679579940279
 31
0.0
  0
SPLINE
  5
17F
330
1F
100
AcDbEntity
  8
Object
  6
Continuous
370
    15
100
AcDbSpline
210
0.0
220
0.0
230
1.0
 70
     8
 71
     3
 72
    11
 73
     7
 74
     0
 42
0.0000000001
 43
0.0000000001
 40
0.0
 40
0.0
 40
0.0
 40
0.0
 40
0.2499944526014823
 40
0.4999913691501105
 40
0.7499934612180214
 40
1.0
 40
1.0
 40
1.0
 40
1.0
 10
24.59204957787183
 20
10.35679579940279
 30
0.0
 10
24.5917791399754
 20
10.35709033802143
 30
0.0
 10
24.59123826151712
 20
10.35767941816167
 30
0.0
 10
24.58707565232054
 20
10.35856240953578
 30
0.0
 10
24.58112594864115
 20
10.35944790849966
 30
0.0
 10
24.57640844962607
 20
10.36003664235266
 30
0.0
 10
24.57404967914153
 20
10.36033101189705
 30
0.0
  0
SPLINE
  5
180
330
1F
100
AcDbEntity
  8
Object
  6
Continuous
370
    15
100
AcDbSpline
210
0.0
220
0.0
230
1.0
 70
     8
 71
     3
 72
    11
 73
     7
 74
     0
 42
0.0000000001
 43
0.0000000001
 40
0.0
 40
0.0
 40
0.0
 40
0.0
 40
0.2499987182674844
 40
0.5000020991193527
 40
0.7500012817325157
 40
1.0
 40
1.0
 40
1.0
 40
1.0
 10
24.57404967914153
 20
38.47126013871164
 30
0.0
 10
24.57876700610403
 20
38.47155451109732
 30
0.0
 10
24.58820174800921
 20
38.47214326135882
 30
0.0
 10
24.60010110902158
 20
38.47302874041055
 30
0.0
 10
24.60842611894184
 20
38.4739117370216
 30
0.0
 10
24.60950835771705
 20
38.47450081332683
 30
0.0
 10
24.61004947660213
 20
38.4747953512059
 30
0.0
  0
LINE
  5
181
330
1F
100
AcDbEntity
  8
Object
  6
Continuous
370
    15
100
AcDbLine
 10
24.61004947660213
 20
38.4747953512059
 30
0.0
 11
24.61004947660213
 21
10.35679579940279
 31
0.0
  0
LINE
  5
182
330
1F
100
AcDbEntity
  8
Object
  6
Continuous
370
    15
100
AcDbLine
 10
24.61004947660213
 20
38.4747953512059
 30
0.0
 11
24.59204957787183
 21
38.4747953512059
 31
0.0
  0
SPLINE
  5
183
330
1F
100
AcDbEntity
  8
Object
  6
Continuous
370
    15
100
AcDbSpline
210
0.0
220
0.0
230
1.0
 70
     8
 71
     3
 72
    11
 73
     7
 74
     0
 42
0.0000000001
 43
0.0000000001
 40
0.0
 40
0.0
 40
0.0
 40
0.0
 40
0.2500065387819786
 40
0.5000086308498895
 40
0.7500055473985177
 40
1.0
 40
1.0
 40
1.0
 40
1.0
 10
24.57404967914153
 20
38.47126013871164
 30
0.0
 10
24.57640844962607
 20
38.47155450825603
 30
0.0
 10
24.58112594864115
 20
38.47214324210904
 30
0.0
 10
24.58707565232054
 20
38.47302874107291
 30
0.0
 10
24.59123826151712
 20
38.47391173244702
 30
0.0
 10
24.5917791399754
 20
38.47450081258727
 30
0.0
 10
24.59204957787183
 20
38.4747953512059
 30
0.0
  0
SPLINE
  5
184
330
1F
100
AcDbEntity
  8
Object
  6
Continuous
370
    15
100
AcDbSpline
210
0.0
220
0.0
230
1.0
 70
     8
 71
     3
 72
    11
 73
     7
 74
     0
 42
0.0000000001
 43
0.0000000001
 40
0.0
 40
0.0
 40
0.0
 40
0.0
 40
0.2499951375430407
 40
0.4999927681565574
 40
0.7499926334231663
 40
1.0
 40
1.0
 40
1.0
 40
1.0
 10
10.48604954492125
 20
10.32079600194219
 30
0.0
 10
10.48634422703645
 20
10.32133688229967
 30
0.0
 10
10.48693359420558
 20
10.32241864840855
 30
0.0
 10
10.48781794971447
 20
10.33074376672303
 30
0.0
 10
10.48870106411039
 20
10.3426433631601
 30
0.0
 10
10.489290581139
 20
10.35207827347312
 30
0.0
 10
10.4895853440754
 20
10.35679579940279
 30
0.0
  0
LINE
  5
185
330
1F
100
AcDbEntity
  8
Object
  6
Continuous
370
    15
100
AcDbLine
 10
17.52954973884763
 20
10.35079544205276
 30
0.0
 11
17.52954973884763
 21
10.32079600194219
 31
0.0
  0
LINE
  5
186
330
1F
100
AcDbEntity
  8
Object
  6
Continuous
370
    15
100
AcDbLine
 10
17.52954973884763
 20
10.32079600194219
 30
0.0
 11
10.48604954492125
 21
10.32079600194219
 31
0.0
  0
LINE
  5
187
330
1F
100
AcDbEntity
  8
Object
  6
Continuous
370
    15
100
AcDbLine
 10
10.4895853440754
 20
10.35679579940279
 30
0.0
 11
10.52975688001039
 21
10.39696674867789
 31
0.0
  0
LINE
  5
188
330
1F
100
AcDbEntity
  8
Object
  6
Continuous
370
    15
100
AcDbLine
 10
17.53054973729556
 20
10.32079600194219
 30
0.0
 11
17.53054973729556
 21
10.35079544205276
 31
0.0
  0
SPLINE
  5
189
330
1F
100
AcDbEntity
  8
Object
  6
Continuous
370
    15
100
AcDbSpline
210
0.0
220
0.0
230
1.0
 70
     8
 71
     3
 72
    11
 73
     7
 74
     0
 42
0.0000000001
 43
0.0000000001
 40
0.0
 40
0.0
 40
0.0
 40
0.0
 40
0.250006875819577
 40
0.5000075590458555
 40
0.7500046988702614
 40
1.0
 40
1.0
 40
1.0
 40
1.0
 10
24.57051446664727
 20
10.35679579940279
 30
0.0
 10
24.57080889837404
 20
10.35207826698456
 30
0.0
 10
24.57139775453459
 20
10.34264331899992
 30
0.0
 10
24.57228231859249
 20
10.33074380502064
 30
0.0
 10
24.57316536976423
 20
10.32241863487157
 30
0.0
 10
24.57375491007176
 20
10.32133687825928
 30
0.0
 10
24.57404967914153
 20
10.32079600194219
 30
0.0
  0
LINE
  5
18A
330
1F
100
AcDbEntity
  8
Object
  6
Continuous
370
    15
100
AcDbLine
 10
24.57404967914153
 20
10.32079600194219
 30
0.0
 11
17.53054973729556
 21
10.32079600194219
 31
0.0
  0
LINE
  5
18B
330
1F
100
AcDbEntity
  8
Object
  6
Continuous
370
    15
100
AcDbLine
 10
24.52645982890354
 20
10.40084926382674
 30
0.0
 11
24.57051446664727
 21
10.35679579940279
 31
0.0
  0
LINE
  5
18C
330
1F
100
AcDbEntity
  8
Object
  6
Continuous
370
    15
100
AcDbLine
 10
24.57404967914153
 20
10.32079600194219
 30
0.0
 11
24.57404967914153
 21
10.33879590067249
 31
0.0
  0
SPLINE
  5
18D
330
1F
100
AcDbEntity
  8
Object
  6
Continuous
370
    15
100
AcDbSpline
210
0.0
220
0.0
230
1.0
 70
     8
 71
     3
 72
    11
 73
     7
 74
     0
 42
0.0000000001
 43
0.0000000001
 40
0.0
 40
0.0
 40
0.0
 40
0.0
 40
0.2500046859724681
 40
0.5000023366781794
 40
0.750008821948911
 40
1.0
 40
1.0
 40
1.0
 40
1.0
 10
24.57051446664727
 20
10.35679579940279
 30
0.0
 10
24.57080889678325
 20
10.35443701881836
 30
0.0
 10
24.5713977487698
 20
10.34971952402687
 30
0.0
 10
24.57228234929768
 20
10.34376989593951
 30
0.0
 10
24.57316533796046
 20
10.33960637469551
 30
0.0
 10
24.57375490476429
 20
10.33906605316626
 30
0.0
 10
24.57404967914153
 20
10.33879590067249
 30
0.0
  0
LINE
  5
18E
330
1F
100
AcDbEntity
  8
Object
  6
Continuous
370
    15
100
AcDbLine
 10
10.48604954492125
 20
10.33879590067249
 30
0.0
 11
10.48604954492125
 21
10.32079600194219
 31
0.0
  0
SPLINE
  5
18F
330
1F
100
AcDbEntity
  8
Object
  6
Continuous
370
    15
100
AcDbSpline
210
0.0
220
0.0
230
1.0
 70
     8
 71
     3
 72
    11
 73
     7
 74
     0
 42
0.0000000001
 43
0.0000000001
 40
0.0
 40
0.0
 40
0.0
 40
0.0
 40
0.2499905314061964
 40
0.4999989567628522
 40
0.7499933739183368
 40
1.0
 40
1.0
 40
1.0
 40
1.0
 10
10.48604954492125
 20
10.33879590067249
 30
0.0
 10
10.48634423336547
 20
10.33906606115272
 30
0.0
 10
10.48693363134727
 20
10.33960640145085
 30
0.0
 10
10.487817909091
 20
10.34376982023593
 30
0.0
 10
10.48870107919202
 20
10.34971961131524
 30
0.0
 10
10.48929058431613
 20
10.35443703164393
 30
0.0
 10
10.4895853440754
 20
10.35679579940279
 30
0.0
  0
ARC
  5
190
330
1F
100
AcDbEntity
  8
Object
  6
Continuous
370
    15
100
AcDbCircle
 10
10.48604973813449
 20
10.35679558014776
 30
0.0
 40
0.0359999999999996
100
AcDbArc
 50
180.0
 51
270.0000000000008
  0
ARC
  5
191
330
1F
100
AcDbEntity
  8
Object
  6
Continuous
370
    15
100
AcDbCircle
 10
10.48604973813449
 20
10.35679558014776
 30
0.0
 40
0.0179999999999989
100
AcDbArc
 50
180.0
 51
270.0000000000008
  0
ARC
  5
192
330
1F
100
AcDbEntity
  8
Object
  6
Continuous
370
    15
100
AcDbCircle
 10
24.57404973813449
 20
10.35679558014776
 30
0.0
 40
0.0179999999999989
100
AcDbArc
 50
270.0000000000008
 51
0.0
  0
ARC
  5
193
330
1F
100
AcDbEntity
  8
Object
  6
Continuous
370
    15
100
AcDbCircle
 10
24.57404973813449
 20
10.35679558014776
 30
0.0
 40
0.0360000000000014
100
AcDbArc
 50
270.0000000000008
 51
0.0
  0
ARC
  5
194
330
1F
100
AcDbEntity
  8
Object
  6
Continuous
370
    15
100
AcDbCircle
 10
24.57404973813449
 20
38.47479558014777
 30
0.0
 40
0.0180000000000007
100
AcDbArc
 50
0.0
 51
90.0
  0
ARC
  5
195
330
1F
100
AcDbEntity
  8
Object
  6
Continuous
370
    15
100
AcDbCircle
 10
24.57404973813449
 20
38.47479558014777
 30
0.0
 40
0.0360000000000049
100
AcDbArc
 50
0.0
 51
90.0
  0
ARC
  5
196
330
1F
100
AcDbEntity
  8
Object
  6
Continuous
370
    15
100
AcDbCircle
 10
10.48604973813449
 20
38.47479558014777
 30
0.0
 40
0.0180000000000007
100
AcDbArc
 50
90.00000000000566
 51
180.0
  0
ARC
  5
197
330
1F
100
AcDbEntity
  8
Object
  6
Continuous
370
    15
100
AcDbCircle
 10
10.48604973813449
 20
38.47479558014777
 30
0.0
 40
0.0360000000000014
100
AcDbArc
 50
90.00000000000282
 51
180.0
  0
ARC
  5
198
330
1F
100
AcDbEntity
  8
Object
  6
Continuous
370
    15
100
AcDbCircle
 10
12.4400497381345
 20
28.73079558014777
 30
0.0
 40
0.0875311610668256
100
AcDbArc
 50
297.9307865344802
 51
62.06921346552064
  0
ARC
  5
199
330
1F
100
AcDbEntity
  8
Object
  6
Continuous
370
    15
100
AcDbCircle
 10
12.4400497381345
 20
28.73079558014777
 30
0.0
 40
0.1229553282956491
100
AcDbArc
 50
289.4785805473229
 51
70.52141945267678
  0
SPLINE
  5
19A
330
1F
100
AcDbEntity
  8
Object
  6
Continuous
370
    15
100
AcDbSpline
210
0.0
220
0.0
230
1.0
 70
    24
 71
     3
 72
    10
 73
     6
 74
     0
 42
0.0000000001
 43
0.0000000001
 40
0.0
 40
0.0
 40
0.0
 40
0.0
 40
0.2381290105898667
 40
0.7054641805021867
 40
1.0
 40
1.0
 40
1.0
 40
1.0
 10
12.48104985850739
 20
28.80813048800995
 30
0.0
 10
12.48104985850739
 20
28.8107469983094
 30
0.0
 10
12.48104985850739
 20
28.81849848683909
 30
0.0
 10
12.48104985850739
 20
28.8319018240559
 30
0.0
 10
12.48104985850739
 20
28.84258397275176
 30
0.0
 10
12.48104985850739
 20
28.84671364229407
 30
0.0
  0
SPLINE
  5
19B
330
1F
100
AcDbEntity
  8
Object
  6
Continuous
370
    15
100
AcDbSpline
210
0.0
220
0.0
230
1.0
 70
    24
 71
     3
 72
    10
 73
     6
 74
     0
 42
0.0000000001
 43
0.0000000001
 40
0.0
 40
0.0
 40
0.0
 40
0.0
 40
0.394639857934227
 40
0.8544739747641006
 40
1.0
 40
1.0
 40
1.0
 40
1.0
 10
12.48104985850739
 20
28.61487738715293
 30
0.0
 10
12.48104985850739
 20
28.62041743612604
 30
0.0
 10
12.48104985850739
 20
28.63241274671433
 30
0.0
 10
12.48104985850739
 20
28.64535461562427
 30
0.0
 10
12.48104985850739
 20
28.65188956674639
 30
0.0
 10
12.48104985850739
 20
28.65346054143704
 30
0.0
  0
ARC
  5
19C
330
1F
100
AcDbEntity
  8
Object
  6
Continuous
370
    15
100
AcDbCircle
 10
12.4400497381345
 20
28.73079558014777
 30
0.0
 40
0.1229553282956491
100
AcDbArc
 50
109.4785805473232
 51
250.5214194526787
  0
SPLINE
  5
19D
330
1F
100
AcDbEntity
  8
Object
  6
Continuous
370
    15
100
AcDbSpline
210
0.0
220
0.0
230
1.0
 70
    24
 71
     3
 72
    11
 73
     7
 74
     0
 42
0.0000000001
 43
0.0000000001
 40
0.0
 40
0.0
 40
0.0
 40
0.0
 40
0.0233905514498221
 40
0.4613195467252754
 40
0.7619467120446548
 40
1.0
 40
1.0
 40
1.0
 40
1.0
 10
12.39904947244951
 20
28.84671364229407
 30
0.0
 10
12.39904947244951
 20
28.84638551364785
 30
0.0
 10
12.3990494724495
 20
28.83991400489917
 30
0.0
 10
12.39904947244952
 20
28.82920636128736
 30
0.0
 10
12.39904947244951
 20
28.81666748167975
 30
0.0
 10
12.39904947244951
 20
28.81074690507087
 30
0.0
 10
12.39904947244951
 20
28.80813048800995
 30
0.0
  0
ARC
  5
19E
330
1F
100
AcDbEntity
  8
Object
  6
Continuous
370
    15
100
AcDbCircle
 10
12.4400497381345
 20
28.73079558014777
 30
0.0
 40
0.0875311610668256
100
AcDbArc
 50
117.9307865344793
 51
242.0692134655214
  0
SPLINE
  5
19F
330
1F
100
AcDbEntity
  8
Object
  6
Continuous
370
    15
100
AcDbSpline
210
0.0
220
0.0
230
1.0
 70
    24
 71
     3
 72
    10
 73
     6
 74
     0
 42
0.0000000001
 43
0.0000000001
 40
0.0
 40
0.0
 40
0.0
 40
0.0
 40
0.2088105610371699
 40
0.6616413762093377
 40
1.0
 40
1.0
 40
1.0
 40
1.0
 10
12.39904947244951
 20
28.65346054143704
 30
0.0
 10
12.39904947244951
 20
28.65117845737634
 30
0.0
 10
12.39904947244951
 20
28.64394739956466
 30
0.0
 10
12.39904947244952
 20
28.63072503574218
 30
0.0
 10
12.39904947244952
 20
28.6196245853854
 30
0.0
 10
12.39904947244951
 20
28.61487738715293
 30
0.0
  0
CIRCLE
  5
1A0
330
1F
100
AcDbEntity
  8
Object
  6
Continuous
370
    15
100
AcDbCircle
 10
12.4400497381345
 20
28.73079558014777
 30
0.0
 40
0.2800000000000011
  0
LINE
  5
1A1
330
1F
100
AcDbEntity
  8
Object
  6
Continuous
370
    15
100
AcDbLine
 10
12.39904947244951
 20
28.58079567420113
 30
0.0
 11
12.48104985850739
 21
28.58079567420113
 31
0.0
  0
LINE
  5
1A2
330
1F
100
AcDbEntity
  8
Object
  6
Continuous
370
    15
100
AcDbLine
 10
12.48104985850739
 20
28.97079543555726
 30
0.0
 11
12.39904947244951
 21
28.97079543555726
 31
0.0
  0
LINE
  5
1A3
330
1F
100
AcDbEntity
  8
Object
  6
Continuous
370
    15
100
AcDbLine
 10
12.39904947244951
 20
28.61487738715293
 30
0.0
 11
12.39904947244951
 21
28.58079567420113
 31
0.0
  0
LINE
  5
1A4
330
1F
100
AcDbEntity
  8
Object
  6
Continuous
370
    15
100
AcDbLine
 10
12.39904947244951
 20
28.97079543555726
 30
0.0
 11
12.39904947244951
 21
28.84671364229406
 31
0.0
  0
LINE
  5
1A5
330
1F
100
AcDbEntity
  8
Object
  6
Continuous
370
    15
100
AcDbLine
 10
12.48104985850739
 20
28.84671364229406
 30
0.0
 11
12.48104985850739
 21
28.97079543555726
 31
0.0
  0
LINE
  5
1A6
330
1F
100
AcDbEntity
  8
Object
  6
Continuous
370
    15
100
AcDbLine
 10
12.48104985850739
 20
28.58079567420113
 30
0.0
 11
12.48104985850739
 21
28.61487738715293
 31
0.0
  0
CIRCLE
  5
1A7
330
1F
100
AcDbEntity
  8
Object
  6
Continuous
370
    15
100
AcDbCircle
 10
12.4400497381345
 20
28.73079558014777
 30
0.0
 40
0.3099999999999987
  0
SPLINE
  5
1A8
330
1F
100
AcDbEntity
  8
Object
  6
Continuous
370
    15
100
AcDbSpline
210
0.0
220
0.0
230
1.0
 70
    24
 71
     3
 72
    13
 73
     9
 74
     0
 42
0.0000000001
 43
0.0000000001
 40
0.0
 40
0.0
 40
0.0
 40
0.0
 40
0.136751852599162
 40
0.3636826675412698
 40
0.5004752642602302
 40
0.7402813934851889
 40
0.9803997795090552
 40
1.0
 40
1.0
 40
1.0
 40
1.0
 10
12.48104985850739
 20
28.65346054143704
 30
0.0
 10
12.48104985850739
 20
28.65950957765926
 30
0.0
 10
12.48104985850739
 20
28.67559659650058
 30
0.0
 10
12.48104985850739
 20
28.70275953321266
 30
0.0
 10
12.48104985850739
 20
28.73653748352773
 30
0.0
 10
12.48104985850739
 20
28.77134426739306
 30
0.0
 10
12.48104985850739
 20
28.79631848763279
 30
0.0
 10
12.48104985850739
 20
28.80730162224995
 30
0.0
 10
12.48104985850739
 20
28.80813048800995
 30
0.0
  0
SPLINE
  5
1A9
330
1F
100
AcDbEntity
  8
Object
  6
Continuous
370
    15
100
AcDbSpline
210
0.0
220
0.0
230
1.0
 70
    24
 71
     3
 72
    13
 73
     9
 74
     0
 42
0.0000000001
 43
0.0000000001
 40
0.0
 40
0.0
 40
0.0
 40
0.0
 40
0.1367504217211062
 40
0.3636812101964096
 40
0.5004755268755609
 40
0.7402799092174216
 40
0.9803997817950172
 40
1.0
 40
1.0
 40
1.0
 40
1.0
 10
12.39904947244951
 20
28.80813048800995
 30
0.0
 10
12.39904947244951
 20
28.80208155359823
 30
0.0
 10
12.39904947244952
 20
28.78599470165607
 30
0.0
 10
12.39904947244951
 20
28.75883168884924
 30
0.0
 10
12.39904947244951
 20
28.72505373470129
 30
0.0
 10
12.39904947244952
 20
28.69024691950548
 30
0.0
 10
12.3990494724495
 20
28.66527260467441
 30
0.0
 10
12.39904947244952
 20
28.65428940711367
 30
0.0
 10
12.39904947244951
 20
28.65346054143704
 30
0.0
  0
LINE
  5
1AA
330
1F
100
AcDbEntity
  8
Object
  6
Continuous
370
    15
100
AcDbLine
 10
12.39904947244951
 20
28.76079554149396
 30
0.0
 11
12.48104985850739
 21
28.76079554149396
 31
0.0
  0
ARC
  5
1AB
330
1F
100
AcDbEntity
  8
Object
  6
Continuous
370
    15
100
AcDbCircle
 10
12.4400497381345
 20
28.73079558014777
 30
0.0
 40
0.1150000000000013
100
AcDbArc
 50
249.1132628872559
 51
290.8867371127457
  0
CIRCLE
  5
1AC
330
1F
100
AcDbEntity
  8
Object
  6
Continuous
370
    15
100
AcDbCircle
 10
12.4400497381345
 20
28.73079558014777
 30
0.0
 40
0.4548024873224215
  0
CIRCLE
  5
1AD
330
1F
100
AcDbEntity
  8
Object
  6
Continuous
370
    15
100
AcDbCircle
 10
12.4400497381345
 20
28.73079558014777
 30
0.0
 40
0.3150000000000013
  0
SPLINE
  5
1AE
330
1F
100
AcDbEntity
  8
Object
  6
Continuous
370
    15
100
AcDbSpline
210
0.0
220
0.0
230
1.0
 70
     8
 71
     3
 72
    12
 73
     8
 74
     0
 42
0.0000000001
 43
0.0000000001
 40
0.0
 40
0.0
 40
0.0
 40
0.0
 40
0.1968187777055253
 40
0.4174029380565736
 40
0.6379874648490177
 40
0.8585739437433426
 40
1.0
 40
1.0
 40
1.0
 40
1.0
 10
10.55904998161398
 20
10.42979506277574
 30
0.0
 10
10.55091546600137
 20
10.42787501207259
 30
0.0
 10
10.53366421205114
 20
10.42380306927295
 30
0.0
 10
10.50987903740739
 20
10.41756533540924
 30
0.0
 10
10.49121303694811
 20
10.41110353019214
 30
0.0
 10
10.48141897090945
 20
10.40540507684346
 30
0.0
 10
10.48043440919903
 20
10.40188018898597
 30
0.0
 10
10.48004977423112
 20
10.40050313449192
 30
0.0
  0
SPLINE
  5
1AF
330
1F
100
AcDbEntity
  8
Object
  6
Continuous
370
    15
100
AcDbSpline
210
0.0
220
0.0
230
1.0
 70
     8
 71
     3
 72
    11
 73
     7
 74
     0
 42
0.0000000001
 43
0.0000000001
 40
0.0
 40
0.0
 40
0.0
 40
0.0
 40
0.2762976760268272
 40
0.5295541101938533
 40
0.7827521850373064
 40
1.0
 40
1.0
 40
1.0
 40
1.0
 10
10.55904998161398
 20
10.42979506277574
 30
0.0
 10
10.55470090881854
 20
10.42709418988146
 30
0.0
 10
10.54636544466453
 20
10.42191767749511
 30
0.0
 10
10.53632792346133
 20
10.41427705837681
 30
0.0
 10
10.53013023666339
 20
10.40720754274363
 30
0.0
 10
10.52939122431171
 20
10.40262110944676
 30
0.0
 10
10.52904995484351
 20
10.40050313449192
 30
0.0
  0
LINE
  5
1B0
330
1F
100
AcDbEntity
  8
Object
  6
Continuous
370
    15
100
AcDbLine
 10
10.48004977423112
 20
10.40050313449192
 30
0.0
 11
10.52904995484351
 21
10.40050313449192
 31
0.0
  0
SPLINE
  5
1B1
330
1F
100
AcDbEntity
  8
Object
  6
Continuous
370
    15
100
AcDbSpline
210
0.0
220
0.0
230
1.0
 70
     8
 71
     3
 72
    12
 73
     8
 74
     0
 42
0.0000000001
 43
0.0000000001
 40
0.0
 40
0.0
 40
0.0
 40
0.0
 40
0.1968168733522802
 40
0.4173993567326081
 40
0.6379884431552463
 40
0.8585747147408097
 40
1.0
 40
1.0
 40
1.0
 40
1.0
 10
24.5010498291087
 20
10.42979506277574
 30
0.0
 10
24.50297048841522
 20
10.42166078090617
 30
0.0
 10
24.50704372637183
 20
10.40441000376491
 30
0.0
 10
24.51327901744634
 20
10.38062453542001
 30
0.0
 10
24.51974190487582
 20
10.36195794700129
 30
0.0
 10
24.52544130646865
 20
10.35216477467889
 30
0.0
 10
24.52896554644765
 20
10.3511801144507
 30
0.0
 10
24.53034234405239
 20
10.35079544205276
 30
0.0
  0
LINE
  5
1B2
330
1F
100
AcDbEntity
  8
Object
  6
Continuous
370
    15
100
AcDbLine
 10
10.52975688001039
 20
10.35079544205276
 30
0.0
 11
24.53034234405239
 21
10.35079544205276
 31
0.0
  0
SPLINE
  5
1B3
330
1F
100
AcDbEntity
  8
Object
  6
Continuous
370
    15
100
AcDbSpline
210
0.0
220
0.0
230
1.0
 70
     8
 71
     3
 72
    12
 73
     8
 74
     0
 42
0.0000000001
 43
0.0000000001
 40
0.0
 40
0.0
 40
0.0
 40
0.0
 40
0.1968218823164895
 40
0.4173985451280903
 40
0.6379911936318018
 40
0.8585777126592567
 40
0.9999999999999998
 40
0.9999999999999998
 40
0.9999999999999998
 40
0.9999999999999998
 10
10.52975688001039
 20
10.35079544205276
 30
0.0
 10
10.53167750968225
 20
10.35153187900459
 30
0.0
 10
10.53575057321225
 20
10.35309363478425
 30
0.0
 10
10.54198624730555
 20
10.36602281926155
 30
0.0
 10
10.54844896074256
 20
10.38637723261601
 30
0.0
 10
10.55414803695149
 20
10.40903255333134
 30
0.0
 10
10.55767294266019
 20
10.42396252359957
 30
0.0
 10
10.55904998161398
 20
10.42979506277574
 30
0.0
  0
LINE
  5
1B4
330
1F
100
AcDbEntity
  8
Object
  6
Continuous
370
    15
100
AcDbLine
 10
10.55904998161398
 20
10.42979506277574
 30
0.0
 11
24.5010498291087
 21
10.42979506277574
 31
0.0
  0
SPLINE
  5
1B5
330
1F
100
AcDbEntity
  8
Object
  6
Continuous
370
    15
100
AcDbSpline
210
0.0
220
0.0
230
1.0
 70
     8
 71
     3
 72
    11
 73
     7
 74
     0
 42
0.0000000001
 43
0.0000000001
 40
0.0
 40
0.0
 40
0.0
 40
0.0
 40
0.2762962522259129
 40
0.5295486343398839
 40
0.7827492991109134
 40
1.0
 40
1.0
 40
1.0
 40
1.0
 10
24.5010498291087
 20
10.42979506277574
 30
0.0
 10
24.50375103443422
 20
10.425446280263
 30
0.0
 10
24.50892815710482
 20
10.41711141570329
 30
0.0
 10
24.51656749963066
 20
10.40707314724408
 30
0.0
 10
24.52363815405855
 20
10.40087686400174
 30
0.0
 10
24.52822443566458
 20
10.4001371956364
 30
0.0
 10
24.53034234405239
 20
10.39979562266516
 30
0.0
  0
LINE
  5
1B6
330
1F
100
AcDbEntity
  8
Object
  6
Continuous
370
    15
100
AcDbLine
 10
24.53034234405239
 20
10.35079544205276
 30
0.0
 11
24.53034234405239
 21
10.39979562266516
 31
0.0
  0
LINE
  5
1B7
330
1F
100
AcDbEntity
  8
Object
  6
Continuous
370
    15
100
AcDbLine
 10
10.52975688001039
 20
10.35079544205276
 30
0.0
 11
10.52975688001039
 21
10.39979562266516
 31
0.0
  0
SPLINE
  5
1B8
330
1F
100
AcDbEntity
  8
Object
  6
Continuous
370
    15
100
AcDbSpline
210
0.0
220
0.0
230
1.0
 70
     8
 71
     3
 72
    11
 73
     7
 74
     0
 42
0.0000000001
 43
0.0000000001
 40
0.0
 40
0.0
 40
0.0
 40
0.0
 40
0.2762966777649517
 40
0.5295551605716399
 40
0.7827581819678842
 40
0.9999999999999998
 40
0.9999999999999998
 40
0.9999999999999998
 40
0.9999999999999998
 10
10.52975688001039
 20
10.39979562266516
 30
0.0
 10
10.53245800190132
 20
10.40034681046615
 30
0.0
 10
10.53763502048963
 20
10.40140322687628
 30
0.0
 10
10.54527556053841
 20
10.40911716243317
 30
0.0
 10
10.55234460911582
 20
10.41899780517179
 30
0.0
 10
10.55693173881214
 20
10.42638418393114
 30
0.0
 10
10.55904998161398
 20
10.42979506277574
 30
0.0
  0
LINE
  5
1B9
330
1F
100
AcDbEntity
  8
Object
  6
Continuous
370
    15
100
AcDbLine
 10
10.48004977423112
 20
10.40050313449192
 30
0.0
 11
10.48004977423112
 21
38.43108801611677
 31
0.0
  0
SPLINE
  5
1BA
330
1F
100
AcDbEntity
  8
Object
  6
Continuous
370
    15
100
AcDbSpline
210
0.0
220
0.0
230
1.0
 70
     8
 71
     3
 72
    12
 73
     8
 74
     0
 42
0.0000000001
 43
0.0000000001
 40
0.0
 40
0.0
 40
0.0
 40
0.0
 40
0.1968191270344807
 40
0.4173972232130897
 40
0.6379847907065117
 40
0.8585736927140981
 40
1.0
 40
1.0
 40
1.0
 40
1.0
 10
10.48004977423112
 20
38.43108801611677
 30
0.0
 10
10.48078623206753
 20
38.42916798510439
 30
0.0
 10
10.48234804905434
 20
38.42509614704106
 30
0.0
 10
10.49527703595905
 20
38.41885810835845
 30
0.0
 10
10.51563109319461
 20
38.41239651433694
 30
0.0
 10
10.53828698015397
 20
38.40669805515259
 30
0.0
 10
10.55321725918654
 20
38.40317314378409
 30
0.0
 10
10.55904998161398
 20
38.40179608783296
 30
0.0
  0
LINE
  5
1BB
330
1F
100
AcDbEntity
  8
Object
  6
Continuous
370
    15
100
AcDbLine
 10
10.55904998161398
 20
38.40179608783296
 30
0.0
 11
10.55904998161398
 21
10.42979506277574
 31
0.0
  0
LINE
  5
1BC
330
1F
100
AcDbEntity
  8
Object
  6
Continuous
370
    15
100
AcDbLine
 10
24.5010498291087
 20
38.40179608783296
 30
0.0
 11
10.55904998161398
 21
38.40179608783296
 31
0.0
  0
LINE
  5
1BD
330
1F
100
AcDbEntity
  8
Object
  6
Continuous
370
    15
100
AcDbLine
 10
24.5010498291087
 20
10.42979506277574
 30
0.0
 11
24.5010498291087
 21
38.40179608783296
 31
0.0
  0
LINE
  5
1BE
330
1F
100
AcDbEntity
  8
Object
  6
Continuous
370
    15
100
AcDbLine
 10
22.24904965774017
 20
36.48079587939129
 30
0.0
 11
12.81104985965255
 21
36.48079587939129
 31
0.0
  0
ARC
  5
1BF
330
1F
100
AcDbEntity
  8
Object
  6
Continuous
370
    15
100
AcDbCircle
 10
12.8110497381345
 20
36.35579558014777
 30
0.0
 40
0.125
100
AcDbArc
 50
90.0
 51
180.0
  0
LINE
  5
1C0
330
1F
100
AcDbEntity
  8
Object
  6
Continuous
370
    15
100
AcDbLine
 10
12.6860496503323
 20
36.35579508341115
 30
0.0
 11
12.6860496503323
 21
31.35579551049955
 31
0.0
  0
ARC
  5
1C1
330
1F
100
AcDbEntity
  8
Object
  6
Continuous
370
    15
100
AcDbCircle
 10
12.8110497381345
 20
31.35579558014777
 30
0.0
 40
0.125
100
AcDbArc
 50
180.0
 51
270.0000000000008
  0
LINE
  5
1C2
330
1F
100
AcDbEntity
  8
Object
  6
Continuous
370
    15
100
AcDbLine
 10
12.81104985965255
 20
31.2307953011793
 30
0.0
 11
22.24904965774017
 21
31.2307953011793
 31
0.0
  0
ARC
  5
1C3
330
1F
100
AcDbEntity
  8
Object
  6
Continuous
370
    15
100
AcDbCircle
 10
22.2490497381345
 20
31.35579558014777
 30
0.0
 40
0.1250000000000035
100
AcDbArc
 50
270.0000000000008
 51
0.0
  0
LINE
  5
1C4
330
1F
100
AcDbEntity
  8
Object
  6
Continuous
370
    15
100
AcDbLine
 10
22.37404986706042
 20
31.35579551049955
 30
0.0
 11
22.37404986706042
 21
36.35579508341115
 31
0.0
  0
ARC
  5
1C5
330
1F
100
AcDbEntity
  8
Object
  6
Continuous
370
    15
100
AcDbCircle
 10
22.2490497381345
 20
36.35579558014777
 30
0.0
 40
0.1250000000000035
100
AcDbArc
 50
0.0
 51
90.0
  0
LINE
  5
1C6
330
1F
100
AcDbEntity
  8
Object
  6
Continuous
370
    15
100
AcDbLine
 10
12.0690045918228
 20
27.80957346342591
 30
0.0
 11
12.44004995880839
 21
27.74579561352641
 31
0.0
  0
LINE
  5
1C7
330
1F
100
AcDbEntity
  8
Object
  6
Continuous
370
    15
100
AcDbLine
 10
12.44004995880839
 20
27.74579561352641
 30
0.0
 11
12.8110947391341
 21
27.80957346342591
 31
0.0
  0
ARC
  5
1C8
330
1F
100
AcDbEntity
  8
Object
  6
Continuous
370
    15
100
AcDbCircle
 10
12.80314973813448
 20
27.85579558014777
 30
0.0
 40
0.0469000000000025
100
AcDbArc
 50
279.7530987587082
 51
80.24690124129405
  0
LINE
  5
1C9
330
1F
100
AcDbEntity
  8
Object
  6
Continuous
370
    15
100
AcDbLine
 10
12.8110947391341
 20
27.902017862167
 30
0.0
 11
12.44004995880839
 21
27.96579571206649
 31
0.0
  0
LINE
  5
1CA
330
1F
100
AcDbEntity
  8
Object
  6
Continuous
370
    15
100
AcDbLine
 10
12.44004995880839
 20
27.96579571206649
 30
0.0
 11
12.0690045918228
 21
27.902017862167
 31
0.0
  0
ARC
  5
1CB
330
1F
100
AcDbEntity
  8
Object
  6
Continuous
370
    15
100
AcDbCircle
 10
12.07694973813451
 20
27.85579558014777
 30
0.0
 40
0.0469000000000028
100
AcDbArc
 50
99.75309875870809
 51
260.2469012412913
  0
SPLINE
  5
1CC
330
1F
100
AcDbEntity
  8
Object
  6
Continuous
370
    15
100
AcDbSpline
210
0.0
220
0.0
230
1.0
 70
     8
 71
     3
 72
    12
 73
     8
 74
     0
 42
0.0000000001
 43
0.0000000001
 40
0.0
 40
0.0
 40
0.0
 40
0.0
 40
0.1968210265454165
 40
0.4173989909171702
 40
0.637990807950787
 40
0.8585775619891894
 40
1.0
 40
1.0
 40
1.0
 40
1.0
 10
24.53034234405239
 20
38.48079570855592
 30
0.0
 10
24.52842202434884
 20
38.48005925576288
 30
0.0
 10
24.52434959611001
 20
38.47849745793021
 30
0.0
 10
24.5181125438358
 20
38.46556844329637
 30
0.0
 10
24.51165111264272
 20
38.44521383852247
 30
0.0
 10
24.50595173319062
 20
38.42255860292372
 30
0.0
 10
24.50242685666272
 20
38.40762862859529
 30
0.0
 10
24.5010498291087
 20
38.40179608783296
 30
0.0
  0
LINE
  5
1CD
330
1F
100
AcDbEntity
  8
Object
  6
Continuous
370
    15
100
AcDbLine
 10
24.53034234405239
 20
38.48079570855592
 30
0.0
 11
24.53034234405239
 21
38.43179552794353
 31
0.0
  0
SPLINE
  5
1CE
330
1F
100
AcDbEntity
  8
Object
  6
Continuous
370
    15
100
AcDbSpline
210
0.0
220
0.0
230
1.0
 70
     8
 71
     3
 72
    11
 73
     7
 74
     0
 42
0.0000000001
 43
0.0000000001
 40
0.0
 40
0.0
 40
0.0
 40
0.0
 40
0.2762925941800188
 40
0.5295525038135353
 40
0.7827625865298456
 40
1.0
 40
1.0
 40
1.0
 40
1.0
 10
24.53034234405239
 20
38.43179552794353
 30
0.0
 10
24.52764143874015
 20
38.43124433442742
 30
0.0
 10
24.52246478471181
 20
38.43018789674978
 30
0.0
 10
24.51482435994142
 20
38.42247382061632
 30
0.0
 10
24.50775447621341
 20
38.41259365744236
 30
0.0
 10
24.50316780519746
 20
38.40520700475256
 30
0.0
 10
24.5010498291087
 20
38.40179608783296
 30
0.0
  0
SPLINE
  5
1CF
330
1F
100
AcDbEntity
  8
Object
  6
Continuous
370
    15
100
AcDbSpline
210
0.0
220
0.0
230
1.0
 70
     8
 71
     3
 72
    12
 73
     8
 74
     0
 42
0.0000000001
 43
0.0000000001
 40
0.0
 40
0.0
 40
0.0
 40
0.0
 40
0.1968166640432152
 40
0.4173989128404377
 40
0.6379877646729484
 40
0.8585738016713778
 40
1.0
 40
1.0
 40
1.0
 40
1.0
 10
10.55904998161398
 20
38.40179608783296
 30
0.0
 10
10.55712932086164
 20
38.40993036969518
 30
0.0
 10
10.55305607983879
 20
38.42718114682084
 30
0.0
 10
10.54682081389541
 20
38.4509666152935
 30
0.0
 10
10.54035782881666
 20
38.46963320321587
 30
0.0
 10
10.53465873774243
 20
38.4794263950458
 30
0.0
 10
10.53113391254793
 20
38.48041104026064
 30
0.0
 10
10.52975688001039
 20
38.48079570855592
 30
0.0
  0
SPLINE
  5
1D0
330
1F
100
AcDbEntity
  8
Object
  6
Continuous
370
    15
100
AcDbSpline
210
0.0
220
0.0
230
1.0
 70
     8
 71
     3
 72
    11
 73
     7
 74
     0
 42
0.0000000001
 43
0.0000000001
 40
0.0
 40
0.0
 40
0.0
 40
0.0
 40
0.2762946952957016
 40
0.5295512853347426
 40
0.7827505233192655
 40
1.0
 40
1.0
 40
1.0
 40
1.0
 10
10.55904998161398
 20
38.40179608783296
 30
0.0
 10
10.55634883048681
 20
38.40614489573454
 30
0.0
 10
10.55117175660291
 20
38.41447989764797
 30
0.0
 10
10.54353162990338
 20
38.42451787244678
 30
0.0
 10
10.53646110127028
 20
38.43071430388694
 30
0.0
 10
10.53187479827539
 20
38.43145396043117
 30
0.0
 10
10.52975688001039
 20
38.43179552794353
 30
0.0
  0
LINE
  5
1D1
330
1F
100
AcDbEntity
  8
Object
  6
Continuous
370
    15
100
AcDbLine
 10
10.52975688001039
 20
38.48079570855592
 30
0.0
 11
10.52975688001039
 21
38.43179552794353
 31
0.0
  0
SPLINE
  5
1D2
330
1F
100
AcDbEntity
  8
Object
  6
Continuous
370
    15
100
AcDbSpline
210
0.0
220
0.0
230
1.0
 70
     8
 71
     3
 72
    12
 73
     8
 74
     0
 42
0.0000000001
 43
0.0000000001
 40
0.0
 40
0.0
 40
0.0
 40
0.0
 40
0.196819304308098
 40
0.4174000723302905
 40
0.6379882262653011
 40
0.8585735653479174
 40
1.0
 40
1.0
 40
1.0
 40
1.0
 10
24.5010498291087
 20
38.40179608783296
 30
0.0
 10
24.50918437383578
 20
38.40371612470749
 30
0.0
 10
24.52643552493297
 20
38.40778799932937
 30
0.0
 10
24.55022018291544
 20
38.41402596417717
 30
0.0
 10
24.56888699722583
 20
38.42048751008123
 30
0.0
 10
24.57868014073874
 20
38.42618610762798
 30
0.0
 10
24.57966478196237
 20
38.4297109664034
 30
0.0
 10
24.58004944983166
 20
38.43108801611677
 30
0.0
  0
LINE
  5
1D3
330
1F
100
AcDbEntity
  8
Object
  6
Continuous
370
    15
100
AcDbLine
 10
24.58004944983166
 20
10.40050313449192
 30
0.0
 11
24.58004944983166
 21
38.43108801611677
 31
0.0
  0
SPLINE
  5
1D4
330
1F
100
AcDbEntity
  8
Object
  6
Continuous
370
    15
100
AcDbSpline
210
0.0
220
0.0
230
1.0
 70
     8
 71
     3
 72
    12
 73
     8
 74
     0
 42
0.0000000001
 43
0.0000000001
 40
0.0
 40
0.0
 40
0.0
 40
0.0
 40
0.1968189775125041
 40
0.417399767003883
 40
0.6379879424087987
 40
0.8585733029610462
 40
1.0
 40
1.0
 40
1.0
 40
1.0
 10
24.58004944983166
 20
10.40050313449192
 30
0.0
 10
24.57931327467861
 20
10.40242317220604
 30
0.0
 10
24.57775204648179
 20
10.40649505239077
 30
0.0
 10
24.5648220330629
 20
10.41273301024052
 30
0.0
 10
24.54446828610129
 20
10.41919455596804
 30
0.0
 10
24.52181267647973
 20
10.42489315986996
 30
0.0
 10
24.50688255632288
 20
10.42841801357006
 30
0.0
 10
24.5010498291087
 20
10.42979506277574
 30
0.0
  0
SPLINE
  5
1D5
330
1F
100
AcDbEntity
  8
Object
  6
Continuous
370
    15
100
AcDbSpline
210
0.0
220
0.0
230
1.0
 70
     8
 71
     3
 72
    11
 73
     7
 74
     0
 42
0.0000000001
 43
0.0000000001
 40
0.0
 40
0.0
 40
0.0
 40
0.0
 40
0.2762908917599947
 40
0.5295491653279442
 40
0.7827490791484573
 40
1.0
 40
1.0
 40
1.0
 40
1.0
 10
24.5010498291087
 20
38.40179608783296
 30
0.0
 10
24.50539867775451
 20
38.40449698502441
 30
0.0
 10
24.51373383913411
 20
38.40967362274945
 30
0.0
 10
24.52377136303076
 20
38.41731407203487
 30
0.0
 10
24.52996881282826
 20
38.42438364036172
 30
0.0
 10
24.53070834504776
 20
38.42897004594318
 30
0.0
 10
24.53104985587915
 20
38.43108801611677
 30
0.0
  0
LINE
  5
1D6
330
1F
100
AcDbEntity
  8
Object
  6
Continuous
370
    15
100
AcDbLine
 10
24.58004944983166
 20
38.43108801611677
 30
0.0
 11
24.53104985587915
 21
38.43108801611677
 31
0.0
  0
LINE
  5
1D7
330
1F
100
AcDbEntity
  8
Object
  6
Continuous
370
    15
100
AcDbLine
 10
24.53034234405239
 20
38.48079570855592
 30
0.0
 11
10.52975688001039
 21
38.48079570855592
 31
0.0
  0
LINE
  5
1D8
330
1F
100
AcDbEntity
  8
Object
  6
Continuous
370
    15
100
AcDbLine
 10
12.6189683185949
 20
27.85439398565542
 30
0.0
 11
12.6189683185949
 21
27.81578824496556
 31
0.0
  0
LINE
  5
1D9
330
1F
100
AcDbEntity
  8
Object
  6
Continuous
370
    15
100
AcDbLine
 10
12.65606781001841
 20
27.81578824496556
 30
0.0
 11
12.6189683185949
 21
27.85439398565542
 31
0.0
  0
LINE
  5
1DA
330
1F
100
AcDbEntity
  8
Object
  6
Continuous
370
    15
100
AcDbLine
 10
12.66563505949673
 20
27.81578824496556
 30
0.0
 11
12.65606781001841
 21
27.81578824496556
 31
0.0
  0
LINE
  5
1DB
330
1F
100
AcDbEntity
  8
Object
  6
Continuous
370
    15
100
AcDbLine
 10
12.62324712249913
 20
27.85989069549029
 30
0.0
 11
12.66563505949673
 21
27.81578824496556
 31
0.0
  0
LINE
  5
1DC
330
1F
100
AcDbEntity
  8
Object
  6
Continuous
370
    15
100
AcDbLine
 10
12.66255802837619
 20
27.89578812080016
 30
0.0
 11
12.62324712249913
 21
27.85989069549029
 31
0.0
  0
LINE
  5
1DD
330
1F
100
AcDbEntity
  8
Object
  6
Continuous
370
    15
100
AcDbLine
 10
12.65231788000459
 20
27.89578812080016
 30
0.0
 11
12.66255802837619
 21
27.89578812080016
 31
0.0
  0
LINE
  5
1DE
330
1F
100
AcDbEntity
  8
Object
  6
Continuous
370
    15
100
AcDbLine
 10
12.6189683185949
 20
27.86532345939721
 30
0.0
 11
12.65231788000459
 21
27.89578812080016
 31
0.0
  0
LINE
  5
1DF
330
1F
100
AcDbEntity
  8
Object
  6
Continuous
370
    15
100
AcDbLine
 10
12.6189683185949
 20
27.89578812080016
 30
0.0
 11
12.6189683185949
 21
27.86532345939721
 31
0.0
  0
LINE
  5
1E0
330
1F
100
AcDbEntity
  8
Object
  6
Continuous
370
    15
100
AcDbLine
 10
12.61178877486694
 20
27.89578812080016
 30
0.0
 11
12.6189683185949
 21
27.89578812080016
 31
0.0
  0
LINE
  5
1E1
330
1F
100
AcDbEntity
  8
Object
  6
Continuous
370
    15
100
AcDbLine
 10
12.61178877486694
 20
27.81578824496556
 30
0.0
 11
12.61178877486694
 21
27.89578812080016
 31
0.0
  0
LINE
  5
1E2
330
1F
100
AcDbEntity
  8
Object
  6
Continuous
370
    15
100
AcDbLine
 10
12.6189683185949
 20
27.81578824496556
 30
0.0
 11
12.61178877486694
 21
27.81578824496556
 31
0.0
  0
LINE
  5
1E3
330
1F
100
AcDbEntity
  8
Object
  6
Continuous
370
    15
100
AcDbLine
 10
12.5010197611467
 20
27.89578812080016
 30
0.0
 11
12.5010197611467
 21
27.81578824496556
 31
0.0
  0
LINE
  5
1E4
330
1F
100
AcDbEntity
  8
Object
  6
Continuous
370
    15
100
AcDbLine
 10
12.49384021741873
 20
27.89578812080016
 30
0.0
 11
12.5010197611467
 21
27.89578812080016
 31
0.0
  0
LINE
  5
1E5
330
1F
100
AcDbEntity
  8
Object
  6
Continuous
370
    15
100
AcDbLine
 10
12.49384021741873
 20
27.81578824496556
 30
0.0
 11
12.49384021741873
 21
27.89578812080016
 31
0.0
  0
LINE
  5
1E6
330
1F
100
AcDbEntity
  8
Object
  6
Continuous
370
    15
100
AcDbLine
 10
12.5010197611467
 20
27.81578824496556
 30
0.0
 11
12.49384021741873
 21
27.81578824496556
 31
0.0
  0
SPLINE
  5
1E7
330
1F
100
AcDbEntity
  8
Object
  6
Continuous
370
    15
100
AcDbSpline
210
0.0
220
0.0
230
1.0
 70
     8
 71
     3
 72
    11
 73
     7
 74
     0
 42
0.0000000001
 43
0.0000000001
 40
0.0
 40
0.0
 40
0.0
 40
0.0
 40
0.279139056854952
 40
0.5586613583788313
 40
0.779058381507725
 40
1.0
 40
1.0
 40
1.0
 40
1.0
 10
12.40973782897671
 20
27.83849638263922
 30
0.0
 10
12.40926355219365
 20
27.83491072580613
 30
0.0
 10
12.40831434746804
 20
27.82773448920341
 30
0.0
 10
12.40111618861998
 20
27.82012899176518
 30
0.0
 10
12.39264373744138
 20
27.81626912918077
 30
0.0
 10
12.38701216047037
 20
27.81594867151488
 30
0.0
 10
12.38419289740727
 20
27.81578824496556
 30
0.0
  0
SPLINE
  5
1E8
330
1F
100
AcDbEntity
  8
Object
  6
Continuous
370
    15
100
AcDbSpline
210
0.0
220
0.0
230
1.0
 70
     8
 71
     3
 72
    11
 73
     7
 74
     0
 42
0.0000000001
 43
0.0000000001
 40
0.0
 40
0.0
 40
0.0
 40
0.0
 40
0.2803920410123406
 40
0.5596053567296258
 40
0.7797665189784797
 40
1.0
 40
1.0
 40
1.0
 40
1.0
 10
12.39433683355699
 20
27.85894529307832
 30
0.0
 10
12.39673444491131
 20
27.85797325427336
 30
0.0
 10
12.40151958842821
 20
27.85603326296604
 30
0.0
 10
12.40656037535791
 20
27.85067372062233
 30
0.0
 10
12.40929628073679
 20
27.84455887442562
 30
0.0
 10
12.40959063011802
 20
27.84051743445444
 30
0.0
 10
12.40973782897671
 20
27.83849638263922
 30
0.0
  0
SPLINE
  5
1E9
330
1F
100
AcDbEntity
  8
Object
  6
Continuous
370
    15
100
AcDbSpline
210
0.0
220
0.0
230
1.0
 70
     8
 71
     3
 72
    10
 73
     6
 74
     0
 42
0.0000000001
 43
0.0000000001
 40
0.0
 40
0.0
 40
0.0
 40
0.0
 40
0.2808599263648079
 40
0.561526806028588
 40
1.0
 40
1.0
 40
1.0
 40
1.0
 10
12.40358376673562
 20
27.87596429647334
 30
0.0
 10
12.40344789549125
 20
27.87407630024509
 30
0.0
 10
12.40317624639243
 20
27.87030160548687
 30
0.0
 10
12.40053676025603
 20
27.86388692975004
 30
0.0
 10
12.39668520130483
 20
27.86081705394659
 30
0.0
 10
12.39433683355699
 20
27.85894529307832
 30
0.0
  0
LINE
  5
1EA
330
1F
100
AcDbEntity
  8
Object
  6
Continuous
370
    15
100
AcDbLine
 10
12.38419289740727
 20
27.81578824496556
 30
0.0
 11
12.3625580540015
 21
27.81578824496556
 31
0.0
  0
SPLINE
  5
1EB
330
1F
100
AcDbEntity
  8
Object
  6
Continuous
370
    15
100
AcDbSpline
210
0.0
220
0.0
230
1.0
 70
     8
 71
     3
 72
    11
 73
     7
 74
     0
 42
0.0000000001
 43
0.0000000001
 40
0.0
 40
0.0
 40
0.0
 40
0.0
 40
0.2791380041237634
 40
0.5586489754621987
 40
0.7790592147559821
 40
1.0
 40
1.0
 40
1.0
 40
1.0
 10
12.2497374906476
 20
27.83849638263922
 30
0.0
 10
12.24926317920205
 20
27.83491076350158
 30
0.0
 10
12.24831392256483
 20
27.8277347343402
 30
0.0
 10
12.24111632102085
 20
27.82012862945313
 30
0.0
 10
12.23264351741304
 20
27.81626925188952
 30
0.0
 10
12.22701180180922
 20
27.81594870904789
 30
0.0
 10
12.22419255907816
 20
27.81578824496556
 30
0.0
  0
LINE
  5
1EC
330
1F
100
AcDbEntity
  8
Object
  6
Continuous
370
    15
100
AcDbLine
 10
12.22419255907816
 20
27.81578824496556
 30
0.0
 11
12.20255830233228
 21
27.81578824496556
 31
0.0
  0
SPLINE
  5
1ED
330
1F
100
AcDbEntity
  8
Object
  6
Continuous
370
    15
100
AcDbSpline
210
0.0
220
0.0
230
1.0
 70
     8
 71
     3
 72
    11
 73
     7
 74
     0
 42
0.0000000001
 43
0.0000000001
 40
0.0
 40
0.0
 40
0.0
 40
0.0
 40
0.2796304739475929
 40
0.5593444881705281
 40
0.779599583139047
 40
1.0
 40
1.0
 40
1.0
 40
1.0
 10
12.3461480035718
 20
27.85582015584684
 30
0.0
 10
12.34544442532797
 20
27.84961294239837
 30
0.0
 10
12.34403705864465
 20
27.83719666108149
 30
0.0
 10
12.33264293137102
 20
27.82343372797637
 30
0.0
 10
12.31885100261392
 20
27.8149834032114
 30
0.0
 10
12.30910120679023
 20
27.81415255151271
 30
0.0
 10
12.30422470120669
 20
27.81373698866185
 30
0.0
  0
SPLINE
  5
1EE
330
1F
100
AcDbEntity
  8
Object
  6
Continuous
370
    15
100
AcDbSpline
210
0.0
220
0.0
230
1.0
 70
     8
 71
     3
 72
    11
 73
     7
 74
     0
 42
0.0000000001
 43
0.0000000001
 40
0.0
 40
0.0
 40
0.0
 40
0.0
 40
0.2797636054031665
 40
0.5593595363774266
 40
0.7795711041240975
 40
1.0
 40
1.0
 40
1.0
 40
1.0
 10
12.30358406860733
 20
27.89783937710388
 30
0.0
 10
12.30985278512718
 20
27.89718170025165
 30
0.0
 10
12.32238646105392
 20
27.89586674072138
 30
0.0
 10
12.33640517058823
 20
27.88451343125746
 30
0.0
 10
12.34491298429861
 20
27.87057614895558
 30
0.0
 10
12.34573619514222
 20
27.86074043723907
 30
0.0
 10
12.3461480035718
 20
27.85582015584684
 30
0.0
  0
SPLINE
  5
1EF
330
1F
100
AcDbEntity
  8
Object
  6
Continuous
370
    15
100
AcDbSpline
210
0.0
220
0.0
230
1.0
 70
     8
 71
     3
 72
    11
 73
     7
 74
     0
 42
0.0000000001
 43
0.0000000001
 40
0.0
 40
0.0
 40
0.0
 40
0.0
 40
0.2797287322128892
 40
0.5593240464584
 40
0.7796783265055733
 40
1.0
 40
1.0
 40
1.0
 40
1.0
 10
12.26204561512976
 20
27.85543560028926
 30
0.0
 10
12.26278446881938
 20
27.86160825975682
 30
0.0
 10
12.26426182379877
 20
27.87395063461224
 30
0.0
 10
12.2752102858574
 20
27.88801145286031
 30
0.0
 10
12.28903213969851
 20
27.89638859559094
 30
0.0
 10
12.29873366491657
 20
27.89735580712159
 30
0.0
 10
12.30358406860733
 20
27.89783937710388
 30
0.0
  0
SPLINE
  5
1F0
330
1F
100
AcDbEntity
  8
Object
  6
Continuous
370
    15
100
AcDbSpline
210
0.0
220
0.0
230
1.0
 70
     8
 71
     3
 72
    11
 73
     7
 74
     0
 42
0.0000000001
 43
0.0000000001
 40
0.0
 40
0.0
 40
0.0
 40
0.0
 40
0.2796623889753133
 40
0.5593508059631339
 40
0.7796350875905991
 40
1.0
 40
1.0
 40
1.0
 40
1.0
 10
12.30422470120669
 20
27.81373698866185
 30
0.0
 10
12.29802587838741
 20
27.81442302062129
 30
0.0
 10
12.28562765582809
 20
27.81579514838877
 30
0.0
 10
12.27183665975179
 20
27.82710336764147
 30
0.0
 10
12.26333695879236
 20
27.84083706447646
 30
0.0
 10
12.26247611552352
 20
27.85056882810646
 30
0.0
 10
12.26204561512976
 20
27.85543560028926
 30
0.0
  0
LINE
  5
1F1
330
1F
100
AcDbEntity
  8
Object
  6
Continuous
370
    15
100
AcDbLine
 10
12.43332742313437
 20
27.85271115176232
 30
0.0
 11
12.43332742313437
 21
27.81578824496556
 31
0.0
  0
LINE
  5
1F2
330
1F
100
AcDbEntity
  8
Object
  6
Continuous
370
    15
100
AcDbLine
 10
12.43916058241588
 20
27.85271115176232
 30
0.0
 11
12.43332742313437
 21
27.85271115176232
 31
0.0
  0
LINE
  5
1F3
330
1F
100
AcDbEntity
  8
Object
  6
Continuous
370
    15
100
AcDbLine
 10
12.46855165622102
 20
27.81578824496556
 30
0.0
 11
12.43916058241588
 21
27.85271115176232
 31
0.0
  0
LINE
  5
1F4
330
1F
100
AcDbEntity
  8
Object
  6
Continuous
370
    15
100
AcDbLine
 10
12.47743016698904
 20
27.81578824496556
 30
0.0
 11
12.46855165622102
 21
27.81578824496556
 31
0.0
  0
LINE
  5
1F5
330
1F
100
AcDbEntity
  8
Object
  6
Continuous
370
    15
100
AcDbLine
 10
12.4480390931839
 20
27.85271115176232
 30
0.0
 11
12.47743016698904
 21
27.81578824496556
 31
0.0
  0
SPLINE
  5
1F6
330
1F
100
AcDbEntity
  8
Object
  6
Continuous
370
    15
100
AcDbSpline
210
0.0
220
0.0
230
1.0
 70
     8
 71
     3
 72
    11
 73
     7
 74
     0
 42
0.0000000001
 43
0.0000000001
 40
0.0
 40
0.0
 40
0.0
 40
0.0
 40
0.1871228663468476
 40
0.3739835348233383
 40
0.5609109870802529
 40
1.0
 40
1.0
 40
1.0
 40
1.0
 10
12.47640409884226
 20
27.87439380794909
 30
0.0
 10
12.47619440248597
 20
27.87186367026463
 30
0.0
 10
12.47577530360138
 20
27.86680694014235
 30
0.0
 10
12.47181951292019
 20
27.86008679776546
 30
0.0
 10
12.46280379612364
 20
27.85336432108825
 30
0.0
 10
12.45412583198413
 20
27.85298042037514
 30
0.0
 10
12.4480390931839
 20
27.85271115176232
 30
0.0
  0
SPLINE
  5
1F7
330
1F
100
AcDbEntity
  8
Object
  6
Continuous
370
    15
100
AcDbSpline
210
0.0
220
0.0
230
1.0
 70
     8
 71
     3
 72
    11
 73
     7
 74
     0
 42
0.0000000001
 43
0.0000000001
 40
0.0
 40
0.0
 40
0.0
 40
0.0
 40
0.2797831225788405
 40
0.5594973842542316
 40
0.7796292905071569
 40
1.0
 40
1.0
 40
1.0
 40
1.0
 10
12.46028268507821
 20
27.89469840005537
 30
0.0
 10
12.46279231129053
 20
27.89386576068242
 30
0.0
 10
12.46781094603986
 20
27.89220068686771
 30
0.0
 10
12.47309287971627
 20
27.88681035805446
 30
0.0
 10
12.47600748806364
 20
27.88060227632016
 30
0.0
 10
12.47627184747829
 20
27.87646404520569
 30
0.0
 10
12.47640409884226
 20
27.8743938079491
 30
0.0
  0
SPLINE
  5
1F8
330
1F
100
AcDbEntity
  8
Object
  6
Continuous
370
    15
100
AcDbSpline
210
0.0
220
0.0
230
1.0
 70
     8
 71
     3
 72
     9
 73
     5
 74
     0
 42
0.0000000001
 43
0.0000000001
 40
0.0
 40
0.0
 40
0.0
 40
0.0
 40
0.5602388983567756
 40
0.9999999999999998
 40
0.9999999999999998
 40
0.9999999999999998
 40
0.9999999999999998
 10
12.44215724113155
 20
27.89578812080016
 30
0.0
 10
12.44555614072588
 20
27.89579914390724
 30
0.0
 10
12.45162301613261
 20
27.89581881963325
 30
0.0
 10
12.45763767296402
 20
27.89504062137759
 30
0.0
 10
12.46028268507821
 20
27.89469840005537
 30
0.0
  0
LINE
  5
1F9
330
1F
100
AcDbEntity
  8
Object
  6
Continuous
370
    15
100
AcDbLine
 10
12.4261478794064
 20
27.89578812080016
 30
0.0
 11
12.44215724113155
 21
27.89578812080016
 31
0.0
  0
LINE
  5
1FA
330
1F
100
AcDbEntity
  8
Object
  6
Continuous
370
    15
100
AcDbLine
 10
12.4261478794064
 20
27.81578824496556
 30
0.0
 11
12.4261478794064
 21
27.89578812080016
 31
0.0
  0
SPLINE
  5
1FB
330
1F
100
AcDbEntity
  8
Object
  6
Continuous
370
    15
100
AcDbSpline
210
0.0
220
0.0
230
1.0
 70
     8
 71
     3
 72
     9
 73
     5
 74
     0
 42
0.0000000001
 43
0.0000000001
 40
0.0
 40
0.0
 40
0.0
 40
0.0
 40
0.5590291536879325
 40
1.0
 40
1.0
 40
1.0
 40
1.0
 10
12.52757433438601
 20
27.82772736037721
 30
0.0
 10
12.52426463709471
 20
27.83257258138258
 30
0.0
 10
12.51834419936895
 20
27.84123978768729
 30
0.0
 10
12.51770963566845
 20
27.8516584785765
 30
0.0
 10
12.5174298115764
 20
27.85625281751537
 30
0.0
  0
SPLINE
  5
1FC
330
1F
100
AcDbEntity
  8
Object
  6
Continuous
370
    15
100
AcDbSpline
210
0.0
220
0.0
230
1.0
 70
     8
 71
     3
 72
     9
 73
     5
 74
     0
 42
0.0000000001
 43
0.0000000001
 40
0.0
 40
0.0
 40
0.0
 40
0.0
 40
0.5598122383499438
 40
1.0
 40
1.0
 40
1.0
 40
1.0
 10
12.56057101987215
 20
27.81373698866185
 30
0.0
 10
12.55349483122495
 20
27.81433606922434
 30
0.0
 10
12.54085454192358
 20
27.81540621475074
 30
0.0
 10
12.53163337792594
 20
27.82396145036277
 30
0.0
 10
12.52757433438601
 20
27.82772736037722
 30
0.0
  0
SPLINE
  5
1FD
330
1F
100
AcDbEntity
  8
Object
  6
Continuous
370
    15
100
AcDbSpline
210
0.0
220
0.0
230
1.0
 70
     8
 71
     3
 72
    10
 73
     6
 74
     0
 42
0.0000000001
 43
0.0000000001
 40
0.0
 40
0.0
 40
0.0
 40
0.0
 40
0.2804143745067252
 40
0.5607937370438649
 40
1.0
 40
1.0
 40
1.0
 40
1.0
 10
12.59537872443724
 20
27.83051575483211
 30
0.0
 10
12.59291194267072
 20
27.82769058854184
 30
0.0
 10
12.58797868713503
 20
27.82204060870585
 30
0.0
 10
12.57611646858922
 20
27.81524185821418
 30
0.0
 10
12.56646306874223
 20
27.81430736556809
 30
0.0
 10
12.56057101987215
 20
27.81373698866185
 30
0.0
  0
LINE
  5
1FE
330
1F
100
AcDbEntity
  8
Object
  6
Continuous
370
    15
100
AcDbLine
 10
12.5890964770103
 20
27.8352753265158
 30
0.0
 11
12.59537872443724
 21
27.83051575483211
 31
0.0
  0
SPLINE
  5
1FF
330
1F
100
AcDbEntity
  8
Object
  6
Continuous
370
    15
100
AcDbSpline
210
0.0
220
0.0
230
1.0
 70
     8
 71
     3
 72
     9
 73
     5
 74
     0
 42
0.0000000001
 43
0.0000000001
 40
0.0
 40
0.0
 40
0.0
 40
0.0
 40
0.5587783452367051
 40
1.0
 40
1.0
 40
1.0
 40
1.0
 10
12.5605229137612
 20
27.8219420138767
 30
0.0
 10
12.56670891042088
 20
27.82269677648989
 30
0.0
 10
12.57777948377509
 20
27.82404751353905
 30
0.0
 10
12.58563184513658
 20
27.83183799666123
 30
0.0
 10
12.5890964770103
 20
27.8352753265158
 30
0.0
  0
SPLINE
  5
200
330
1F
100
AcDbEntity
  8
Object
  6
Continuous
370
    15
100
AcDbSpline
210
0.0
220
0.0
230
1.0
 70
     8
 71
     3
 72
    11
 73
     7
 74
     0
 42
0.0000000001
 43
0.0000000001
 40
0.0
 40
0.0
 40
0.0
 40
0.0
 40
0.2794342548623493
 40
0.5589263033611508
 40
0.7792799026968397
 40
1.0
 40
1.0
 40
1.0
 40
1.0
 10
12.52460935530436
 20
27.85570810380794
 30
0.0
 10
12.52521916589305
 20
27.85053351176322
 30
0.0
 10
12.52643891319373
 20
27.84018325744531
 30
0.0
 10
12.53646343048142
 20
27.82902915265612
 30
0.0
 10
12.5483489134851
 20
27.82279414201233
 30
0.0
 10
12.55646266636979
 20
27.82222621388996
 30
0.0
 10
12.5605229137612
 20
27.8219420138767
 30
0.0
  0
SPLINE
  5
201
330
1F
100
AcDbEntity
  8
Object
  6
Continuous
370
    15
100
AcDbSpline
210
0.0
220
0.0
230
1.0
 70
     8
 71
     3
 72
    11
 73
     7
 74
     0
 42
0.0000000001
 43
0.0000000001
 40
0.0
 40
0.0
 40
0.0
 40
0.0
 40
0.2798538075216097
 40
0.5595169268504766
 40
0.779686007231884
 40
1.0
 40
1.0
 40
1.0
 40
1.0
 10
12.56002601283478
 20
27.88963435188903
 30
0.0
 10
12.55491713006033
 20
27.88904989645709
 30
0.0
 10
12.54470284562762
 20
27.88788138383238
 30
0.0
 10
12.53279028525836
 20
27.87919860138793
 30
0.0
 10
12.52570104767725
 20
27.86778029539106
 30
0.0
 10
12.52497333256448
 20
27.8597330501437
 30
0.0
 10
12.52460935530436
 20
27.85570810380795
 30
0.0
  0
SPLINE
  5
202
330
1F
100
AcDbEntity
  8
Object
  6
Continuous
370
    15
100
AcDbSpline
210
0.0
220
0.0
230
1.0
 70
     8
 71
     3
 72
    11
 73
     7
 74
     0
 42
0.0000000001
 43
0.0000000001
 40
0.0
 40
0.0
 40
0.0
 40
0.0
 40
0.3393204660810081
 40
0.5594563146992858
 40
0.7797297362678032
 40
0.9999999999999998
 40
0.9999999999999998
 40
0.9999999999999998
 40
0.9999999999999998
 10
12.5890964770103
 20
27.87630103924993
 30
0.0
 10
12.58648488365372
 20
27.87902439777462
 30
0.0
 10
12.58217900605181
 20
27.88351454875616
 30
0.0
 10
12.57436384230857
 20
27.88730669937422
 30
0.0
 10
12.56731880301944
 20
27.88931261014591
 30
0.0
 10
12.56245693127963
 20
27.88952710515383
 30
0.0
 10
12.56002601283478
 20
27.88963435188903
 30
0.0
  0
LINE
  5
203
330
1F
100
AcDbEntity
  8
Object
  6
Continuous
370
    15
100
AcDbLine
 10
12.59537872443724
 20
27.88110871704456
 30
0.0
 11
12.5890964770103
 21
27.87630103924993
 31
0.0
  0
SPLINE
  5
204
330
1F
100
AcDbEntity
  8
Object
  6
Continuous
370
    15
100
AcDbSpline
210
0.0
220
0.0
230
1.0
 70
     8
 71
     3
 72
     9
 73
     5
 74
     0
 42
0.0000000001
 43
0.0000000001
 40
0.0
 40
0.0
 40
0.0
 40
0.0
 40
0.5595148045726022
 40
1.0
 40
1.0
 40
1.0
 40
1.0
 10
12.56047480765026
 20
27.89783937710388
 30
0.0
 10
12.56815568462119
 20
27.89698942950309
 30
0.0
 10
12.58188343035401
 20
27.89547034976858
 30
0.0
 10
12.59125200569659
 20
27.88550035301359
 30
0.0
 10
12.59537872443724
 20
27.88110871704456
 30
0.0
  0
SPLINE
  5
205
330
1F
100
AcDbEntity
  8
Object
  6
Continuous
370
    15
100
AcDbSpline
210
0.0
220
0.0
230
1.0
 70
     8
 71
     3
 72
    11
 73
     7
 74
     0
 42
0.0000000001
 43
0.0000000001
 40
0.0
 40
0.0
 40
0.0
 40
0.0
 40
0.2795137832951056
 40
0.5590774045325042
 40
0.7793730116986937
 40
1.0
 40
1.0
 40
1.0
 40
1.0
 10
12.5174298115764
 20
27.85625281751537
 30
0.0
 10
12.51816056528223
 20
27.86252334804547
 30
0.0
 10
12.51962220298892
 20
27.87506552715553
 30
0.0
 10
12.53145626641207
 20
27.88879990739797
 30
0.0
 10
12.5457023669455
 20
27.8967455941355
 30
0.0
 10
12.555548194162
 20
27.89747460014976
 30
0.0
 10
12.56047480765026
 20
27.89783937710388
 30
0.0
  0
SPLINE
  5
206
330
1F
100
AcDbEntity
  8
Object
  6
Continuous
370
    15
100
AcDbSpline
210
0.0
220
0.0
230
1.0
 70
     8
 71
     3
 72
    11
 73
     7
 74
     0
 42
0.0000000001
 43
0.0000000001
 40
0.0
 40
0.0
 40
0.0
 40
0.0
 40
0.2813104664012016
 40
0.559919816991139
 40
0.7799308964310784
 40
1.0
 40
1.0
 40
1.0
 40
1.0
 10
12.37816731368199
 20
27.89578812080016
 30
0.0
 10
12.38159368540456
 20
27.89571518943132
 30
0.0
 10
12.38841352916076
 20
27.89557002697355
 30
0.0
 10
12.39743261605812
 20
27.89149248991473
 30
0.0
 10
12.40268299919484
 20
27.88401353360389
 30
0.0
 10
12.40328348449757
 20
27.87864761134735
 30
0.0
 10
12.40358376673562
 20
27.87596429647334
 30
0.0
  0
LINE
  5
207
330
1F
100
AcDbEntity
  8
Object
  6
Continuous
370
    15
100
AcDbLine
 10
12.3625580540015
 20
27.89578812080016
 30
0.0
 11
12.37816731368199
 21
27.89578812080016
 31
0.0
  0
LINE
  5
208
330
1F
100
AcDbEntity
  8
Object
  6
Continuous
370
    15
100
AcDbLine
 10
12.3625580540015
 20
27.81578824496556
 30
0.0
 11
12.3625580540015
 21
27.89578812080016
 31
0.0
  0
SPLINE
  5
209
330
1F
100
AcDbEntity
  8
Object
  6
Continuous
370
    15
100
AcDbSpline
210
0.0
220
0.0
230
1.0
 70
     8
 71
     3
 72
    11
 73
     7
 74
     0
 42
0.0000000001
 43
0.0000000001
 40
0.0
 40
0.0
 40
0.0
 40
0.0
 40
0.2803764931317294
 40
0.5596082189892759
 40
0.7797636547426203
 40
1.0
 40
1.0
 40
1.0
 40
1.0
 10
12.23433708188777
 20
27.85894529307832
 30
0.0
 10
12.2367344167349
 20
27.85797316906337
 30
0.0
 10
12.24151929819601
 20
27.85603289018132
 30
0.0
 10
12.24656082669199
 20
27.85067409141964
 30
0.0
 10
12.24929577640142
 20
27.84455870842942
 30
0.0
 10
12.24959023453277
 20
27.84051740539424
 30
0.0
 10
12.2497374906476
 20
27.83849638263922
 30
0.0
  0
SPLINE
  5
20A
330
1F
100
AcDbEntity
  8
Object
  6
Continuous
370
    15
100
AcDbSpline
210
0.0
220
0.0
230
1.0
 70
     8
 71
     3
 72
    10
 73
     6
 74
     0
 42
0.0000000001
 43
0.0000000001
 40
0.0
 40
0.0
 40
0.0
 40
0.0
 40
0.2808657491521779
 40
0.5615234114973405
 40
1.0
 40
1.0
 40
1.0
 40
1.0
 10
12.24358401506641
 20
27.87596429647334
 30
0.0
 10
12.24344785012619
 20
27.87407632773959
 30
0.0
 10
12.24317562112713
 20
27.87030178902357
 30
0.0
 10
12.24053729754793
 20
27.86388674879658
 30
0.0
 10
12.23668558219395
 20
27.86081700382249
 30
0.0
 10
12.23433708188777
 20
27.85894529307833
 30
0.0
  0
SPLINE
  5
20B
330
1F
100
AcDbEntity
  8
Object
  6
Continuous
370
    15
100
AcDbSpline
210
0.0
220
0.0
230
1.0
 70
     8
 71
     3
 72
    11
 73
     7
 74
     0
 42
0.0000000001
 43
0.0000000001
 40
0.0
 40
0.0
 40
0.0
 40
0.0
 40
0.2813234798980442
 40
0.559915352264874
 40
0.7799332805357381
 40
1.0
 40
1.0
 40
1.0
 40
1.0
 10
12.21816697535288
 20
27.89578812080016
 30
0.0
 10
12.22159357939782
 20
27.89571526149521
 30
0.0
 10
12.22841351569174
 20
27.89557025033791
 30
0.0
 10
12.23743227443678
 20
27.89149210647139
 30
0.0
 10
12.24268335332223
 20
27.88401373951695
 30
0.0
 10
12.24328377229599
 20
27.87864764246358
 30
0.0
 10
12.24358401506641
 20
27.87596429647334
 30
0.0
  0
LINE
  5
20C
330
1F
100
AcDbEntity
  8
Object
  6
Continuous
370
    15
100
AcDbLine
 10
12.20255830233228
 20
27.89578812080016
 30
0.0
 11
12.21816697535288
 21
27.89578812080016
 31
0.0
  0
LINE
  5
20D
330
1F
100
AcDbEntity
  8
Object
  6
Continuous
370
    15
100
AcDbLine
 10
12.20255830233228
 20
27.81578824496556
 30
0.0
 11
12.20255830233228
 21
27.89578812080016
 31
0.0
  0
LINE
  5
20E
330
1F
100
AcDbEntity
  8
Object
  6
Continuous
370
    15
100
AcDbLine
 10
12.80855362182264
 20
27.88723461961094
 30
0.0
 11
12.44004995880839
 21
27.9505757012227
 31
0.0
  0
LINE
  5
20F
330
1F
100
AcDbEntity
  8
Object
  6
Continuous
370
    15
100
AcDbLine
 10
12.44004995880839
 20
27.9505757012227
 30
0.0
 11
12.07154600246421
 21
27.88723461961094
 31
0.0
  0
LINE
  5
210
330
1F
100
AcDbEntity
  8
Object
  6
Continuous
370
    15
100
AcDbLine
 10
12.07154600246421
 20
27.82435670598197
 30
0.0
 11
12.44004995880839
 21
27.76101562437022
 31
0.0
  0
LINE
  5
211
330
1F
100
AcDbEntity
  8
Object
  6
Continuous
370
    15
100
AcDbLine
 10
12.44004995880839
 20
27.76101562437022
 30
0.0
 11
12.80855362182264
 21
27.82435670598197
 31
0.0
  0
ARC
  5
212
330
1F
100
AcDbEntity
  8
Object
  6
Continuous
370
    15
100
AcDbCircle
 10
12.80314973813448
 20
27.85579558014777
 30
0.0
 40
0.0319000000000031
100
AcDbArc
 50
279.7530987587117
 51
80.24690124129131
  0
ARC
  5
213
330
1F
100
AcDbEntity
  8
Object
  6
Continuous
370
    15
100
AcDbCircle
 10
12.07694973813451
 20
27.85579558014777
 30
0.0
 40
0.0319000000000031
100
AcDbArc
 50
99.7530987587087
 51
260.24690124129
  0
LINE
  5
214
330
1F
100
AcDbEntity
  8
Object
  6
Continuous
370
    15
100
AcDbLine
 10
12.43332742313437
 20
27.81578824496556
 30
0.0
 11
12.4261478794064
 21
27.81578824496556
 31
0.0
  0
LINE
  5
215
330
1F
100
AcDbEntity
  8
Object
  6
Continuous
370
    15
100
AcDbLine
 10
12.43332742313437
 20
27.88758309558531
 30
0.0
 11
12.43332742313437
 21
27.86091647030712
 31
0.0
  0
LINE
  5
216
330
1F
100
AcDbEntity
  8
Object
  6
Continuous
370
    15
100
AcDbLine
 10
12.43332742313437
 20
27.86091647030712
 30
0.0
 11
12.44797456059605
 21
27.86080412493827
 31
0.0
  0
SPLINE
  5
217
330
1F
100
AcDbEntity
  8
Object
  6
Continuous
370
    15
100
AcDbSpline
210
0.0
220
0.0
230
1.0
 70
     8
 71
     3
 72
    11
 73
     7
 74
     0
 42
0.0000000001
 43
0.0000000001
 40
0.0
 40
0.0
 40
0.0
 40
0.0
 40
0.4998384980342749
 40
0.6255084779852361
 40
0.7512056132305272
 40
1.0
 40
1.0
 40
1.0
 40
1.0
 10
12.44797456059605
 20
27.86080412493827
 30
0.0
 10
12.45288863091825
 20
27.86081936113355
 30
0.0
 10
12.45903820254996
 20
27.86083842803086
 30
0.0
 10
12.46510385341611
 20
27.86474471359539
 30
0.0
 10
12.46828020133877
 20
27.86842089696551
 30
0.0
 10
12.46884760143194
 20
27.87201931980848
 30
0.0
 10
12.4692245551143
 20
27.87440994109606
 30
0.0
  0
SPLINE
  5
218
330
1F
100
AcDbEntity
  8
Object
  6
Continuous
370
    15
100
AcDbSpline
210
0.0
220
0.0
230
1.0
 70
     8
 71
     3
 72
    12
 73
     8
 74
     0
 42
0.0000000001
 43
0.0000000001
 40
0.0
 40
0.0
 40
0.0
 40
0.0
 40
0.1253045607395092
 40
0.2506093809976658
 40
0.3759560014587851
 40
0.5012850600663877
 40
0.9999999999999998
 40
0.9999999999999998
 40
0.9999999999999998
 40
0.9999999999999998
 10
12.4692245551143
 20
27.87440994109606
 30
0.0
 10
12.46913820579515
 20
27.87558164504839
 30
0.0
 10
12.46896550697801
 20
27.87792505537976
 30
0.0
 10
12.46737419960492
 20
27.88111937539755
 30
0.0
 10
12.46512345014087
 20
27.88382776283807
 30
0.0
 10
12.4591908571901
 20
27.88773895531929
 30
0.0
 10
12.4531526638687
 20
27.8876523264551
 30
0.0
 10
12.44832714318966
 20
27.88758309558533
 30
0.0
  0
LINE
  5
219
330
1F
100
AcDbEntity
  8
Object
  6
Continuous
370
    15
100
AcDbLine
 10
12.44832714318966
 20
27.88758309558531
 30
0.0
 11
12.43332742313437
 21
27.88758309558531
 31
0.0
  0
LINE
  5
21A
330
1F
100
AcDbEntity
  8
Object
  6
Continuous
370
    15
100
AcDbLine
 10
12.20973784606024
 20
27.88758309558531
 30
0.0
 11
12.20973784606024
 21
27.861941951794
 31
0.0
  0
SPLINE
  5
21B
330
1F
100
AcDbEntity
  8
Object
  6
Continuous
370
    15
100
AcDbSpline
210
0.0
220
0.0
230
1.0
 70
     8
 71
     3
 72
    12
 73
     8
 74
     0
 42
0.0000000001
 43
0.0000000001
 40
0.0
 40
0.0
 40
0.0
 40
0.0
 40
0.4986074781896681
 40
0.6240041708632145
 40
0.7494004619312628
 40
0.8747305514798167
 40
1.0
 40
1.0
 40
1.0
 40
1.0
 10
12.21456136367189
 20
27.861941951794
 30
0.0
 10
12.2195850691336
 20
27.86195486268058
 30
0.0
 10
12.22587220540496
 20
27.86197102057517
 30
0.0
 10
12.23206580128746
 20
27.86602477760211
 30
0.0
 10
12.23447239404456
 20
27.86880915843105
 30
0.0
 10
12.23611011489893
 20
27.87215733530755
 30
0.0
 10
12.23630636835533
 20
27.87459948973677
 30
0.0
 10
12.23640447133844
 20
27.87582027147047
 30
0.0
  0
SPLINE
  5
21C
330
1F
100
AcDbEntity
  8
Object
  6
Continuous
370
    15
100
AcDbSpline
210
0.0
220
0.0
230
1.0
 70
     8
 71
     3
 72
    11
 73
     7
 74
     0
 42
0.0000000001
 43
0.0000000001
 40
0.0
 40
0.0
 40
0.0
 40
0.0
 40
0.2492765974486925
 40
0.3749252581629953
 40
0.5006338260164352
 40
1.0
 40
1.0
 40
1.0
 40
1.0
 10
12.23640447133844
 20
27.87582027147047
 30
0.0
 10
12.23617148706316
 20
27.87778939993617
 30
0.0
 10
12.23582106632389
 20
27.88075107385947
 30
0.0
 10
12.23329115619111
 20
27.88380461232826
 30
0.0
 10
12.22851107877561
 20
27.88722160061012
 30
0.0
 10
12.22349132573021
 20
27.88742255503567
 30
0.0
 10
12.21948109350541
 20
27.88758309558531
 30
0.0
  0
LINE
  5
21D
330
1F
100
AcDbEntity
  8
Object
  6
Continuous
370
    15
100
AcDbLine
 10
12.21948109350541
 20
27.88758309558531
 30
0.0
 11
12.20973784606024
 21
27.88758309558531
 31
0.0
  0
LINE
  5
21E
330
1F
100
AcDbEntity
  8
Object
  6
Continuous
370
    15
100
AcDbLine
 10
12.20973784606024
 20
27.861941951794
 30
0.0
 11
12.21456136367189
 21
27.861941951794
 31
0.0
  0
SPLINE
  5
21F
330
1F
100
AcDbEntity
  8
Object
  6
Continuous
370
    15
100
AcDbSpline
210
0.0
220
0.0
230
1.0
 70
     8
 71
     3
 72
    10
 73
     6
 74
     0
 42
0.0000000001
 43
0.0000000001
 40
0.0
 40
0.0
 40
0.0
 40
0.0
 40
0.27995208374255
 40
0.5604461620743246
 40
0.9999999999999998
 40
0.9999999999999998
 40
0.9999999999999998
 40
0.9999999999999998
 10
12.24255794691964
 20
27.83849638263922
 30
0.0
 10
12.24231791913387
 20
27.84045726288592
 30
0.0
 10
12.24183739886224
 20
27.844382819695
 30
0.0
 10
12.23721032307435
 20
27.85009359513737
 30
0.0
 10
12.23240119457879
 20
27.85176867622233
 30
0.0
 10
12.22946545816518
 20
27.85279123083724
 30
0.0
  0
LINE
  5
220
330
1F
100
AcDbEntity
  8
Object
  6
Continuous
370
    15
100
AcDbLine
 10
12.20973784606024
 20
27.85373692657915
 30
0.0
 11
12.20973784606024
 21
27.82399327018041
 31
0.0
  0
LINE
  5
221
330
1F
100
AcDbEntity
  8
Object
  6
Continuous
370
    15
100
AcDbLine
 10
12.20973784606024
 20
27.82399327018041
 30
0.0
 11
12.21996215461482
 21
27.82399327018041
 31
0.0
  0
SPLINE
  5
222
330
1F
100
AcDbEntity
  8
Object
  6
Continuous
370
    15
100
AcDbSpline
210
0.0
220
0.0
230
1.0
 70
     8
 71
     3
 72
    11
 73
     7
 74
     0
 42
0.0000000001
 43
0.0000000001
 40
0.0
 40
0.0
 40
0.0
 40
0.0
 40
0.4993661884997739
 40
0.7487464811949418
 40
0.8744042507938184
 40
0.9999999999999998
 40
0.9999999999999998
 40
0.9999999999999998
 40
0.9999999999999998
 10
12.21996215461482
 20
27.82399327018041
 30
0.0
 10
12.22518995930478
 20
27.82399941633777
 30
0.0
 10
12.23302849634658
 20
27.82400863184697
 30
0.0
 10
12.23992542501113
 20
27.83014821313445
 30
0.0
 10
12.24223034536622
 20
27.83470168288662
 30
0.0
 10
12.24244876437363
 20
27.83723169089402
 30
0.0
 10
12.24255794691964
 20
27.83849638263922
 30
0.0
  0
SPLINE
  5
223
330
1F
100
AcDbEntity
  8
Object
  6
Continuous
370
    15
100
AcDbSpline
210
0.0
220
0.0
230
1.0
 70
     8
 71
     3
 72
     9
 73
     5
 74
     0
 42
0.0000000001
 43
0.0000000001
 40
0.0
 40
0.0
 40
0.0
 40
0.0
 40
0.5597524764297281
 40
1.0
 40
1.0
 40
1.0
 40
1.0
 10
12.22946545816518
 20
27.85279123083725
 30
0.0
 10
12.22668242290631
 20
27.85313551247127
 30
0.0
 10
12.22171051947389
 20
27.85375057296412
 30
0.0
 10
12.21670228192311
 20
27.85374109793656
 30
0.0
 10
12.21449741774393
 20
27.85373692657915
 30
0.0
  0
LINE
  5
224
330
1F
100
AcDbEntity
  8
Object
  6
Continuous
370
    15
100
AcDbLine
 10
12.21449741774393
 20
27.85373692657915
 30
0.0
 11
12.20973784606024
 21
27.85373692657915
 31
0.0
  0
SPLINE
  5
225
330
1F
100
AcDbEntity
  8
Object
  6
Continuous
370
    15
100
AcDbSpline
210
0.0
220
0.0
230
1.0
 70
     8
 71
     3
 72
    11
 73
     7
 74
     0
 42
0.0000000001
 43
0.0000000001
 40
0.0
 40
0.0
 40
0.0
 40
0.0
 40
0.2796191186849795
 40
0.5593487167108808
 40
0.7796295162778035
 40
1.0
 40
1.0
 40
1.0
 40
1.0
 10
12.30393606454105
 20
27.88963435188903
 30
0.0
 10
12.29888618356796
 20
27.88897837872358
 30
0.0
 10
12.2887844263808
 20
27.88766617321339
 30
0.0
 10
12.27722901191375
 20
27.87875788612995
 30
0.0
 10
12.2703132253583
 20
27.86742102937722
 30
0.0
 10
12.26958750581902
 20
27.85945259922312
 30
0.0
 10
12.26922457219784
 20
27.85546757325324
 30
0.0
  0
SPLINE
  5
226
330
1F
100
AcDbEntity
  8
Object
  6
Continuous
370
    15
100
AcDbSpline
210
0.0
220
0.0
230
1.0
 70
     8
 71
     3
 72
    11
 73
     7
 74
     0
 42
0.0000000001
 43
0.0000000001
 40
0.0
 40
0.0
 40
0.0
 40
0.0
 40
0.279462598162483
 40
0.5588680890057093
 40
0.779511933484847
 40
1.0
 40
1.0
 40
1.0
 40
1.0
 10
12.33896845984383
 20
27.8558362889938
 30
0.0
 10
12.33835407018365
 20
27.86091533638016
 30
0.0
 10
12.33712541641194
 20
27.87107239326521
 30
0.0
 10
12.32739029555125
 20
27.8820874911254
 30
0.0
 10
12.3158618258467
 20
27.88845891225003
 30
0.0
 10
12.30791038233887
 20
27.88924263092818
 30
0.0
 10
12.30393606454105
 20
27.88963435188903
 30
0.0
  0
SPLINE
  5
227
330
1F
100
AcDbEntity
  8
Object
  6
Continuous
370
    15
100
AcDbSpline
210
0.0
220
0.0
230
1.0
 70
     8
 71
     3
 72
    11
 73
     7
 74
     0
 42
0.0000000001
 43
0.0000000001
 40
0.0
 40
0.0
 40
0.0
 40
0.0
 40
0.2794156830588168
 40
0.5590770476321265
 40
0.7794803346849577
 40
1.0
 40
1.0
 40
1.0
 40
1.0
 10
12.26922457219784
 20
27.85546757325324
 30
0.0
 10
12.26983660993397
 20
27.85042612863376
 30
0.0
 10
12.27106122355195
 20
27.84033880660942
 30
0.0
 10
12.28072996619738
 20
27.82946726254348
 30
0.0
 10
12.29206396397371
 20
27.82291611961158
 30
0.0
 10
12.29997800140192
 20
27.82226677291837
 30
0.0
 10
12.30393606454105
 20
27.8219420138767
 30
0.0
  0
SPLINE
  5
228
330
1F
100
AcDbEntity
  8
Object
  6
Continuous
370
    15
100
AcDbSpline
210
0.0
220
0.0
230
1.0
 70
     8
 71
     3
 72
    11
 73
     7
 74
     0
 42
0.0000000001
 43
0.0000000001
 40
0.0
 40
0.0
 40
0.0
 40
0.0
 40
0.2798358749052562
 40
0.5593924552429441
 40
0.7796539365076712
 40
1.0
 40
1.0
 40
1.0
 40
1.0
 10
12.30393606454105
 20
27.8219420138767
 30
0.0
 10
12.30901697855235
 20
27.82252103515359
 30
0.0
 10
12.31917373548932
 20
27.82367849980612
 30
0.0
 10
12.33094374296152
 20
27.83243928692743
 30
0.0
 10
12.33786480588618
 20
27.84384425914564
 30
0.0
 10
12.33860052811308
 20
27.8518384341711
 30
0.0
 10
12.33896845984383
 20
27.85583628899381
 30
0.0
  0
LINE
  5
229
330
1F
100
AcDbEntity
  8
Object
  6
Continuous
370
    15
100
AcDbLine
 10
12.37948143183452
 20
27.88758309558531
 30
0.0
 11
12.36973759772945
 21
27.88758309558531
 31
0.0
  0
SPLINE
  5
22A
330
1F
100
AcDbEntity
  8
Object
  6
Continuous
370
    15
100
AcDbSpline
210
0.0
220
0.0
230
1.0
 70
     8
 71
     3
 72
    11
 73
     7
 74
     0
 42
0.0000000001
 43
0.0000000001
 40
0.0
 40
0.0
 40
0.0
 40
0.0
 40
0.2492731376154974
 40
0.3749231056509054
 40
0.5006534974237306
 40
1.0
 40
1.0
 40
1.0
 40
1.0
 10
12.39640422300766
 20
27.87582027147047
 30
0.0
 10
12.39617147996871
 20
27.87778939719813
 30
0.0
 10
12.39582141921281
 20
27.88075109110665
 30
0.0
 10
12.39329142828195
 20
27.88380480392188
 30
0.0
 10
12.38851083899442
 20
27.88722101245953
 30
0.0
 10
12.38349131182987
 20
27.88742229766614
 30
0.0
 10
12.37948143183452
 20
27.88758309558531
 30
0.0
  0
SPLINE
  5
22B
330
1F
100
AcDbEntity
  8
Object
  6
Continuous
370
    15
100
AcDbSpline
210
0.0
220
0.0
230
1.0
 70
     8
 71
     3
 72
    12
 73
     8
 74
     0
 42
0.0000000001
 43
0.0000000001
 40
0.0
 40
0.0
 40
0.0
 40
0.0
 40
0.4986057108475083
 40
0.6240187297253533
 40
0.7494013501953746
 40
0.8747309955043997
 40
1.0
 40
1.0
 40
1.0
 40
1.0
 10
12.37456111534111
 20
27.861941951794
 30
0.0
 10
12.37958462094341
 20
27.86195512842108
 30
0.0
 10
12.38587167605835
 20
27.86197161933144
 30
0.0
 10
12.39206609220775
 20
27.86602440376225
 30
0.0
 10
12.39447207971416
 20
27.86880939229646
 30
0.0
 10
12.39610989744744
 20
27.87215730630688
 30
0.0
 10
12.39630613031598
 20
27.87459948007143
 30
0.0
 10
12.39640422300766
 20
27.87582027147047
 30
0.0
  0
LINE
  5
22C
330
1F
100
AcDbEntity
  8
Object
  6
Continuous
370
    15
100
AcDbLine
 10
12.36973759772945
 20
27.88758309558531
 30
0.0
 11
12.36973759772945
 21
27.861941951794
 31
0.0
  0
LINE
  5
22D
330
1F
100
AcDbEntity
  8
Object
  6
Continuous
370
    15
100
AcDbLine
 10
12.36973759772945
 20
27.861941951794
 30
0.0
 11
12.37456111534111
 21
27.861941951794
 31
0.0
  0
LINE
  5
22E
330
1F
100
AcDbEntity
  8
Object
  6
Continuous
370
    15
100
AcDbLine
 10
12.36973759772945
 20
27.82399327018041
 30
0.0
 11
12.37996190628404
 21
27.82399327018041
 31
0.0
  0
SPLINE
  5
22F
330
1F
100
AcDbEntity
  8
Object
  6
Continuous
370
    15
100
AcDbSpline
210
0.0
220
0.0
230
1.0
 70
     8
 71
     3
 72
    11
 73
     7
 74
     0
 42
0.0000000001
 43
0.0000000001
 40
0.0
 40
0.0
 40
0.0
 40
0.0
 40
0.4993619578499157
 40
0.7487401377855011
 40
0.8744053148459125
 40
1.0
 40
1.0
 40
1.0
 40
1.0
 10
12.37996190628404
 20
27.82399327018041
 30
0.0
 10
12.38518981174066
 20
27.82399936767419
 30
0.0
 10
12.39302849987138
 20
27.82400851021751
 30
0.0
 10
12.39992487811684
 20
27.83014844907891
 30
0.0
 10
12.40223081377351
 20
27.83470152992407
 30
0.0
 10
12.40244914850854
 20
27.83723166834747
 30
0.0
 10
12.40255828524874
 20
27.83849638263922
 30
0.0
  0
LINE
  5
230
330
1F
100
AcDbEntity
  8
Object
  6
Continuous
370
    15
100
AcDbLine
 10
12.36973759772945
 20
27.85373692657915
 30
0.0
 11
12.36973759772945
 21
27.82399327018041
 31
0.0
  0
SPLINE
  5
231
330
1F
100
AcDbEntity
  8
Object
  6
Continuous
370
    15
100
AcDbSpline
210
0.0
220
0.0
230
1.0
 70
     8
 71
     3
 72
    10
 73
     6
 74
     0
 42
0.0000000001
 43
0.0000000001
 40
0.0
 40
0.0
 40
0.0
 40
0.0
 40
0.2799449862306363
 40
0.5604319533095278
 40
1.0
 40
1.0
 40
1.0
 40
1.0
 10
12.40255828524874
 20
27.83849638263922
 30
0.0
 10
12.40231825695378
 20
27.84045726153377
 30
0.0
 10
12.40183773566279
 20
27.84438281563595
 30
0.0
 10
12.3972105516686
 20
27.8500937600432
 30
0.0
 10
12.39240116798934
 20
27.85176872446567
 30
0.0
 10
12.3894652098344
 20
27.85279123083725
 30
0.0
  0
SPLINE
  5
232
330
1F
100
AcDbEntity
  8
Object
  6
Continuous
370
    15
100
AcDbSpline
210
0.0
220
0.0
230
1.0
 70
     8
 71
     3
 72
     9
 73
     5
 74
     0
 42
0.0000000001
 43
0.0000000001
 40
0.0
 40
0.0
 40
0.0
 40
0.0
 40
0.5597134823367233
 40
1.0
 40
1.0
 40
1.0
 40
1.0
 10
12.3894652098344
 20
27.85279123083724
 30
0.0
 10
12.38668237016291
 20
27.85313550996411
 30
0.0
 10
12.38171046979013
 20
27.85375060882758
 30
0.0
 10
12.37670222990972
 20
27.85374110915633
 30
0.0
 10
12.37449716941315
 20
27.85373692657915
 30
0.0
  0
LINE
  5
233
330
1F
100
AcDbEntity
  8
Object
  6
Continuous
370
    15
100
AcDbLine
 10
12.37449716941315
 20
27.85373692657915
 30
0.0
 11
12.36973759772945
 21
27.85373692657915
 31
0.0
  0
LINE
  5
234
330
1F
100
AcDbEntity
  8
Object
  6
Continuous
370
    15
100
AcDbLine
 10
10.48004977423112
 20
38.43108801611677
 30
0.0
 11
10.52904995484351
 21
38.43108801611677
 31
0.0
  0
SPLINE
  5
235
330
1F
100
AcDbEntity
  8
Object
  6
Continuous
370
    15
100
AcDbSpline
210
0.0
220
0.0
230
1.0
 70
     8
 71
     3
 72
    11
 73
     7
 74
     0
 42
0.0000000001
 43
0.0000000001
 40
0.0
 40
0.0
 40
0.0
 40
0.0
 40
0.2762885024312641
 40
0.5295517693119011
 40
0.7827465195271187
 40
1.0
 40
1.0
 40
1.0
 40
1.0
 10
10.52904995484351
 20
38.43108801611677
 30
0.0
 10
10.52960084843214
 20
38.42838708777481
 30
0.0
 10
10.53065672543024
 20
38.42321032012185
 30
0.0
 10
10.53837169060163
 20
38.41557024909586
 30
0.0
 10
10.54825152470181
 20
38.40850030958617
 30
0.0
 10
10.55563861545067
 20
38.40391403444573
 30
0.0
 10
10.55904998161398
 20
38.40179608783296
 30
0.0
  0
LINE
  5
236
330
1F
100
AcDbEntity
  8
Object
  6
Continuous
370
    15
100
AcDbLine
 10
24.58004944983166
 20
10.40050313449192
 30
0.0
 11
24.53104985587915
 21
10.40050313449192
 31
0.0
  0
SPLINE
  5
237
330
1F
100
AcDbEntity
  8
Object
  6
Continuous
370
    15
100
AcDbSpline
210
0.0
220
0.0
230
1.0
 70
     8
 71
     3
 72
    11
 73
     7
 74
     0
 42
0.0000000001
 43
0.0000000001
 40
0.0
 40
0.0
 40
0.0
 40
0.0
 40
0.2762913789478523
 40
0.5295501746550633
 40
0.7827457831129385
 40
1.0
 40
1.0
 40
1.0
 40
1.0
 10
24.53104985587915
 20
10.40050313449192
 30
0.0
 10
24.53049866544002
 20
10.40320403749488
 30
0.0
 10
24.52944223365985
 20
10.40838068709716
 30
0.0
 10
24.52172824778829
 20
10.41602101253209
 30
0.0
 10
24.51184824412647
 20
10.42309082869952
 30
0.0
 10
24.50446118203705
 20
10.42767711226998
 30
0.0
 10
24.5010498291087
 20
10.42979506277574
 30
0.0
  0
LINE
  5
238
330
1F
100
AcDbEntity
  8
Object
  6
Continuous
370
    15
100
AcDbLine
 10
10.48604954492125
 20
10.36033101189705
 30
0.0
 11
10.48604954492125
 21
10.40050313449192
 31
0.0
  0
LINE
  5
239
330
1F
100
AcDbEntity
  8
Object
  6
Continuous
370
    15
100
AcDbLine
 10
10.48604954492125
 20
38.43108801611677
 30
0.0
 11
10.48604954492125
 21
38.47126013871164
 31
0.0
  0
LINE
  5
23A
330
1F
100
AcDbEntity
  8
Object
  6
Continuous
370
    15
100
AcDbLine
 10
10.4895853440754
 20
38.4747953512059
 30
0.0
 11
10.52975688001039
 21
38.4747953512059
 31
0.0
  0
LINE
  5
23B
330
1F
100
AcDbEntity
  8
Object
  6
Continuous
370
    15
100
AcDbLine
 10
24.53034234405239
 20
38.4747953512059
 30
0.0
 11
24.57051446664727
 21
38.4747953512059
 31
0.0
  0
LINE
  5
23C
330
1F
100
AcDbEntity
  8
Object
  6
Continuous
370
    15
100
AcDbLine
 10
24.57404967914153
 20
38.47126013871164
 30
0.0
 11
24.57404967914153
 21
38.43108801611677
 31
0.0
  0
LINE
  5
23D
330
1F
100
AcDbEntity
  8
Object
  6
Continuous
370
    15
100
AcDbLine
 10
24.57404967914153
 20
10.40050313449192
 30
0.0
 11
24.57404967914153
 21
10.36033101189705
 31
0.0
  0
LINE
  5
23E
330
1F
100
AcDbEntity
  8
Object
  6
Continuous
370
    15
100
AcDbLine
 10
10.52975688001039
 20
10.35679579940279
 30
0.0
 11
10.4895853440754
 21
10.35679579940279
 31
0.0
  0
LINE
  5
23F
330
1F
100
AcDbEntity
  8
Object
  6
Continuous
370
    15
100
AcDbLine
 10
24.57051446664727
 20
10.35679579940279
 30
0.0
 11
24.53034234405239
 21
10.35679579940279
 31
0.0
  0
CIRCLE
  5
240
330
1F
100
AcDbEntity
  8
Object
  6
HIDDEN
370
     0
100
AcDbCircle
 10
12.46604973813417
 20
30.49579558014783
 30
0.0
 40
0.1099999999999992
  0
CIRCLE
  5
241
330
1F
100
AcDbEntity
  8
Object
  6
HIDDEN
370
     0
100
AcDbCircle
 10
22.52604973813417
 20
30.49579558014783
 30
0.0
 40
0.1099999999999992
  0
CIRCLE
  5
242
330
1F
100
AcDbEntity
  8
Object
  6
HIDDEN
370
     0
100
AcDbCircle
 10
12.46604973813417
 20
18.54079558014783
 30
0.0
 40
0.1100000000000016
  0
CIRCLE
  5
243
330
1F
100
AcDbEntity
  8
Object
  6
HIDDEN
370
     0
100
AcDbCircle
 10
22.52604973813417
 20
18.54079558014783
 30
0.0
 40
0.1099999999999982
  0
ARC
  5
250
330
1F
100
AcDbEntity
  8
Object
  6
Continuous
370
    15
100
AcDbCircle
 10
39.88991011409538
 20
28.45079558014777
 30
0.0
 40
0.0299999999999986
100
AcDbArc
 50
180.0
 51
250.5287793655132
  0
ARC
  5
251
330
1F
100
AcDbEntity
  8
Object
  6
Continuous
370
    15
100
AcDbCircle
 10
39.88991011409538
 20
29.01079558014777
 30
0.0
 40
0.0299999999999986
100
AcDbArc
 50
109.4712206344876
 51
180.0
  0
ARC
  5
252
330
1F
100
AcDbEntity
  8
Object
  6
Continuous
370
    15
100
AcDbCircle
 10
40.07991011409539
 20
28.30579558014777
 30
0.0
 40
0.0300000000000022
100
AcDbArc
 50
263.4217094218448
 51
0.0
  0
ARC
  5
253
330
1F
100
AcDbEntity
  8
Object
  6
Continuous
370
    15
100
AcDbCircle
 10
40.07991011409539
 20
29.15579558014777
 30
0.0
 40
0.0300000000000022
100
AcDbArc
 50
0.0
 51
96.57829057815607
  0
ARC
  5
254
330
1F
100
AcDbEntity
  8
Object
  6
Continuous
370
    15
100
AcDbCircle
 10
40.10511347962917
 20
28.52434715384553
 30
0.0
 40
0.2499999999999999
100
AcDbArc
 50
205.7347999331737
 51
263.4217094218574
  0
ARC
  5
255
330
1F
100
AcDbEntity
  8
Object
  6
Continuous
370
    15
100
AcDbCircle
 10
40.10511347962917
 20
28.93724400645
 30
0.0
 40
0.250000000000001
100
AcDbArc
 50
96.57829057814344
 51
154.2652000668264
  0
LINE
  5
256
330
1F
100
AcDbEntity
  8
Object
  6
Continuous
370
    15
100
AcDbLine
 10
40.10966002341001
 20
27.86080412493827
 30
0.0
 11
40.10991023385289
 21
27.86080412493827
 31
0.0
  0
LINE
  5
257
330
1F
100
AcDbEntity
  8
Object
  6
Continuous
370
    15
100
AcDbLine
 10
40.80241002070294
 20
37.62579523892764
 30
0.0
 11
40.80241002070294
 21
37.87579565756814
 31
0.0
  0
LINE
  5
258
330
1F
100
AcDbEntity
  8
Object
  6
Continuous
370
    15
100
AcDbLine
 10
40.80241002070294
 20
37.12579557496643
 30
0.0
 11
40.80241002070294
 21
37.37579599360693
 31
0.0
  0
LINE
  5
259
330
1F
100
AcDbEntity
  8
Object
  6
Continuous
370
    15
100
AcDbLine
 10
40.80241002070294
 20
36.12579507372422
 30
0.0
 11
40.80241002070294
 21
36.37579549236472
 31
0.0
  0
LINE
  5
25A
330
1F
100
AcDbEntity
  8
Object
  6
Continuous
370
    15
100
AcDbLine
 10
40.80241002070294
 20
35.62579540976301
 30
0.0
 11
40.80241002070294
 21
35.8757958284035
 31
0.0
  0
LINE
  5
25B
330
1F
100
AcDbEntity
  8
Object
  6
Continuous
370
    15
100
AcDbLine
 10
40.80241002070294
 20
34.62579608184058
 30
0.0
 11
40.80241002070294
 21
34.87579532716129
 31
0.0
  0
LINE
  5
25C
330
1F
100
AcDbEntity
  8
Object
  6
Continuous
370
    15
100
AcDbLine
 10
40.80241002070294
 20
34.12579583121947
 30
0.0
 11
40.80241002070294
 21
34.37579566320008
 31
0.0
  0
LINE
  5
25D
330
1F
100
AcDbEntity
  8
Object
  6
Continuous
370
    15
100
AcDbLine
 10
40.80241002070294
 20
33.12579532997726
 30
0.0
 11
40.80241002070294
 21
33.37579574861776
 31
0.0
  0
LINE
  5
25E
330
1F
100
AcDbEntity
  8
Object
  6
Continuous
370
    15
100
AcDbLine
 10
40.80241002070294
 20
38.12579607620864
 30
0.0
 11
40.80241002070294
 21
38.37579532152936
 31
0.0
  0
LINE
  5
25F
330
1F
100
AcDbEntity
  8
Object
  6
Continuous
370
    15
100
AcDbLine
 10
40.80241002070294
 20
32.62579566601605
 30
0.0
 11
40.80241002070294
 21
32.87579549799665
 31
0.0
  0
LINE
  5
260
330
1F
100
AcDbEntity
  8
Object
  6
Continuous
370
    15
100
AcDbLine
 10
40.80241002070294
 20
32.12579541539494
 30
0.0
 11
40.80241002070294
 21
32.37579583403544
 31
0.0
  0
LINE
  5
261
330
1F
100
AcDbEntity
  8
Object
  6
Continuous
370
    15
100
AcDbLine
 10
40.80241002070294
 20
31.12579550081262
 30
0.0
 11
40.80241002070294
 21
31.37579533279323
 31
0.0
  0
LINE
  5
262
330
1F
100
AcDbEntity
  8
Object
  6
Continuous
370
    15
100
AcDbLine
 10
40.80241002070294
 20
30.62579583685141
 30
0.0
 11
40.80241002070294
 21
30.87579566883202
 31
0.0
  0
LINE
  5
263
330
1F
100
AcDbEntity
  8
Object
  6
Continuous
370
    15
100
AcDbLine
 10
40.80241002070294
 20
36.62579591100521
 30
0.0
 11
40.80241002070294
 21
36.87579515632594
 31
0.0
  0
LINE
  5
264
330
1F
100
AcDbEntity
  8
Object
  6
Continuous
370
    15
100
AcDbLine
 10
40.80241002070294
 20
35.12579574580179
 30
0.0
 11
40.80241002070294
 21
35.37579616444229
 31
0.0
  0
LINE
  5
265
330
1F
100
AcDbEntity
  8
Object
  6
Continuous
370
    15
100
AcDbLine
 10
40.80241002070294
 20
29.12579567164798
 30
0.0
 11
40.80241002070294
 21
29.37579550362859
 31
0.0
  0
LINE
  5
266
330
1F
100
AcDbEntity
  8
Object
  6
Continuous
370
    15
100
AcDbLine
 10
40.80241002070294
 20
29.6257953356092
 30
0.0
 11
40.80241002070294
 21
29.8757957542497
 31
0.0
  0
LINE
  5
267
330
1F
100
AcDbEntity
  8
Object
  6
Continuous
370
    15
100
AcDbLine
 10
40.80241002070294
 20
28.12579546373572
 30
0.0
 11
40.80241002070294
 21
28.37579558904626
 31
0.0
  0
LINE
  5
268
330
1F
100
AcDbEntity
  8
Object
  6
Continuous
370
    15
100
AcDbLine
 10
40.80241002070294
 20
27.62579550644455
 30
0.0
 11
40.80241002070294
 21
27.87579563175511
 31
0.0
  0
LINE
  5
269
330
1F
100
AcDbEntity
  8
Object
  6
Continuous
370
    15
100
AcDbLine
 10
40.80241002070294
 20
33.62579558059837
 30
0.0
 11
40.80241002070294
 21
33.87579541257898
 31
0.0
  0
LINE
  5
26A
330
1F
100
AcDbEntity
  8
Object
  6
Continuous
370
    15
100
AcDbLine
 10
40.80241002070294
 20
26.62579559186223
 30
0.0
 11
40.80241002070294
 21
26.87579557050782
 31
0.0
  0
LINE
  5
26B
330
1F
100
AcDbEntity
  8
Object
  6
Continuous
370
    15
100
AcDbLine
 10
40.80241002070294
 20
31.62579575143373
 30
0.0
 11
40.80241002070294
 21
31.87579558341433
 31
0.0
  0
LINE
  5
26C
330
1F
100
AcDbEntity
  8
Object
  6
Continuous
370
    15
100
AcDbLine
 10
40.80241002070294
 20
26.12579563457108
 30
0.0
 11
40.80241002070294
 21
26.37579561321665
 31
0.0
  0
LINE
  5
26D
330
1F
100
AcDbEntity
  8
Object
  6
Continuous
370
    15
100
AcDbLine
 10
40.80241002070294
 20
24.62579557936638
 30
0.0
 11
40.80241002070294
 21
24.8757955946782
 31
0.0
  0
LINE
  5
26E
330
1F
100
AcDbEntity
  8
Object
  6
Continuous
370
    15
100
AcDbLine
 10
40.80241002070294
 20
25.12579557332379
 30
0.0
 11
40.80241002070294
 21
25.37579555196936
 31
0.0
  0
LINE
  5
26F
330
1F
100
AcDbEntity
  8
Object
  6
Continuous
370
    15
100
AcDbLine
 10
40.80241002070294
 20
23.62579555478533
 30
0.0
 11
40.80241002070294
 21
23.87579560676339
 31
0.0
  0
LINE
  5
270
330
1F
100
AcDbEntity
  8
Object
  6
Continuous
370
    15
100
AcDbLine
 10
40.80241002070294
 20
30.1257955862303
 30
0.0
 11
40.80241002070294
 21
30.37579541821091
 31
0.0
  0
LINE
  5
271
330
1F
100
AcDbEntity
  8
Object
  6
Continuous
370
    15
100
AcDbLine
 10
40.80241002070294
 20
22.12579553624688
 30
0.0
 11
40.80241002070294
 21
22.37579551489246
 31
0.0
  0
LINE
  5
272
330
1F
100
AcDbEntity
  8
Object
  6
Continuous
370
    15
100
AcDbLine
 10
40.80241002070294
 20
28.62579571435682
 30
0.0
 11
40.80241002070294
 21
28.87579554633743
 31
0.0
  0
LINE
  5
273
330
1F
100
AcDbEntity
  8
Object
  6
Continuous
370
    15
100
AcDbLine
 10
40.80241002070294
 20
23.12579559749417
 30
0.0
 11
40.80241002070294
 21
23.37579557613975
 31
0.0
  0
LINE
  5
274
330
1F
100
AcDbEntity
  8
Object
  6
Continuous
370
    15
100
AcDbLine
 10
40.80241002070294
 20
27.1257955491534
 30
0.0
 11
40.80241002070294
 21
27.37579567446394
 31
0.0
  0
LINE
  5
275
330
1F
100
AcDbEntity
  8
Object
  6
Continuous
370
    15
100
AcDbLine
 10
40.80241002070294
 20
21.62579572562069
 30
0.0
 11
40.80241002070294
 21
21.87579555760129
 31
0.0
  0
LINE
  5
276
330
1F
100
AcDbEntity
  8
Object
  6
Continuous
370
    15
100
AcDbLine
 10
40.80241002070294
 20
25.62579560394742
 30
0.0
 11
40.80241002070294
 21
25.87579550926052
 31
0.0
  0
LINE
  5
277
330
1F
100
AcDbEntity
  8
Object
  6
Continuous
370
    15
100
AcDbLine
 10
40.80241002070294
 20
19.6257956031261
 30
0.0
 11
40.80241002070294
 21
19.87579543510671
 31
0.0
  0
LINE
  5
278
330
1F
100
AcDbEntity
  8
Object
  6
Continuous
370
    15
100
AcDbLine
 10
40.80241002070294
 20
20.12579556041726
 30
0.0
 11
40.80241002070294
 21
20.37579568572781
 31
0.0
  0
LINE
  5
279
330
1F
100
AcDbEntity
  8
Object
  6
Continuous
370
    15
100
AcDbLine
 10
40.80241002070294
 20
18.62579568854378
 30
0.0
 11
40.80241002070294
 21
18.87579552052439
 31
0.0
  0
LINE
  5
27A
330
1F
100
AcDbEntity
  8
Object
  6
Continuous
370
    15
100
AcDbLine
 10
40.80241002070294
 20
24.12579558540898
 30
0.0
 11
40.80241002070294
 21
24.37579558238768
 31
0.0
  0
LINE
  5
27B
330
1F
100
AcDbEntity
  8
Object
  6
Continuous
370
    15
100
AcDbLine
 10
40.80241002070294
 20
18.12579543792267
 30
0.0
 11
40.80241002070294
 21
18.37579585656317
 31
0.0
  0
LINE
  5
27C
330
1F
100
AcDbEntity
  8
Object
  6
Continuous
370
    15
100
AcDbLine
 10
40.80241002070294
 20
22.62579564020301
 30
0.0
 11
40.80241002070294
 21
22.87579561884859
 31
0.0
  0
LINE
  5
27D
330
1F
100
AcDbEntity
  8
Object
  6
Continuous
370
    15
100
AcDbLine
 10
40.80241002070294
 20
17.12579552334036
 30
0.0
 11
40.80241002070294
 21
17.37579535532096
 31
0.0
  0
LINE
  5
27E
330
1F
100
AcDbEntity
  8
Object
  6
Continuous
370
    15
100
AcDbLine
 10
40.80241002070294
 20
16.62579585937914
 30
0.0
 11
40.80241002070294
 21
16.87579569135975
 31
0.0
  0
LINE
  5
27F
330
1F
100
AcDbEntity
  8
Object
  6
Continuous
370
    15
100
AcDbLine
 10
40.80241002070294
 20
21.12579547499958
 30
0.0
 11
40.80241002070294
 21
21.37579560031014
 31
0.0
  0
LINE
  5
280
330
1F
100
AcDbEntity
  8
Object
  6
Continuous
370
    15
100
AcDbLine
 10
40.80241002070294
 20
20.62579551770843
 30
0.0
 11
40.80241002070294
 21
20.87579564301897
 31
0.0
  0
LINE
  5
281
330
1F
100
AcDbEntity
  8
Object
  6
Continuous
370
    15
100
AcDbLine
 10
40.80241002070294
 20
15.62579535813693
 30
0.0
 11
40.80241002070294
 21
15.87579577677743
 31
0.0
  0
LINE
  5
282
330
1F
100
AcDbEntity
  8
Object
  6
Continuous
370
    15
100
AcDbLine
 10
40.80241002070294
 20
15.12579569417571
 30
0.0
 11
40.80241002070294
 21
15.37579552615632
 31
0.0
  0
LINE
  5
283
330
1F
100
AcDbEntity
  8
Object
  6
Continuous
370
    15
100
AcDbLine
 10
40.80241002070294
 20
14.12579577959339
 30
0.0
 11
40.80241002070294
 21
14.37579502491411
 31
0.0
  0
LINE
  5
284
330
1F
100
AcDbEntity
  8
Object
  6
Continuous
370
    15
100
AcDbLine
 10
40.80241002070294
 20
19.12579535250499
 30
0.0
 11
40.80241002070294
 21
19.37579577114549
 31
0.0
  0
LINE
  5
285
330
1F
100
AcDbEntity
  8
Object
  6
Continuous
370
    15
100
AcDbLine
 10
40.80241002070294
 20
13.62579611563218
 30
0.0
 11
40.80241002070294
 21
13.8757953609529
 31
0.0
  0
LINE
  5
286
330
1F
100
AcDbEntity
  8
Object
  6
Continuous
370
    15
100
AcDbLine
 10
40.80241002070294
 20
17.62579577396145
 30
0.0
 11
40.80241002070294
 21
17.87579560594207
 31
0.0
  0
LINE
  5
287
330
1F
100
AcDbEntity
  8
Object
  6
Continuous
370
    15
100
AcDbLine
 10
40.80241002070294
 20
12.62579561438997
 30
0.0
 11
40.80241002070294
 21
12.87579603303047
 31
0.0
  0
LINE
  5
288
330
1F
100
AcDbEntity
  8
Object
  6
Continuous
370
    15
100
AcDbLine
 10
40.80241002070294
 20
11.12579544918655
 30
0.0
 11
40.80241002070294
 21
11.37579586782704
 31
0.0
  0
LINE
  5
289
330
1F
100
AcDbEntity
  8
Object
  6
Continuous
370
    15
100
AcDbLine
 10
40.80241002070294
 20
12.12579595042875
 30
0.0
 11
40.80241002070294
 21
12.37579519574947
 31
0.0
  0
LINE
  5
28A
330
1F
100
AcDbEntity
  8
Object
  6
Continuous
370
    15
100
AcDbLine
 10
40.80241002070294
 20
16.12579560875804
 30
0.0
 11
40.80241002070294
 21
16.37579544073864
 31
0.0
  0
LINE
  5
28B
330
1F
100
AcDbEntity
  8
Object
  6
Continuous
370
    15
100
AcDbLine
 10
40.80241002070294
 20
14.62579544355461
 30
0.0
 11
40.80241002070294
 21
14.8757958621951
 31
0.0
  0
LINE
  5
28C
330
1F
100
AcDbEntity
  8
Object
  6
Continuous
370
    15
100
AcDbLine
 10
40.80241002070294
 20
13.12579527835118
 30
0.0
 11
40.80241002070294
 21
13.37579569699169
 31
0.0
  0
LINE
  5
28D
330
1F
100
AcDbEntity
  8
Object
  6
Continuous
370
    15
100
AcDbLine
 10
40.80241002070294
 20
11.62579511314776
 30
0.0
 11
40.80241002070294
 21
11.87579553178825
 31
0.0
  0
LINE
  5
28E
330
1F
100
AcDbEntity
  8
Object
  6
Continuous
370
    15
100
AcDbLine
 10
40.80241002070294
 20
17.37579535532096
 30
0.0
 11
40.80241002070294
 21
17.62579577396145
 31
0.0
  0
LINE
  5
28F
330
1F
100
AcDbEntity
  8
Object
  6
Continuous
370
    15
100
AcDbLine
 10
40.80241002070294
 20
25.37579555196936
 30
0.0
 11
40.80241002070294
 21
25.62579560394742
 31
0.0
  0
LINE
  5
290
330
1F
100
AcDbEntity
  8
Object
  6
Continuous
370
    15
100
AcDbLine
 10
40.80241002070294
 20
37.87579565756814
 30
0.0
 11
40.80241002070294
 21
38.12579607620864
 31
0.0
  0
LINE
  5
291
330
1F
100
AcDbEntity
  8
Object
  6
Continuous
370
    15
100
AcDbLine
 10
40.80241002070294
 20
18.87579552052439
 30
0.0
 11
40.80241002070294
 21
19.12579535250499
 31
0.0
  0
LINE
  5
292
330
1F
100
AcDbEntity
  8
Object
  6
Continuous
370
    15
100
AcDbLine
 10
40.80241002070294
 20
20.37579568572781
 30
0.0
 11
40.80241002070294
 21
20.62579551770843
 31
0.0
  0
LINE
  5
293
330
1F
100
AcDbEntity
  8
Object
  6
Continuous
370
    15
100
AcDbLine
 10
40.80241002070294
 20
11.37579586782704
 30
0.0
 11
40.80241002070294
 21
11.62579511314776
 31
0.0
  0
LINE
  5
294
330
1F
100
AcDbEntity
  8
Object
  6
Continuous
370
    15
100
AcDbLine
 10
40.80241002070294
 20
12.87579603303047
 30
0.0
 11
40.80241002070294
 21
13.12579527835118
 31
0.0
  0
LINE
  5
295
330
1F
100
AcDbEntity
  8
Object
  6
Continuous
370
    15
100
AcDbLine
 10
40.80241002070294
 20
36.37579549236472
 30
0.0
 11
40.80241002070294
 21
36.62579591100521
 31
0.0
  0
LINE
  5
296
330
1F
100
AcDbEntity
  8
Object
  6
Continuous
370
    15
100
AcDbLine
 10
40.80241002070294
 20
31.37579533279323
 30
0.0
 11
40.80241002070294
 21
31.62579575143373
 31
0.0
  0
LINE
  5
297
330
1F
100
AcDbEntity
  8
Object
  6
Continuous
370
    15
100
AcDbLine
 10
40.80241002070294
 20
23.87579560676339
 30
0.0
 11
40.80241002070294
 21
24.12579558540898
 31
0.0
  0
LINE
  5
298
330
1F
100
AcDbEntity
  8
Object
  6
Continuous
370
    15
100
AcDbLine
 10
40.80241002070294
 20
29.8757957542497
 30
0.0
 11
40.80241002070294
 21
30.1257955862303
 31
0.0
  0
LINE
  5
299
330
1F
100
AcDbEntity
  8
Object
  6
Continuous
370
    15
100
AcDbLine
 10
40.80241002070294
 20
28.37579558904626
 30
0.0
 11
40.80241002070294
 21
28.62579571435682
 31
0.0
  0
LINE
  5
29A
330
1F
100
AcDbEntity
  8
Object
  6
Continuous
370
    15
100
AcDbLine
 10
40.80241002070294
 20
14.37579502491411
 30
0.0
 11
40.80241002070294
 21
14.62579544355461
 31
0.0
  0
LINE
  5
29B
330
1F
100
AcDbEntity
  8
Object
  6
Continuous
370
    15
100
AcDbLine
 10
40.80241002070294
 20
34.87579532716129
 30
0.0
 11
40.80241002070294
 21
35.12579574580179
 31
0.0
  0
LINE
  5
29C
330
1F
100
AcDbEntity
  8
Object
  6
Continuous
370
    15
100
AcDbLine
 10
40.80241002070294
 20
26.87579557050782
 30
0.0
 11
40.80241002070294
 21
27.1257955491534
 31
0.0
  0
LINE
  5
29D
330
1F
100
AcDbEntity
  8
Object
  6
Continuous
370
    15
100
AcDbLine
 10
40.80241002070294
 20
12.37579519574947
 30
0.0
 11
40.80241002070294
 21
12.62579561438997
 31
0.0
  0
LINE
  5
29E
330
1F
100
AcDbEntity
  8
Object
  6
Continuous
370
    15
100
AcDbLine
 10
40.80241002070294
 20
37.37579599360693
 30
0.0
 11
40.80241002070294
 21
37.62579523892764
 31
0.0
  0
LINE
  5
29F
330
1F
100
AcDbEntity
  8
Object
  6
Continuous
370
    15
100
AcDbLine
 10
40.80241002070294
 20
23.37579557613975
 30
0.0
 11
40.80241002070294
 21
23.62579555478533
 31
0.0
  0
LINE
  5
2A0
330
1F
100
AcDbEntity
  8
Object
  6
Continuous
370
    15
100
AcDbLine
 10
40.80241002070294
 20
33.87579541257898
 30
0.0
 11
40.80241002070294
 21
34.12579583121947
 31
0.0
  0
LINE
  5
2A1
330
1F
100
AcDbEntity
  8
Object
  6
Continuous
370
    15
100
AcDbLine
 10
40.80241002070294
 20
19.87579543510671
 30
0.0
 11
40.80241002070294
 21
20.12579556041726
 31
0.0
  0
LINE
  5
2A2
330
1F
100
AcDbEntity
  8
Object
  6
Continuous
370
    15
100
AcDbLine
 10
40.80241002070294
 20
34.37579566320008
 30
0.0
 11
40.80241002070294
 21
34.62579608184058
 31
0.0
  0
LINE
  5
2A3
330
1F
100
AcDbEntity
  8
Object
  6
Continuous
370
    15
100
AcDbLine
 10
40.80241002070294
 20
32.37579583403544
 30
0.0
 11
40.80241002070294
 21
32.62579566601605
 31
0.0
  0
LINE
  5
2A4
330
1F
100
AcDbEntity
  8
Object
  6
Continuous
370
    15
100
AcDbLine
 10
40.80241002070294
 20
15.37579552615632
 30
0.0
 11
40.80241002070294
 21
15.62579535813693
 31
0.0
  0
LINE
  5
2A5
330
1F
100
AcDbEntity
  8
Object
  6
Continuous
370
    15
100
AcDbLine
 10
40.80241002070294
 20
26.37579561321665
 30
0.0
 11
40.80241002070294
 21
26.62579559186223
 31
0.0
  0
LINE
  5
2A6
330
1F
100
AcDbEntity
  8
Object
  6
Continuous
370
    15
100
AcDbLine
 10
40.80241002070294
 20
32.87579549799665
 30
0.0
 11
40.80241002070294
 21
33.12579532997726
 31
0.0
  0
LINE
  5
2A7
330
1F
100
AcDbEntity
  8
Object
  6
Continuous
370
    15
100
AcDbLine
 10
40.80241002070294
 20
29.37579550362859
 30
0.0
 11
40.80241002070294
 21
29.6257953356092
 31
0.0
  0
LINE
  5
2A8
330
1F
100
AcDbEntity
  8
Object
  6
Continuous
370
    15
100
AcDbLine
 10
40.80241002070294
 20
13.8757953609529
 30
0.0
 11
40.80241002070294
 21
14.12579577959339
 31
0.0
  0
LINE
  5
2A9
330
1F
100
AcDbEntity
  8
Object
  6
Continuous
370
    15
100
AcDbLine
 10
40.80241002070294
 20
15.87579577677743
 30
0.0
 11
40.80241002070294
 21
16.12579560875804
 31
0.0
  0
LINE
  5
2AA
330
1F
100
AcDbEntity
  8
Object
  6
Continuous
370
    15
100
AcDbLine
 10
40.80241002070294
 20
35.8757958284035
 30
0.0
 11
40.80241002070294
 21
36.12579507372422
 31
0.0
  0
LINE
  5
2AB
330
1F
100
AcDbEntity
  8
Object
  6
Continuous
370
    15
100
AcDbLine
 10
40.80241002070294
 20
21.87579555760129
 30
0.0
 11
40.80241002070294
 21
22.12579553624688
 31
0.0
  0
LINE
  5
2AC
330
1F
100
AcDbEntity
  8
Object
  6
Continuous
370
    15
100
AcDbLine
 10
40.80241002070294
 20
21.37579560031014
 30
0.0
 11
40.80241002070294
 21
21.62579572562069
 31
0.0
  0
LINE
  5
2AD
330
1F
100
AcDbEntity
  8
Object
  6
Continuous
370
    15
100
AcDbLine
 10
40.80241002070294
 20
27.87579563175511
 30
0.0
 11
40.80241002070294
 21
28.12579546373572
 31
0.0
  0
LINE
  5
2AE
330
1F
100
AcDbEntity
  8
Object
  6
Continuous
370
    15
100
AcDbLine
 10
40.80241002070294
 20
16.87579569135975
 30
0.0
 11
40.80241002070294
 21
17.12579552334036
 31
0.0
  0
LINE
  5
2AF
330
1F
100
AcDbEntity
  8
Object
  6
Continuous
370
    15
100
AcDbLine
 10
40.80241002070294
 20
18.37579585656317
 30
0.0
 11
40.80241002070294
 21
18.62579568854378
 31
0.0
  0
LINE
  5
2B0
330
1F
100
AcDbEntity
  8
Object
  6
Continuous
370
    15
100
AcDbLine
 10
40.80241002070294
 20
24.8757955946782
 30
0.0
 11
40.80241002070294
 21
25.12579557332379
 31
0.0
  0
LINE
  5
2B1
330
1F
100
AcDbEntity
  8
Object
  6
Continuous
370
    15
100
AcDbLine
 10
40.80241002070294
 20
10.87579503054605
 30
0.0
 11
40.80241002070294
 21
11.12579544918655
 31
0.0
  0
LINE
  5
2B2
330
1F
100
AcDbEntity
  8
Object
  6
Continuous
370
    15
100
AcDbLine
 10
40.80241002070294
 20
30.87579566883202
 30
0.0
 11
40.80241002070294
 21
31.12579550081262
 31
0.0
  0
LINE
  5
2B3
330
1F
100
AcDbEntity
  8
Object
  6
Continuous
370
    15
100
AcDbLine
 10
40.80241002070294
 20
27.37579567446394
 30
0.0
 11
40.80241002070294
 21
27.62579550644455
 31
0.0
  0
LINE
  5
2B4
330
1F
100
AcDbEntity
  8
Object
  6
Continuous
370
    15
100
AcDbLine
 10
40.80241002070294
 20
13.37579569699169
 30
0.0
 11
40.80241002070294
 21
13.62579611563218
 31
0.0
  0
LINE
  5
2B5
330
1F
100
AcDbEntity
  8
Object
  6
Continuous
370
    15
100
AcDbLine
 10
40.80241002070294
 20
33.37579574861776
 30
0.0
 11
40.80241002070294
 21
33.62579558059837
 31
0.0
  0
LINE
  5
2B6
330
1F
100
AcDbEntity
  8
Object
  6
Continuous
370
    15
100
AcDbLine
 10
40.80241002070294
 20
22.87579561884859
 30
0.0
 11
40.80241002070294
 21
23.12579559749417
 31
0.0
  0
LINE
  5
2B7
330
1F
100
AcDbEntity
  8
Object
  6
Continuous
370
    15
100
AcDbLine
 10
40.80241002070294
 20
22.37579551489246
 30
0.0
 11
40.80241002070294
 21
22.62579564020301
 31
0.0
  0
LINE
  5
2B8
330
1F
100
AcDbEntity
  8
Object
  6
Continuous
370
    15
100
AcDbLine
 10
40.80241002070294
 20
16.37579544073864
 30
0.0
 11
40.80241002070294
 21
16.62579585937914
 31
0.0
  0
LINE
  5
2B9
330
1F
100
AcDbEntity
  8
Object
  6
Continuous
370
    15
100
AcDbLine
 10
40.80241002070294
 20
19.37579577114549
 30
0.0
 11
40.80241002070294
 21
19.6257956031261
 31
0.0
  0
LINE
  5
2BA
330
1F
100
AcDbEntity
  8
Object
  6
Continuous
370
    15
100
AcDbLine
 10
40.80241002070294
 20
30.37579541821091
 30
0.0
 11
40.80241002070294
 21
30.62579583685141
 31
0.0
  0
LINE
  5
2BB
330
1F
100
AcDbEntity
  8
Object
  6
Continuous
370
    15
100
AcDbLine
 10
40.80241002070294
 20
11.87579553178825
 30
0.0
 11
40.80241002070294
 21
12.12579595042875
 31
0.0
  0
LINE
  5
2BC
330
1F
100
AcDbEntity
  8
Object
  6
Continuous
370
    15
100
AcDbLine
 10
40.80241002070294
 20
24.37579558238768
 30
0.0
 11
40.80241002070294
 21
24.62579557936638
 31
0.0
  0
LINE
  5
2BD
330
1F
100
AcDbEntity
  8
Object
  6
Continuous
370
    15
100
AcDbLine
 10
40.80241002070294
 20
20.87579564301897
 30
0.0
 11
40.80241002070294
 21
21.12579547499958
 31
0.0
  0
LINE
  5
2BE
330
1F
100
AcDbEntity
  8
Object
  6
Continuous
370
    15
100
AcDbLine
 10
40.80241002070294
 20
36.87579515632594
 30
0.0
 11
40.80241002070294
 21
37.12579557496643
 31
0.0
  0
LINE
  5
2BF
330
1F
100
AcDbEntity
  8
Object
  6
Continuous
370
    15
100
AcDbLine
 10
40.80241002070294
 20
14.8757958621951
 30
0.0
 11
40.80241002070294
 21
15.12579569417571
 31
0.0
  0
LINE
  5
2C0
330
1F
100
AcDbEntity
  8
Object
  6
Continuous
370
    15
100
AcDbLine
 10
40.80241002070294
 20
25.87579550926052
 30
0.0
 11
40.80241002070294
 21
26.12579563457108
 31
0.0
  0
LINE
  5
2C1
330
1F
100
AcDbEntity
  8
Object
  6
Continuous
370
    15
100
AcDbLine
 10
40.80241002070294
 20
28.87579554633743
 30
0.0
 11
40.80241002070294
 21
29.12579567164798
 31
0.0
  0
LINE
  5
2C2
330
1F
100
AcDbEntity
  8
Object
  6
Continuous
370
    15
100
AcDbLine
 10
40.80241002070294
 20
17.87579560594207
 30
0.0
 11
40.80241002070294
 21
18.12579543792267
 31
0.0
  0
LINE
  5
2C3
330
1F
100
AcDbEntity
  8
Object
  6
Continuous
370
    15
100
AcDbLine
 10
40.80241002070294
 20
35.37579616444229
 30
0.0
 11
40.80241002070294
 21
35.62579540976301
 31
0.0
  0
LINE
  5
2C4
330
1F
100
AcDbEntity
  8
Object
  6
Continuous
370
    15
100
AcDbLine
 10
40.80241002070294
 20
31.87579558341433
 30
0.0
 11
40.80241002070294
 21
32.12579541539494
 31
0.0
  0
LINE
  5
2C5
330
1F
100
AcDbEntity
  8
Object
  6
Continuous
370
    15
100
AcDbLine
 10
40.89591011391521
 20
10.35679579940279
 30
0.0
 11
44.58591011588697
 21
10.35679579940279
 31
0.0
  0
LINE
  5
2C6
330
1F
100
AcDbEntity
  8
Object
  6
Continuous
370
    15
100
AcDbLine
 10
40.89591011391521
 20
38.4747953512059
 30
0.0
 11
40.89591011391521
 21
10.35679579940279
 31
0.0
  0
LINE
  5
2C7
330
1F
100
AcDbEntity
  8
Object
  6
Continuous
370
    15
100
AcDbLine
 10
40.89591011391521
 20
38.4747953512059
 30
0.0
 11
44.58591011588697
 21
38.4747953512059
 31
0.0
  0
LINE
  5
2C8
330
1F
100
AcDbEntity
  8
Object
  6
Continuous
370
    15
100
AcDbLine
 10
44.58591011588697
 20
38.4747953512059
 30
0.0
 11
44.58591011588697
 21
10.35679579940279
 31
0.0
  0
LINE
  5
2C9
330
1F
100
AcDbEntity
  8
Object
  6
Continuous
370
    15
100
AcDbLine
 10
40.89591011391521
 20
10.32079600194218
 30
0.0
 11
44.58591011588697
 21
10.32079600194218
 31
0.0
  0
LINE
  5
2CA
330
1F
100
AcDbEntity
  8
Object
  6
Continuous
370
    15
100
AcDbLine
 10
40.89591011391521
 20
10.35679579940279
 30
0.0
 11
40.89591011391521
 21
10.32079600194218
 31
0.0
  0
LINE
  5
2CB
330
1F
100
AcDbEntity
  8
Object
  6
Continuous
370
    15
100
AcDbLine
 10
44.58591011588697
 20
10.35679579940279
 30
0.0
 11
44.58591011588697
 21
10.32079600194218
 31
0.0
  0
LINE
  5
2CC
330
1F
100
AcDbEntity
  8
Object
  6
Continuous
370
    15
100
AcDbLine
 10
44.62191011501191
 20
10.36033101189704
 30
0.0
 11
44.62191011501191
 21
38.47126013871164
 31
0.0
  0
SPLINE
  5
2CD
330
1F
100
AcDbEntity
  8
Object
  6
Continuous
370
    15
100
AcDbSpline
210
0.0
220
0.0
230
1.0
 70
     8
 71
     3
 72
    11
 73
     7
 74
     0
 42
0.0000000001
 43
0.0000000001
 40
0.0
 40
0.0
 40
0.0
 40
0.0
 40
0.2499990293400053
 40
0.5000003959644623
 40
0.7499999338124898
 40
1.0
 40
1.0
 40
1.0
 40
1.0
 10
44.62191011501191
 20
10.36033101189704
 30
0.0
 10
44.6213689703366
 20
10.3600366404252
 30
0.0
 10
44.62028667592673
 20
10.35944789472938
 30
0.0
 10
44.61196177808161
 20
10.35856240467432
 30
0.0
 10
44.60006209593639
 20
10.35767941222467
 30
0.0
 10
44.59062744589324
 20
10.35709033721757
 30
0.0
 10
44.58591011588697
 20
10.35679579940279
 30
0.0
  0
SPLINE
  5
2CE
330
1F
100
AcDbEntity
  8
Object
  6
Continuous
370
    15
100
AcDbSpline
210
0.0
220
0.0
230
1.0
 70
     8
 71
     3
 72
    11
 73
     7
 74
     0
 42
0.0000000001
 43
0.0000000001
 40
0.0
 40
0.0
 40
0.0
 40
0.0
 40
0.2500000661875104
 40
0.4999996040355378
 40
0.7500009706599947
 40
1.0
 40
1.0
 40
1.0
 40
1.0
 10
44.58591011588697
 20
38.4747953512059
 30
0.0
 10
44.59062744589324
 20
38.47450081339112
 30
0.0
 10
44.60006209593639
 20
38.47391173838402
 30
0.0
 10
44.61196177808161
 20
38.47302874593437
 30
0.0
 10
44.62028667592673
 20
38.4721432558793
 30
0.0
 10
44.6213689703366
 20
38.47155451018348
 30
0.0
 10
44.62191011501191
 20
38.47126013871164
 30
0.0
  0
LINE
  5
2CF
330
1F
100
AcDbEntity
  8
Object
  6
Continuous
370
    15
100
AcDbLine
 10
40.89591011391521
 20
38.51079514866651
 30
0.0
 11
40.89591011391521
 21
38.4747953512059
 31
0.0
  0
LINE
  5
2D0
330
1F
100
AcDbEntity
  8
Object
  6
Continuous
370
    15
100
AcDbLine
 10
40.89591011391521
 20
38.51079514866651
 30
0.0
 11
44.58591011588697
 21
38.51079514866651
 31
0.0
  0
LINE
  5
2D1
330
1F
100
AcDbEntity
  8
Object
  6
Continuous
370
    15
100
AcDbLine
 10
44.58591011588697
 20
38.51079514866651
 30
0.0
 11
44.58591011588697
 21
38.4747953512059
 31
0.0
  0
LINE
  5
2D2
330
1F
100
AcDbEntity
  8
Object
  6
Continuous
370
    15
100
AcDbLine
 10
40.85991002312467
 20
38.47126013871164
 30
0.0
 11
40.85991002312467
 21
10.36033101189704
 31
0.0
  0
SPLINE
  5
2D3
330
1F
100
AcDbEntity
  8
Object
  6
Continuous
370
    15
100
AcDbSpline
210
0.0
220
0.0
230
1.0
 70
     8
 71
     3
 72
    11
 73
     7
 74
     0
 42
0.0000000001
 43
0.0000000001
 40
0.0
 40
0.0
 40
0.0
 40
0.0
 40
0.2499987182674844
 40
0.5000020991193527
 40
0.7500012817325157
 40
1.0
 40
1.0
 40
1.0
 40
1.0
 10
40.85991002312467
 20
38.47126013871164
 30
0.0
 10
40.86045113330551
 20
38.47155451109731
 30
0.0
 10
40.86153336375914
 20
38.47214326135882
 30
0.0
 10
40.86985856051565
 20
38.47302874041054
 30
0.0
 10
40.88175817022111
 20
38.4739117370216
 30
0.0
 10
40.89119280227113
 20
38.47450081332682
 30
0.0
 10
40.89591011391521
 20
38.4747953512059
 30
0.0
  0
SPLINE
  5
2D4
330
1F
100
AcDbEntity
  8
Object
  6
Continuous
370
    15
100
AcDbSpline
210
0.0
220
0.0
230
1.0
 70
     8
 71
     3
 72
    11
 73
     7
 74
     0
 42
0.0000000001
 43
0.0000000001
 40
0.0
 40
0.0
 40
0.0
 40
0.0
 40
0.2499987182674844
 40
0.4999979008806474
 40
0.7500012817325157
 40
1.0
 40
1.0
 40
1.0
 40
1.0
 10
40.89591011391521
 20
10.35679579940279
 30
0.0
 10
40.89119280227113
 20
10.35709033728186
 30
0.0
 10
40.88175817022111
 20
10.35767941358708
 30
0.0
 10
40.86985856051565
 20
10.35856241019815
 30
0.0
 10
40.86153336375914
 20
10.35944788924987
 30
0.0
 10
40.86045113330551
 20
10.36003663951138
 30
0.0
 10
40.85991002312467
 20
10.36033101189704
 30
0.0
  0
SPLINE
  5
2D5
330
1F
100
AcDbEntity
  8
Object
  6
Continuous
370
    15
100
AcDbSpline
210
0.0
220
0.0
230
1.0
 70
     8
 71
     3
 72
    11
 73
     7
 74
     0
 42
0.0000000001
 43
0.0000000001
 40
0.0
 40
0.0
 40
0.0
 40
0.0
 40
0.2499966490446294
 40
0.4999941441011433
 40
0.7499928131105406
 40
1.0
 40
1.0
 40
1.0
 40
1.0
 10
44.58591011588697
 20
10.32079600194218
 30
0.0
 10
44.59062745227957
 20
10.32133687867963
 30
0.0
 10
44.60006214102868
 20
10.32241863398488
 30
0.0
 10
44.61196175440996
 20
10.33074373618153
 30
0.0
 10
44.62028680601692
 20
10.34264339748628
 30
0.0
 10
44.62136900586829
 20
10.35207827852112
 30
0.0
 10
44.62191011501191
 20
10.35679579940279
 30
0.0
  0
LINE
  5
2D6
330
1F
100
AcDbEntity
  8
Object
  6
Continuous
370
    15
100
AcDbLine
 10
44.62191011501191
 20
10.35679579940279
 30
0.0
 11
44.60391011544944
 21
10.35679579940279
 31
0.0
  0
SPLINE
  5
2D7
330
1F
100
AcDbEntity
  8
Object
  6
Continuous
370
    15
100
AcDbSpline
210
0.0
220
0.0
230
1.0
 70
     8
 71
     3
 72
    11
 73
     7
 74
     0
 42
0.0000000001
 43
0.0000000001
 40
0.0
 40
0.0
 40
0.0
 40
0.0
 40
0.2499917351382248
 40
0.4999979418935997
 40
0.7499956716155599
 40
1.0
 40
1.0
 40
1.0
 40
1.0
 10
44.58591011588697
 20
10.33879590067249
 30
0.0
 10
44.5882688148948
 20
10.33906605156281
 30
0.0
 10
44.59298634945172
 20
10.33960636898206
 30
0.0
 10
44.59893578912591
 20
10.34376990138236
 30
0.0
 10
44.60309846605487
 20
10.34971951674031
 30
0.0
 10
44.60363956327093
 20
10.35443701776258
 30
0.0
 10
44.60391011544944
 20
10.35679579940279
 30
0.0
  0
LINE
  5
2D8
330
1F
100
AcDbEntity
  8
Object
  6
Continuous
370
    15
100
AcDbLine
 10
44.62191011501191
 20
38.4747953512059
 30
0.0
 11
44.60391011544944
 21
38.4747953512059
 31
0.0
  0
SPLINE
  5
2D9
330
1F
100
AcDbEntity
  8
Object
  6
Continuous
370
    15
100
AcDbSpline
210
0.0
220
0.0
230
1.0
 70
     8
 71
     3
 72
    11
 73
     7
 74
     0
 42
0.0000000001
 43
0.0000000001
 40
0.0
 40
0.0
 40
0.0
 40
0.0
 40
0.2500043283844402
 40
0.5000020581064005
 40
0.7500082648617754
 40
1.0
 40
1.0
 40
1.0
 40
1.0
 10
44.60391011544944
 20
38.4747953512059
 30
0.0
 10
44.60363956327093
 20
38.4771541328461
 30
0.0
 10
44.60309846605487
 20
38.48187163386837
 30
0.0
 10
44.59893578912591
 20
38.48782124922632
 30
0.0
 10
44.59298634945172
 20
38.49198478162662
 30
0.0
 10
44.5882688148948
 20
38.49252509904587
 30
0.0
 10
44.58591011588697
 20
38.4927952499362
 30
0.0
  0
SPLINE
  5
2DA
330
1F
100
AcDbEntity
  8
Object
  6
Continuous
370
    15
100
AcDbSpline
210
0.0
220
0.0
230
1.0
 70
     8
 71
     3
 72
    11
 73
     7
 74
     0
 42
0.0000000001
 43
0.0000000001
 40
0.0
 40
0.0
 40
0.0
 40
0.0
 40
0.2500071868894596
 40
0.5000058558988569
 40
0.7500033509553706
 40
1.0
 40
1.0
 40
1.0
 40
1.0
 10
44.62191011501191
 20
38.4747953512059
 30
0.0
 10
44.62136900586829
 20
38.47951287208756
 30
0.0
 10
44.62028680601692
 20
38.48894775312241
 30
0.0
 10
44.61196175440996
 20
38.50084741442716
 30
0.0
 10
44.60006214102868
 20
38.5091725166238
 30
0.0
 10
44.59062745227957
 20
38.51025427192907
 30
0.0
 10
44.58591011588697
 20
38.51079514866651
 30
0.0
  0
LINE
  5
2DB
330
1F
100
AcDbEntity
  8
Object
  6
Continuous
370
    15
100
AcDbLine
 10
40.85991002312467
 20
10.35679579940279
 30
0.0
 11
40.87791021518491
 21
10.35679579940279
 31
0.0
  0
SPLINE
  5
2DC
330
1F
100
AcDbEntity
  8
Object
  6
Continuous
370
    15
100
AcDbSpline
210
0.0
220
0.0
230
1.0
 70
     8
 71
     3
 72
    11
 73
     7
 74
     0
 42
0.0000000001
 43
0.0000000001
 40
0.0
 40
0.0
 40
0.0
 40
0.0
 40
0.250006875819577
 40
0.5000075590458555
 40
0.7500046988702614
 40
1.0
 40
1.0
 40
1.0
 40
1.0
 10
40.85991002312467
 20
10.35679579940279
 30
0.0
 10
40.8604510977728
 20
10.35207826698455
 30
0.0
 10
40.8615332336668
 20
10.34264331899992
 30
0.0
 10
40.8698585841869
 20
10.33074380502064
 30
0.0
 10
40.88175812512874
 20
10.32241863487157
 30
0.0
 10
40.89119279588487
 20
10.32133687825927
 30
0.0
 10
40.89591011391521
 20
10.32079600194218
 30
0.0
  0
SPLINE
  5
2DD
330
1F
100
AcDbEntity
  8
Object
  6
Continuous
370
    15
100
AcDbSpline
210
0.0
220
0.0
230
1.0
 70
     8
 71
     3
 72
    11
 73
     7
 74
     0
 42
0.0000000001
 43
0.0000000001
 40
0.0
 40
0.0
 40
0.0
 40
0.0
 40
0.2500046859724681
 40
0.5000023366781794
 40
0.750008821948911
 40
1.0
 40
1.0
 40
1.0
 40
1.0
 10
40.87791021518491
 20
10.35679579940279
 30
0.0
 10
40.87818075824634
 20
10.35443701881836
 30
0.0
 10
40.87872183675597
 20
10.34971952402686
 30
0.0
 10
40.8828844796554
 20
10.34376989593951
 30
0.0
 10
40.88883390674117
 20
10.3396063746955
 30
0.0
 10
40.89355142633216
 20
10.33906605316625
 30
0.0
 10
40.89591011391521
 20
10.33879590067249
 30
0.0
  0
SPLINE
  5
2DE
330
1F
100
AcDbEntity
  8
Object
  6
Continuous
370
    15
100
AcDbSpline
210
0.0
220
0.0
230
1.0
 70
     8
 71
     3
 72
    11
 73
     7
 74
     0
 42
0.0000000001
 43
0.0000000001
 40
0.0
 40
0.0
 40
0.0
 40
0.0
 40
0.2499953011297386
 40
0.4999924409541445
 40
0.7499931241804231
 40
1.0
 40
1.0
 40
1.0
 40
1.0
 10
40.89591011391521
 20
38.51079514866651
 30
0.0
 10
40.89119279588487
 20
38.51025427234941
 30
0.0
 10
40.88175812512874
 20
38.50917251573712
 30
0.0
 10
40.8698585841869
 20
38.50084734558805
 30
0.0
 10
40.8615332336668
 20
38.48894783160876
 30
0.0
 10
40.8604510977728
 20
38.47951288362413
 30
0.0
 10
40.85991002312467
 20
38.4747953512059
 30
0.0
  0
SPLINE
  5
2DF
330
1F
100
AcDbEntity
  8
Object
  6
Continuous
370
    15
100
AcDbSpline
210
0.0
220
0.0
230
1.0
 70
     8
 71
     3
 72
    11
 73
     7
 74
     0
 42
0.0000000001
 43
0.0000000001
 40
0.0
 40
0.0
 40
0.0
 40
0.0
 40
0.2499911780510891
 40
0.4999976633218206
 40
0.749995314027532
 40
1.0
 40
1.0
 40
1.0
 40
1.0
 10
40.89591011391521
 20
38.4927952499362
 30
0.0
 10
40.89355142633216
 20
38.49252509744243
 30
0.0
 10
40.88883390674117
 20
38.49198477591317
 30
0.0
 10
40.8828844796554
 20
38.48782125466918
 30
0.0
 10
40.87872183675597
 20
38.48187162658182
 30
0.0
 10
40.87818075824634
 20
38.47715413179032
 30
0.0
 10
40.87791021518491
 20
38.4747953512059
 30
0.0
  0
LINE
  5
2E0
330
1F
100
AcDbEntity
  8
Object
  6
Continuous
370
    15
100
AcDbLine
 10
40.85991002312467
 20
38.4747953512059
 30
0.0
 11
40.87791021518491
 21
38.4747953512059
 31
0.0
  0
LINE
  5
2E1
330
1F
100
AcDbEntity
  8
Object
  6
Continuous
370
    15
100
AcDbLine
 10
44.62191011501191
 20
38.47126013871164
 30
0.0
 11
44.62191011501191
 21
38.4747953512059
 31
0.0
  0
LINE
  5
2E2
330
1F
100
AcDbEntity
  8
Object
  6
Continuous
370
    15
100
AcDbLine
 10
44.62191011501191
 20
10.35679579940279
 30
0.0
 11
44.62191011501191
 21
10.36033101189704
 31
0.0
  0
LINE
  5
2E3
330
1F
100
AcDbEntity
  8
Object
  6
Continuous
370
    15
100
AcDbLine
 10
40.85991002312467
 20
10.36033101189704
 30
0.0
 11
40.85991002312467
 21
10.35679579940279
 31
0.0
  0
LINE
  5
2E4
330
1F
100
AcDbEntity
  8
Object
  6
Continuous
370
    15
100
AcDbLine
 10
40.85991002312467
 20
38.4747953512059
 30
0.0
 11
40.85991002312467
 21
38.47126013871164
 31
0.0
  0
LINE
  5
2E5
330
1F
100
AcDbEntity
  8
Object
  6
Continuous
370
    15
100
AcDbLine
 10
39.85991010854234
 20
28.45079565597243
 30
0.0
 11
39.85991010854234
 21
29.01079566680451
 31
0.0
  0
LINE
  5
2E6
330
1F
100
AcDbEntity
  8
Object
  6
Continuous
370
    15
100
AcDbLine
 10
39.87991022416597
 20
28.7307955147235
 30
0.0
 11
39.87991022416597
 21
29.04579550248343
 31
0.0
  0
LINE
  5
2E7
330
1F
100
AcDbEntity
  8
Object
  6
Continuous
370
    15
100
AcDbLine
 10
39.87991022416597
 20
28.41579552696357
 30
0.0
 11
39.87991022416597
 21
28.7307955147235
 31
0.0
  0
LINE
  5
2E8
330
1F
100
AcDbEntity
  8
Object
  6
Continuous
370
    15
100
AcDbLine
 10
40.73545922079095
 20
38.43179552794353
 30
0.0
 11
40.73545922079095
 21
38.40179608783296
 31
0.0
  0
LINE
  5
2E9
330
1F
100
AcDbEntity
  8
Object
  6
Continuous
370
    15
100
AcDbLine
 10
40.73545922079095
 20
38.40179608783296
 30
0.0
 11
40.69531613786061
 21
38.40179608783296
 31
0.0
  0
LINE
  5
2EA
330
1F
100
AcDbEntity
  8
Object
  6
Continuous
370
    15
100
AcDbLine
 10
40.2608323037216
 20
38.43108801611677
 30
0.0
 11
40.270016757622
 21
38.43179552794353
 31
0.0
  0
LINE
  5
2EB
330
1F
100
AcDbEntity
  8
Object
  6
Continuous
370
    15
100
AcDbLine
 10
40.18891014790582
 20
10.40050313449192
 30
0.0
 11
40.18891014790582
 21
38.43108801611677
 31
0.0
  0
LINE
  5
2EC
330
1F
100
AcDbEntity
  8
Object
  6
Continuous
370
    15
100
AcDbLine
 10
40.18891014790582
 20
38.43108801611677
 30
0.0
 11
40.6149100000525
 21
38.43108801611677
 31
0.0
  0
ARC
  5
2ED
330
1F
100
AcDbEntity
  8
Object
  6
Continuous
370
    15
100
AcDbCircle
 10
40.61491011409539
 20
38.30608847336659
 30
0.0
 40
0.125
100
AcDbArc
 50
0.0000000000016284
 51
90.0
  0
LINE
  5
2EE
330
1F
100
AcDbEntity
  8
Object
  6
Continuous
370
    15
100
AcDbLine
 10
40.73991020937275
 20
38.30608839345641
 30
0.0
 11
40.73991020937275
 21
10.52550275715228
 31
0.0
  0
ARC
  5
2EF
330
1F
100
AcDbEntity
  8
Object
  6
Continuous
370
    15
100
AcDbCircle
 10
40.61491011409539
 20
10.52550268692895
 30
0.0
 40
0.1250000000000071
100
AcDbArc
 50
270.0000000000008
 51
0.0000000000016284
  0
LINE
  5
2F0
330
1F
100
AcDbEntity
  8
Object
  6
Continuous
370
    15
100
AcDbLine
 10
40.18891014790582
 20
10.40050313449192
 30
0.0
 11
40.6149100000525
 21
10.40050313449192
 31
0.0
  0
SPLINE
  5
2F1
330
1F
100
AcDbEntity
  8
Object
  6
Continuous
370
    15
100
AcDbSpline
210
0.0
220
0.0
230
1.0
 70
     8
 71
     3
 72
    12
 73
     8
 74
     0
 42
0.0000000001
 43
0.0000000001
 40
0.0
 40
0.0
 40
0.0
 40
0.0
 40
0.196819304308098
 40
0.4174000723302905
 40
0.6379882262653011
 40
0.8585735653479174
 40
1.0
 40
1.0
 40
1.0
 40
1.0
 10
40.10991023385289
 20
38.40179608783296
 30
0.0
 10
40.11064652977608
 20
38.40371612470749
 30
0.0
 10
40.11220801264317
 20
38.40778799932937
 30
0.0
 10
40.12513791783409
 20
38.41402596417717
 30
0.0
 10
40.14549170196604
 20
38.42048751008123
 30
0.0
 10
40.16814727625957
 20
38.42618610762798
 30
0.0
 10
40.18307741836493
 20
38.42971096640339
 30
0.0
 10
40.18891014790582
 20
38.43108801611677
 30
0.0
  0
LINE
  5
2F2
330
1F
100
AcDbEntity
  8
Object
  6
Continuous
370
    15
100
AcDbLine
 10
40.10991023385289
 20
10.42979506277573
 30
0.0
 11
40.10991023385289
 21
38.40179608783296
 31
0.0
  0
SPLINE
  5
2F3
330
1F
100
AcDbEntity
  8
Object
  6
Continuous
370
    15
100
AcDbSpline
210
0.0
220
0.0
230
1.0
 70
     8
 71
     3
 72
    12
 73
     8
 74
     0
 42
0.0000000001
 43
0.0000000001
 40
0.0
 40
0.0
 40
0.0
 40
0.0
 40
0.1968189775125041
 40
0.417399767003883
 40
0.6379879424087987
 40
0.8585733029610462
 40
1.0
 40
1.0
 40
1.0
 40
1.0
 10
40.18891014790582
 20
10.40050313449192
 30
0.0
 10
40.18077559917354
 20
10.40242317220604
 30
0.0
 10
40.163524423558
 20
10.40649505239077
 30
0.0
 10
40.13973980868224
 20
10.41273301024051
 30
0.0
 10
40.12107293820654
 20
10.41919455596803
 30
0.0
 10
40.11127996071401
 20
10.42489315986996
 30
0.0
 10
40.11029501937851
 20
10.42841801357006
 30
0.0
 10
40.10991023385289
 20
10.42979506277573
 30
0.0
  0
SPLINE
  5
2F4
330
1F
100
AcDbEntity
  8
Object
  6
Continuous
370
    15
100
AcDbSpline
210
0.0
220
0.0
230
1.0
 70
     8
 71
     3
 72
    12
 73
     8
 74
     0
 42
0.0000000001
 43
0.0000000001
 40
0.0
 40
0.0
 40
0.0
 40
0.0
 40
0.1968168733522802
 40
0.4173993567326081
 40
0.6379884431552463
 40
0.8585747147408097
 40
1.0
 40
1.0
 40
1.0
 40
1.0
 10
40.10991023385289
 20
10.42979506277573
 30
0.0
 10
40.11064655357204
 20
10.42166078090617
 30
0.0
 10
40.11220810351379
 20
10.40441000376491
 30
0.0
 10
40.12513787133174
 20
10.38062453542
 30
0.0
 10
40.14549173604256
 20
10.36195794700129
 30
0.0
 10
40.16814711213725
 20
10.35216477467888
 30
0.0
 10
40.18307740383379
 20
10.3511801144507
 30
0.0
 10
40.18891014790582
 20
10.35079544205276
 30
0.0
  0
SPLINE
  5
2F5
330
1F
100
AcDbEntity
  8
Object
  6
Continuous
370
    15
100
AcDbSpline
210
0.0
220
0.0
230
1.0
 70
     8
 71
     3
 72
     9
 73
     5
 74
     0
 42
0.0000000001
 43
0.0000000001
 40
0.0
 40
0.0
 40
0.0
 40
0.0
 40
0.3067664715281472
 40
1.0
 40
1.0
 40
1.0
 40
1.0
 10
40.17502097502138
 20
10.40383418934462
 30
0.0
 10
40.17627853527151
 20
10.40298412891738
 30
0.0
 10
40.18037794106333
 20
10.40021309457648
 30
0.0
 10
40.18541694288972
 20
10.39996654151436
 30
0.0
 10
40.18891014790582
 20
10.39979562266516
 30
0.0
  0
LINE
  5
2F6
330
1F
100
AcDbEntity
  8
Object
  6
Continuous
370
    15
100
AcDbLine
 10
40.18891014790582
 20
10.35079544205276
 30
0.0
 11
40.18891014790582
 21
10.39979562266516
 31
0.0
  0
SPLINE
  5
2F7
330
1F
100
AcDbEntity
  8
Object
  6
Continuous
370
    15
100
AcDbSpline
210
0.0
220
0.0
230
1.0
 70
     8
 71
     3
 72
    12
 73
     8
 74
     0
 42
0.0000000001
 43
0.0000000001
 40
0.0
 40
0.0
 40
0.0
 40
0.0
 40
0.1968210265454165
 40
0.4173989909171702
 40
0.637990807950787
 40
0.8585775619891894
 40
1.0
 40
1.0
 40
1.0
 40
1.0
 10
40.18891014790582
 20
38.48079570855592
 30
0.0
 10
40.1807756533801
 20
38.48005925576287
 30
0.0
 10
40.1635248043918
 20
38.47849745793021
 30
0.0
 10
40.13973935642901
 20
38.46556844329636
 30
0.0
 10
40.12107310220558
 20
38.44521383852246
 30
0.0
 10
40.11128003429845
 20
38.42255860292371
 30
0.0
 10
40.11029503390723
 20
38.40762862859527
 30
0.0
 10
40.10991023385289
 20
38.40179608783296
 30
0.0
  0
LINE
  5
2F8
330
1F
100
AcDbEntity
  8
Object
  6
Continuous
370
    15
100
AcDbLine
 10
40.18891014790582
 20
38.48079570855592
 30
0.0
 11
40.18891014790582
 21
38.43179552794353
 31
0.0
  0
SPLINE
  5
2F9
330
1F
100
AcDbEntity
  8
Object
  6
Continuous
370
    15
100
AcDbSpline
210
0.0
220
0.0
230
1.0
 70
     8
 71
     3
 72
     9
 73
     5
 74
     0
 42
0.0000000001
 43
0.0000000001
 40
0.0
 40
0.0
 40
0.0
 40
0.0
 40
0.8482276842595741
 40
1.0
 40
1.0
 40
1.0
 40
1.0
 10
40.18891014790582
 20
38.43179552794353
 30
0.0
 10
40.18439047294053
 20
38.43155455287135
 30
0.0
 10
40.17906209820206
 20
38.43127046043175
 30
0.0
 10
40.17503037871745
 20
38.42811807423878
 30
0.0
 10
40.17441847531485
 20
38.42763962928616
 30
0.0
  0
LINE
  5
2FA
330
1F
100
AcDbEntity
  8
Object
  6
Continuous
370
    15
100
AcDbLine
 10
40.55813334927454
 20
10.35079544205276
 30
0.0
 11
40.55813334927454
 21
10.39979562266516
 31
0.0
  0
LINE
  5
2FB
330
1F
100
AcDbEntity
  8
Object
  6
Continuous
370
    15
100
AcDbLine
 10
40.64652187486943
 20
10.39979562266516
 30
0.0
 11
40.64652187486943
 21
10.35079544205276
 31
0.0
  0
LINE
  5
2FC
330
1F
100
AcDbEntity
  8
Object
  6
Continuous
370
    15
100
AcDbLine
 10
40.55813334927454
 20
10.39979562266516
 30
0.0
 11
40.64652187486943
 21
10.39979562266516
 31
0.0
  0
LINE
  5
2FD
330
1F
100
AcDbEntity
  8
Object
  6
Continuous
370
    15
100
AcDbLine
 10
40.64652187486943
 20
10.35079544205276
 30
0.0
 11
40.55813334927454
 21
10.35079544205276
 31
0.0
  0
LINE
  5
2FE
330
1F
100
AcDbEntity
  8
Object
  6
Continuous
370
    15
100
AcDbLine
 10
40.18891014790582
 20
10.39979562266516
 30
0.0
 11
40.55813334927454
 21
10.39979562266516
 31
0.0
  0
LINE
  5
2FF
330
1F
100
AcDbEntity
  8
Object
  6
Continuous
370
    15
100
AcDbLine
 10
40.18891014790582
 20
10.35079544205276
 30
0.0
 11
40.55813334927454
 21
10.35079544205276
 31
0.0
  0
LINE
  5
300
330
1F
100
AcDbEntity
  8
Object
  6
Continuous
370
    15
100
AcDbLine
 10
40.55813334927454
 20
38.43179552794353
 30
0.0
 11
40.55813334927454
 21
38.48079570855592
 31
0.0
  0
LINE
  5
301
330
1F
100
AcDbEntity
  8
Object
  6
Continuous
370
    15
100
AcDbLine
 10
40.64652187486943
 20
38.48079570855592
 30
0.0
 11
40.64652187486943
 21
38.43179552794353
 31
0.0
  0
LINE
  5
302
330
1F
100
AcDbEntity
  8
Object
  6
Continuous
370
    15
100
AcDbLine
 10
40.64652187486943
 20
38.43179552794353
 30
0.0
 11
40.55813334927454
 21
38.43179552794353
 31
0.0
  0
LINE
  5
303
330
1F
100
AcDbEntity
  8
Object
  6
Continuous
370
    15
100
AcDbLine
 10
40.55813334927454
 20
38.48079570855592
 30
0.0
 11
40.64652187486943
 21
38.48079570855592
 31
0.0
  0
LINE
  5
304
330
1F
100
AcDbEntity
  8
Object
  6
Continuous
370
    15
100
AcDbLine
 10
40.18891014790582
 20
38.43179552794353
 30
0.0
 11
40.55813334927454
 21
38.43179552794353
 31
0.0
  0
LINE
  5
305
330
1F
100
AcDbEntity
  8
Object
  6
Continuous
370
    15
100
AcDbLine
 10
40.18891014790582
 20
38.48079570855592
 30
0.0
 11
40.55813334927454
 21
38.48079570855592
 31
0.0
  0
LINE
  5
306
330
1F
100
AcDbEntity
  8
Object
  6
Continuous
370
    15
100
AcDbLine
 10
40.8232983393993
 20
10.35079544205276
 30
0.0
 11
40.8232983393993
 21
10.39979562266516
 31
0.0
  0
LINE
  5
307
330
1F
100
AcDbEntity
  8
Object
  6
Continuous
370
    15
100
AcDbLine
 10
40.64652187486943
 20
10.39979562266516
 30
0.0
 11
40.8232983393993
 21
10.39979562266516
 31
0.0
  0
LINE
  5
308
330
1F
100
AcDbEntity
  8
Object
  6
Continuous
370
    15
100
AcDbLine
 10
40.8232983393993
 20
10.35079544205276
 30
0.0
 11
40.64652187486943
 21
10.35079544205276
 31
0.0
  0
LINE
  5
309
330
1F
100
AcDbEntity
  8
Object
  6
Continuous
370
    15
100
AcDbLine
 10
40.8232983393993
 20
38.43179552794353
 30
0.0
 11
40.8232983393993
 21
38.48079570855592
 31
0.0
  0
LINE
  5
30A
330
1F
100
AcDbEntity
  8
Object
  6
Continuous
370
    15
100
AcDbLine
 10
40.8232983393993
 20
38.43179552794353
 30
0.0
 11
40.64652187486943
 21
38.43179552794353
 31
0.0
  0
LINE
  5
30B
330
1F
100
AcDbEntity
  8
Object
  6
Continuous
370
    15
100
AcDbLine
 10
40.64652187486943
 20
38.48079570855592
 30
0.0
 11
40.8232983393993
 21
38.48079570855592
 31
0.0
  0
LINE
  5
30C
330
1F
100
AcDbEntity
  8
Object
  6
Continuous
370
    15
100
AcDbLine
 10
40.85991002312467
 20
10.35679579940279
 30
0.0
 11
40.85991002312467
 21
10.35079544205276
 31
0.0
  0
LINE
  5
30D
330
1F
100
AcDbEntity
  8
Object
  6
Continuous
370
    15
100
AcDbLine
 10
40.8232983393993
 20
10.39979562266516
 30
0.0
 11
40.85991002312467
 21
10.39979562266516
 31
0.0
  0
LINE
  5
30E
330
1F
100
AcDbEntity
  8
Object
  6
Continuous
370
    15
100
AcDbLine
 10
40.85991002312467
 20
10.35079544205276
 30
0.0
 11
40.8232983393993
 21
10.35079544205276
 31
0.0
  0
LINE
  5
30F
330
1F
100
AcDbEntity
  8
Object
  6
Continuous
370
    15
100
AcDbLine
 10
40.85991002312467
 20
38.48079570855592
 30
0.0
 11
40.85991002312467
 21
38.4747953512059
 31
0.0
  0
LINE
  5
310
330
1F
100
AcDbEntity
  8
Object
  6
Continuous
370
    15
100
AcDbLine
 10
40.85991002312467
 20
38.43179552794353
 30
0.0
 11
40.8232983393993
 21
38.43179552794353
 31
0.0
  0
LINE
  5
311
330
1F
100
AcDbEntity
  8
Object
  6
Continuous
370
    15
100
AcDbLine
 10
40.8232983393993
 20
38.48079570855592
 30
0.0
 11
40.85991002312467
 21
38.48079570855592
 31
0.0
  0
LINE
  5
312
330
1F
100
AcDbEntity
  8
Object
  6
Continuous
370
    15
100
AcDbLine
 10
40.6149100000525
 20
10.40050313449192
 30
0.0
 11
40.85991002312467
 21
10.40050313449192
 31
0.0
  0
LINE
  5
313
330
1F
100
AcDbEntity
  8
Object
  6
Continuous
370
    15
100
AcDbLine
 10
40.73545922079095
 20
38.43108801611677
 30
0.0
 11
40.85991002312467
 21
38.43108801611677
 31
0.0
  0
LINE
  5
314
330
1F
100
AcDbEntity
  8
Object
  6
Continuous
370
    15
100
AcDbLine
 10
40.80241002070294
 20
37.87579565756814
 30
0.0
 11
40.73991020937275
 21
37.87579565756814
 31
0.0
  0
LINE
  5
315
330
1F
100
AcDbEntity
  8
Object
  6
Continuous
370
    15
100
AcDbLine
 10
40.73991020937275
 20
37.62579523892764
 30
0.0
 11
40.80241002070294
 21
37.62579523892764
 31
0.0
  0
LINE
  5
316
330
1F
100
AcDbEntity
  8
Object
  6
Continuous
370
    15
100
AcDbLine
 10
40.80241002070294
 20
37.37579599360693
 30
0.0
 11
40.73991020937275
 21
37.37579599360693
 31
0.0
  0
LINE
  5
317
330
1F
100
AcDbEntity
  8
Object
  6
Continuous
370
    15
100
AcDbLine
 10
40.73991020937275
 20
37.12579557496643
 30
0.0
 11
40.80241002070294
 21
37.12579557496643
 31
0.0
  0
LINE
  5
318
330
1F
100
AcDbEntity
  8
Object
  6
Continuous
370
    15
100
AcDbLine
 10
40.80241002070294
 20
36.37579549236472
 30
0.0
 11
40.73991020937275
 21
36.37579549236472
 31
0.0
  0
LINE
  5
319
330
1F
100
AcDbEntity
  8
Object
  6
Continuous
370
    15
100
AcDbLine
 10
40.73991020937275
 20
36.12579507372422
 30
0.0
 11
40.80241002070294
 21
36.12579507372422
 31
0.0
  0
LINE
  5
31A
330
1F
100
AcDbEntity
  8
Object
  6
Continuous
370
    15
100
AcDbLine
 10
40.80241002070294
 20
35.8757958284035
 30
0.0
 11
40.73991020937275
 21
35.8757958284035
 31
0.0
  0
LINE
  5
31B
330
1F
100
AcDbEntity
  8
Object
  6
Continuous
370
    15
100
AcDbLine
 10
40.73991020937275
 20
35.62579540976301
 30
0.0
 11
40.80241002070294
 21
35.62579540976301
 31
0.0
  0
LINE
  5
31C
330
1F
100
AcDbEntity
  8
Object
  6
Continuous
370
    15
100
AcDbLine
 10
40.80241002070294
 20
34.87579532716129
 30
0.0
 11
40.73991020937275
 21
34.87579532716129
 31
0.0
  0
LINE
  5
31D
330
1F
100
AcDbEntity
  8
Object
  6
Continuous
370
    15
100
AcDbLine
 10
40.73991020937275
 20
34.62579608184058
 30
0.0
 11
40.80241002070294
 21
34.62579608184058
 31
0.0
  0
LINE
  5
31E
330
1F
100
AcDbEntity
  8
Object
  6
Continuous
370
    15
100
AcDbLine
 10
40.80241002070294
 20
34.37579566320008
 30
0.0
 11
40.73991020937275
 21
34.37579566320008
 31
0.0
  0
LINE
  5
31F
330
1F
100
AcDbEntity
  8
Object
  6
Continuous
370
    15
100
AcDbLine
 10
40.73991020937275
 20
34.12579583121947
 30
0.0
 11
40.80241002070294
 21
34.12579583121947
 31
0.0
  0
LINE
  5
320
330
1F
100
AcDbEntity
  8
Object
  6
Continuous
370
    15
100
AcDbLine
 10
40.80241002070294
 20
33.37579574861776
 30
0.0
 11
40.73991020937275
 21
33.37579574861776
 31
0.0
  0
LINE
  5
321
330
1F
100
AcDbEntity
  8
Object
  6
Continuous
370
    15
100
AcDbLine
 10
40.73991020937275
 20
33.12579532997726
 30
0.0
 11
40.80241002070294
 21
33.12579532997726
 31
0.0
  0
LINE
  5
322
330
1F
100
AcDbEntity
  8
Object
  6
Continuous
370
    15
100
AcDbLine
 10
40.73991020937275
 20
38.12579607620864
 30
0.0
 11
40.80241002070294
 21
38.12579607620864
 31
0.0
  0
LINE
  5
323
330
1F
100
AcDbEntity
  8
Object
  6
Continuous
370
    15
100
AcDbLine
 10
40.80241002070294
 20
38.37579532152936
 30
0.0
 11
40.71866901475284
 21
38.37579532152936
 31
0.0
  0
LINE
  5
324
330
1F
100
AcDbEntity
  8
Object
  6
Continuous
370
    15
100
AcDbLine
 10
40.80241002070294
 20
32.87579549799665
 30
0.0
 11
40.73991020937275
 21
32.87579549799665
 31
0.0
  0
LINE
  5
325
330
1F
100
AcDbEntity
  8
Object
  6
Continuous
370
    15
100
AcDbLine
 10
40.73991020937275
 20
32.62579566601605
 30
0.0
 11
40.80241002070294
 21
32.62579566601605
 31
0.0
  0
LINE
  5
326
330
1F
100
AcDbEntity
  8
Object
  6
Continuous
370
    15
100
AcDbLine
 10
40.73991020937275
 20
32.12579541539494
 30
0.0
 11
40.80241002070294
 21
32.12579541539494
 31
0.0
  0
LINE
  5
327
330
1F
100
AcDbEntity
  8
Object
  6
Continuous
370
    15
100
AcDbLine
 10
40.80241002070294
 20
32.37579583403544
 30
0.0
 11
40.73991020937275
 21
32.37579583403544
 31
0.0
  0
LINE
  5
328
330
1F
100
AcDbEntity
  8
Object
  6
Continuous
370
    15
100
AcDbLine
 10
40.80241002070294
 20
31.37579533279323
 30
0.0
 11
40.73991020937275
 21
31.37579533279323
 31
0.0
  0
LINE
  5
329
330
1F
100
AcDbEntity
  8
Object
  6
Continuous
370
    15
100
AcDbLine
 10
40.73991020937275
 20
31.12579550081262
 30
0.0
 11
40.80241002070294
 21
31.12579550081262
 31
0.0
  0
LINE
  5
32A
330
1F
100
AcDbEntity
  8
Object
  6
Continuous
370
    15
100
AcDbLine
 10
40.80241002070294
 20
30.87579566883202
 30
0.0
 11
40.73991020937275
 21
30.87579566883202
 31
0.0
  0
LINE
  5
32B
330
1F
100
AcDbEntity
  8
Object
  6
Continuous
370
    15
100
AcDbLine
 10
40.73991020937275
 20
30.62579583685141
 30
0.0
 11
40.80241002070294
 21
30.62579583685141
 31
0.0
  0
LINE
  5
32C
330
1F
100
AcDbEntity
  8
Object
  6
Continuous
370
    15
100
AcDbLine
 10
40.73991020937275
 20
36.62579591100521
 30
0.0
 11
40.80241002070294
 21
36.62579591100521
 31
0.0
  0
LINE
  5
32D
330
1F
100
AcDbEntity
  8
Object
  6
Continuous
370
    15
100
AcDbLine
 10
40.80241002070294
 20
36.87579515632594
 30
0.0
 11
40.73991020937275
 21
36.87579515632594
 31
0.0
  0
LINE
  5
32E
330
1F
100
AcDbEntity
  8
Object
  6
Continuous
370
    15
100
AcDbLine
 10
40.80241002070294
 20
35.37579616444229
 30
0.0
 11
40.73991020937275
 21
35.37579616444229
 31
0.0
  0
LINE
  5
32F
330
1F
100
AcDbEntity
  8
Object
  6
Continuous
370
    15
100
AcDbLine
 10
40.73991020937275
 20
35.12579574580179
 30
0.0
 11
40.80241002070294
 21
35.12579574580179
 31
0.0
  0
LINE
  5
330
330
1F
100
AcDbEntity
  8
Object
  6
Continuous
370
    15
100
AcDbLine
 10
40.80241002070294
 20
29.37579550362859
 30
0.0
 11
40.73991020937275
 21
29.37579550362859
 31
0.0
  0
LINE
  5
331
330
1F
100
AcDbEntity
  8
Object
  6
Continuous
370
    15
100
AcDbLine
 10
40.73991020937275
 20
29.12579567164798
 30
0.0
 11
40.80241002070294
 21
29.12579567164798
 31
0.0
  0
LINE
  5
332
330
1F
100
AcDbEntity
  8
Object
  6
Continuous
370
    15
100
AcDbLine
 10
40.73991020937275
 20
29.6257953356092
 30
0.0
 11
40.80241002070294
 21
29.6257953356092
 31
0.0
  0
LINE
  5
333
330
1F
100
AcDbEntity
  8
Object
  6
Continuous
370
    15
100
AcDbLine
 10
40.80241002070294
 20
29.8757957542497
 30
0.0
 11
40.73991020937275
 21
29.8757957542497
 31
0.0
  0
LINE
  5
334
330
1F
100
AcDbEntity
  8
Object
  6
Continuous
370
    15
100
AcDbLine
 10
40.80241002070294
 20
28.37579558904626
 30
0.0
 11
40.73991020937275
 21
28.37579558904626
 31
0.0
  0
LINE
  5
335
330
1F
100
AcDbEntity
  8
Object
  6
Continuous
370
    15
100
AcDbLine
 10
40.73991020937275
 20
28.12579546373572
 30
0.0
 11
40.80241002070294
 21
28.12579546373572
 31
0.0
  0
LINE
  5
336
330
1F
100
AcDbEntity
  8
Object
  6
Continuous
370
    15
100
AcDbLine
 10
40.80241002070294
 20
27.87579563175511
 30
0.0
 11
40.73991020937275
 21
27.87579563175511
 31
0.0
  0
LINE
  5
337
330
1F
100
AcDbEntity
  8
Object
  6
Continuous
370
    15
100
AcDbLine
 10
40.73991020937275
 20
27.62579550644455
 30
0.0
 11
40.80241002070294
 21
27.62579550644455
 31
0.0
  0
LINE
  5
338
330
1F
100
AcDbEntity
  8
Object
  6
Continuous
370
    15
100
AcDbLine
 10
40.80241002070294
 20
33.87579541257898
 30
0.0
 11
40.73991020937275
 21
33.87579541257898
 31
0.0
  0
LINE
  5
339
330
1F
100
AcDbEntity
  8
Object
  6
Continuous
370
    15
100
AcDbLine
 10
40.73991020937275
 20
33.62579558059837
 30
0.0
 11
40.80241002070294
 21
33.62579558059837
 31
0.0
  0
LINE
  5
33A
330
1F
100
AcDbEntity
  8
Object
  6
Continuous
370
    15
100
AcDbLine
 10
40.80241002070294
 20
26.87579557050782
 30
0.0
 11
40.73991020937275
 21
26.87579557050782
 31
0.0
  0
LINE
  5
33B
330
1F
100
AcDbEntity
  8
Object
  6
Continuous
370
    15
100
AcDbLine
 10
40.73991020937275
 20
26.62579559186223
 30
0.0
 11
40.80241002070294
 21
26.62579559186223
 31
0.0
  0
LINE
  5
33C
330
1F
100
AcDbEntity
  8
Object
  6
Continuous
370
    15
100
AcDbLine
 10
40.73991020937275
 20
31.62579575143373
 30
0.0
 11
40.80241002070294
 21
31.62579575143373
 31
0.0
  0
LINE
  5
33D
330
1F
100
AcDbEntity
  8
Object
  6
Continuous
370
    15
100
AcDbLine
 10
40.80241002070294
 20
31.87579558341433
 30
0.0
 11
40.73991020937275
 21
31.87579558341433
 31
0.0
  0
LINE
  5
33E
330
1F
100
AcDbEntity
  8
Object
  6
Continuous
370
    15
100
AcDbLine
 10
40.73991020937275
 20
26.12579563457108
 30
0.0
 11
40.80241002070294
 21
26.12579563457108
 31
0.0
  0
LINE
  5
33F
330
1F
100
AcDbEntity
  8
Object
  6
Continuous
370
    15
100
AcDbLine
 10
40.80241002070294
 20
26.37579561321665
 30
0.0
 11
40.73991020937275
 21
26.37579561321665
 31
0.0
  0
LINE
  5
340
330
1F
100
AcDbEntity
  8
Object
  6
Continuous
370
    15
100
AcDbLine
 10
40.73991020937275
 20
24.62579557936638
 30
0.0
 11
40.80241002070294
 21
24.62579557936638
 31
0.0
  0
LINE
  5
341
330
1F
100
AcDbEntity
  8
Object
  6
Continuous
370
    15
100
AcDbLine
 10
40.80241002070294
 20
24.8757955946782
 30
0.0
 11
40.73991020937275
 21
24.8757955946782
 31
0.0
  0
LINE
  5
342
330
1F
100
AcDbEntity
  8
Object
  6
Continuous
370
    15
100
AcDbLine
 10
40.80241002070294
 20
25.37579555196936
 30
0.0
 11
40.73991020937275
 21
25.37579555196936
 31
0.0
  0
LINE
  5
343
330
1F
100
AcDbEntity
  8
Object
  6
Continuous
370
    15
100
AcDbLine
 10
40.73991020937275
 20
25.12579557332379
 30
0.0
 11
40.80241002070294
 21
25.12579557332379
 31
0.0
  0
LINE
  5
344
330
1F
100
AcDbEntity
  8
Object
  6
Continuous
370
    15
100
AcDbLine
 10
40.80241002070294
 20
23.87579560676339
 30
0.0
 11
40.73991020937275
 21
23.87579560676339
 31
0.0
  0
LINE
  5
345
330
1F
100
AcDbEntity
  8
Object
  6
Continuous
370
    15
100
AcDbLine
 10
40.73991020937275
 20
23.62579555478533
 30
0.0
 11
40.80241002070294
 21
23.62579555478533
 31
0.0
  0
LINE
  5
346
330
1F
100
AcDbEntity
  8
Object
  6
Continuous
370
    15
100
AcDbLine
 10
40.73991020937275
 20
30.1257955862303
 30
0.0
 11
40.80241002070294
 21
30.1257955862303
 31
0.0
  0
LINE
  5
347
330
1F
100
AcDbEntity
  8
Object
  6
Continuous
370
    15
100
AcDbLine
 10
40.80241002070294
 20
30.37579541821091
 30
0.0
 11
40.73991020937275
 21
30.37579541821091
 31
0.0
  0
LINE
  5
348
330
1F
100
AcDbEntity
  8
Object
  6
Continuous
370
    15
100
AcDbLine
 10
40.80241002070294
 20
22.37579551489246
 30
0.0
 11
40.73991020937275
 21
22.37579551489246
 31
0.0
  0
LINE
  5
349
330
1F
100
AcDbEntity
  8
Object
  6
Continuous
370
    15
100
AcDbLine
 10
40.73991020937275
 20
22.12579553624688
 30
0.0
 11
40.80241002070294
 21
22.12579553624688
 31
0.0
  0
LINE
  5
34A
330
1F
100
AcDbEntity
  8
Object
  6
Continuous
370
    15
100
AcDbLine
 10
40.73991020937275
 20
28.62579571435682
 30
0.0
 11
40.80241002070294
 21
28.62579571435682
 31
0.0
  0
LINE
  5
34B
330
1F
100
AcDbEntity
  8
Object
  6
Continuous
370
    15
100
AcDbLine
 10
40.80241002070294
 20
28.87579554633743
 30
0.0
 11
40.73991020937275
 21
28.87579554633743
 31
0.0
  0
LINE
  5
34C
330
1F
100
AcDbEntity
  8
Object
  6
Continuous
370
    15
100
AcDbLine
 10
40.73991020937275
 20
23.12579559749417
 30
0.0
 11
40.80241002070294
 21
23.12579559749417
 31
0.0
  0
LINE
  5
34D
330
1F
100
AcDbEntity
  8
Object
  6
Continuous
370
    15
100
AcDbLine
 10
40.80241002070294
 20
23.37579557613975
 30
0.0
 11
40.73991020937275
 21
23.37579557613975
 31
0.0
  0
LINE
  5
34E
330
1F
100
AcDbEntity
  8
Object
  6
Continuous
370
    15
100
AcDbLine
 10
40.80241002070294
 20
27.37579567446394
 30
0.0
 11
40.73991020937275
 21
27.37579567446394
 31
0.0
  0
LINE
  5
34F
330
1F
100
AcDbEntity
  8
Object
  6
Continuous
370
    15
100
AcDbLine
 10
40.73991020937275
 20
27.1257955491534
 30
0.0
 11
40.80241002070294
 21
27.1257955491534
 31
0.0
  0
LINE
  5
350
330
1F
100
AcDbEntity
  8
Object
  6
Continuous
370
    15
100
AcDbLine
 10
40.73991020937275
 20
21.62579572562069
 30
0.0
 11
40.80241002070294
 21
21.62579572562069
 31
0.0
  0
LINE
  5
351
330
1F
100
AcDbEntity
  8
Object
  6
Continuous
370
    15
100
AcDbLine
 10
40.80241002070294
 20
21.87579555760129
 30
0.0
 11
40.73991020937275
 21
21.87579555760129
 31
0.0
  0
LINE
  5
352
330
1F
100
AcDbEntity
  8
Object
  6
Continuous
370
    15
100
AcDbLine
 10
40.80241002070294
 20
25.87579550926052
 30
0.0
 11
40.73991020937275
 21
25.87579550926052
 31
0.0
  0
LINE
  5
353
330
1F
100
AcDbEntity
  8
Object
  6
Continuous
370
    15
100
AcDbLine
 10
40.73991020937275
 20
25.62579560394742
 30
0.0
 11
40.80241002070294
 21
25.62579560394742
 31
0.0
  0
LINE
  5
354
330
1F
100
AcDbEntity
  8
Object
  6
Continuous
370
    15
100
AcDbLine
 10
40.73991020937275
 20
19.6257956031261
 30
0.0
 11
40.80241002070294
 21
19.6257956031261
 31
0.0
  0
LINE
  5
355
330
1F
100
AcDbEntity
  8
Object
  6
Continuous
370
    15
100
AcDbLine
 10
40.80241002070294
 20
19.87579543510671
 30
0.0
 11
40.73991020937275
 21
19.87579543510671
 31
0.0
  0
LINE
  5
356
330
1F
100
AcDbEntity
  8
Object
  6
Continuous
370
    15
100
AcDbLine
 10
40.73991020937275
 20
20.12579556041726
 30
0.0
 11
40.80241002070294
 21
20.12579556041726
 31
0.0
  0
LINE
  5
357
330
1F
100
AcDbEntity
  8
Object
  6
Continuous
370
    15
100
AcDbLine
 10
40.80241002070294
 20
20.37579568572781
 30
0.0
 11
40.73991020937275
 21
20.37579568572781
 31
0.0
  0
LINE
  5
358
330
1F
100
AcDbEntity
  8
Object
  6
Continuous
370
    15
100
AcDbLine
 10
40.80241002070294
 20
18.87579552052439
 30
0.0
 11
40.73991020937275
 21
18.87579552052439
 31
0.0
  0
LINE
  5
359
330
1F
100
AcDbEntity
  8
Object
  6
Continuous
370
    15
100
AcDbLine
 10
40.73991020937275
 20
18.62579568854378
 30
0.0
 11
40.80241002070294
 21
18.62579568854378
 31
0.0
  0
LINE
  5
35A
330
1F
100
AcDbEntity
  8
Object
  6
Continuous
370
    15
100
AcDbLine
 10
40.80241002070294
 20
24.37579558238768
 30
0.0
 11
40.73991020937275
 21
24.37579558238768
 31
0.0
  0
LINE
  5
35B
330
1F
100
AcDbEntity
  8
Object
  6
Continuous
370
    15
100
AcDbLine
 10
40.73991020937275
 20
24.12579558540898
 30
0.0
 11
40.80241002070294
 21
24.12579558540898
 31
0.0
  0
LINE
  5
35C
330
1F
100
AcDbEntity
  8
Object
  6
Continuous
370
    15
100
AcDbLine
 10
40.73991020937275
 20
18.12579543792267
 30
0.0
 11
40.80241002070294
 21
18.12579543792267
 31
0.0
  0
LINE
  5
35D
330
1F
100
AcDbEntity
  8
Object
  6
Continuous
370
    15
100
AcDbLine
 10
40.80241002070294
 20
18.37579585656317
 30
0.0
 11
40.73991020937275
 21
18.37579585656317
 31
0.0
  0
LINE
  5
35E
330
1F
100
AcDbEntity
  8
Object
  6
Continuous
370
    15
100
AcDbLine
 10
40.73991020937275
 20
22.62579564020301
 30
0.0
 11
40.80241002070294
 21
22.62579564020301
 31
0.0
  0
LINE
  5
35F
330
1F
100
AcDbEntity
  8
Object
  6
Continuous
370
    15
100
AcDbLine
 10
40.80241002070294
 20
22.87579561884859
 30
0.0
 11
40.73991020937275
 21
22.87579561884859
 31
0.0
  0
LINE
  5
360
330
1F
100
AcDbEntity
  8
Object
  6
Continuous
370
    15
100
AcDbLine
 10
40.80241002070294
 20
17.37579535532096
 30
0.0
 11
40.73991020937275
 21
17.37579535532096
 31
0.0
  0
LINE
  5
361
330
1F
100
AcDbEntity
  8
Object
  6
Continuous
370
    15
100
AcDbLine
 10
40.73991020937275
 20
17.12579552334036
 30
0.0
 11
40.80241002070294
 21
17.12579552334036
 31
0.0
  0
LINE
  5
362
330
1F
100
AcDbEntity
  8
Object
  6
Continuous
370
    15
100
AcDbLine
 10
40.73991020937275
 20
16.62579585937914
 30
0.0
 11
40.80241002070294
 21
16.62579585937914
 31
0.0
  0
LINE
  5
363
330
1F
100
AcDbEntity
  8
Object
  6
Continuous
370
    15
100
AcDbLine
 10
40.80241002070294
 20
16.87579569135975
 30
0.0
 11
40.73991020937275
 21
16.87579569135975
 31
0.0
  0
LINE
  5
364
330
1F
100
AcDbEntity
  8
Object
  6
Continuous
370
    15
100
AcDbLine
 10
40.80241002070294
 20
21.37579560031014
 30
0.0
 11
40.73991020937275
 21
21.37579560031014
 31
0.0
  0
LINE
  5
365
330
1F
100
AcDbEntity
  8
Object
  6
Continuous
370
    15
100
AcDbLine
 10
40.73991020937275
 20
21.12579547499958
 30
0.0
 11
40.80241002070294
 21
21.12579547499958
 31
0.0
  0
LINE
  5
366
330
1F
100
AcDbEntity
  8
Object
  6
Continuous
370
    15
100
AcDbLine
 10
40.80241002070294
 20
20.87579564301897
 30
0.0
 11
40.73991020937275
 21
20.87579564301897
 31
0.0
  0
LINE
  5
367
330
1F
100
AcDbEntity
  8
Object
  6
Continuous
370
    15
100
AcDbLine
 10
40.73991020937275
 20
20.62579551770843
 30
0.0
 11
40.80241002070294
 21
20.62579551770843
 31
0.0
  0
LINE
  5
368
330
1F
100
AcDbEntity
  8
Object
  6
Continuous
370
    15
100
AcDbLine
 10
40.73991020937275
 20
15.62579535813693
 30
0.0
 11
40.80241002070294
 21
15.62579535813693
 31
0.0
  0
LINE
  5
369
330
1F
100
AcDbEntity
  8
Object
  6
Continuous
370
    15
100
AcDbLine
 10
40.80241002070294
 20
15.87579577677743
 30
0.0
 11
40.73991020937275
 21
15.87579577677743
 31
0.0
  0
LINE
  5
36A
330
1F
100
AcDbEntity
  8
Object
  6
Continuous
370
    15
100
AcDbLine
 10
40.73991020937275
 20
15.12579569417571
 30
0.0
 11
40.80241002070294
 21
15.12579569417571
 31
0.0
  0
LINE
  5
36B
330
1F
100
AcDbEntity
  8
Object
  6
Continuous
370
    15
100
AcDbLine
 10
40.80241002070294
 20
15.37579552615632
 30
0.0
 11
40.73991020937275
 21
15.37579552615632
 31
0.0
  0
LINE
  5
36C
330
1F
100
AcDbEntity
  8
Object
  6
Continuous
370
    15
100
AcDbLine
 10
40.80241002070294
 20
14.37579502491411
 30
0.0
 11
40.73991020937275
 21
14.37579502491411
 31
0.0
  0
LINE
  5
36D
330
1F
100
AcDbEntity
  8
Object
  6
Continuous
370
    15
100
AcDbLine
 10
40.73991020937275
 20
14.12579577959339
 30
0.0
 11
40.80241002070294
 21
14.12579577959339
 31
0.0
  0
LINE
  5
36E
330
1F
100
AcDbEntity
  8
Object
  6
Continuous
370
    15
100
AcDbLine
 10
40.73991020937275
 20
19.12579535250499
 30
0.0
 11
40.80241002070294
 21
19.12579535250499
 31
0.0
  0
LINE
  5
36F
330
1F
100
AcDbEntity
  8
Object
  6
Continuous
370
    15
100
AcDbLine
 10
40.80241002070294
 20
19.37579577114549
 30
0.0
 11
40.73991020937275
 21
19.37579577114549
 31
0.0
  0
LINE
  5
370
330
1F
100
AcDbEntity
  8
Object
  6
Continuous
370
    15
100
AcDbLine
 10
40.73991020937275
 20
13.62579611563218
 30
0.0
 11
40.80241002070294
 21
13.62579611563218
 31
0.0
  0
LINE
  5
371
330
1F
100
AcDbEntity
  8
Object
  6
Continuous
370
    15
100
AcDbLine
 10
40.80241002070294
 20
13.8757953609529
 30
0.0
 11
40.73991020937275
 21
13.8757953609529
 31
0.0
  0
LINE
  5
372
330
1F
100
AcDbEntity
  8
Object
  6
Continuous
370
    15
100
AcDbLine
 10
40.80241002070294
 20
17.87579560594207
 30
0.0
 11
40.73991020937275
 21
17.87579560594207
 31
0.0
  0
LINE
  5
373
330
1F
100
AcDbEntity
  8
Object
  6
Continuous
370
    15
100
AcDbLine
 10
40.73991020937275
 20
17.62579577396145
 30
0.0
 11
40.80241002070294
 21
17.62579577396145
 31
0.0
  0
LINE
  5
374
330
1F
100
AcDbEntity
  8
Object
  6
Continuous
370
    15
100
AcDbLine
 10
40.80241002070294
 20
12.87579603303047
 30
0.0
 11
40.73991020937275
 21
12.87579603303047
 31
0.0
  0
LINE
  5
375
330
1F
100
AcDbEntity
  8
Object
  6
Continuous
370
    15
100
AcDbLine
 10
40.73991020937275
 20
12.62579561438997
 30
0.0
 11
40.80241002070294
 21
12.62579561438997
 31
0.0
  0
LINE
  5
376
330
1F
100
AcDbEntity
  8
Object
  6
Continuous
370
    15
100
AcDbLine
 10
40.80241002070294
 20
11.37579586782704
 30
0.0
 11
40.73991020937275
 21
11.37579586782704
 31
0.0
  0
LINE
  5
377
330
1F
100
AcDbEntity
  8
Object
  6
Continuous
370
    15
100
AcDbLine
 10
40.73991020937275
 20
11.12579544918655
 30
0.0
 11
40.80241002070294
 21
11.12579544918655
 31
0.0
  0
LINE
  5
378
330
1F
100
AcDbEntity
  8
Object
  6
Continuous
370
    15
100
AcDbLine
 10
40.73991020937275
 20
12.12579595042875
 30
0.0
 11
40.80241002070294
 21
12.12579595042875
 31
0.0
  0
LINE
  5
379
330
1F
100
AcDbEntity
  8
Object
  6
Continuous
370
    15
100
AcDbLine
 10
40.80241002070294
 20
12.37579519574947
 30
0.0
 11
40.73991020937275
 21
12.37579519574947
 31
0.0
  0
LINE
  5
37A
330
1F
100
AcDbEntity
  8
Object
  6
Continuous
370
    15
100
AcDbLine
 10
40.80241002070294
 20
16.37579544073864
 30
0.0
 11
40.73991020937275
 21
16.37579544073864
 31
0.0
  0
LINE
  5
37B
330
1F
100
AcDbEntity
  8
Object
  6
Continuous
370
    15
100
AcDbLine
 10
40.73991020937275
 20
16.12579560875804
 30
0.0
 11
40.80241002070294
 21
16.12579560875804
 31
0.0
  0
LINE
  5
37C
330
1F
100
AcDbEntity
  8
Object
  6
Continuous
370
    15
100
AcDbLine
 10
40.80241002070294
 20
14.8757958621951
 30
0.0
 11
40.73991020937275
 21
14.8757958621951
 31
0.0
  0
LINE
  5
37D
330
1F
100
AcDbEntity
  8
Object
  6
Continuous
370
    15
100
AcDbLine
 10
40.73991020937275
 20
14.62579544355461
 30
0.0
 11
40.80241002070294
 21
14.62579544355461
 31
0.0
  0
LINE
  5
37E
330
1F
100
AcDbEntity
  8
Object
  6
Continuous
370
    15
100
AcDbLine
 10
40.80241002070294
 20
13.37579569699169
 30
0.0
 11
40.73991020937275
 21
13.37579569699169
 31
0.0
  0
LINE
  5
37F
330
1F
100
AcDbEntity
  8
Object
  6
Continuous
370
    15
100
AcDbLine
 10
40.73991020937275
 20
13.12579527835118
 30
0.0
 11
40.80241002070294
 21
13.12579527835118
 31
0.0
  0
LINE
  5
380
330
1F
100
AcDbEntity
  8
Object
  6
Continuous
370
    15
100
AcDbLine
 10
40.73991020937275
 20
11.62579511314776
 30
0.0
 11
40.80241002070294
 21
11.62579511314776
 31
0.0
  0
LINE
  5
381
330
1F
100
AcDbEntity
  8
Object
  6
Continuous
370
    15
100
AcDbLine
 10
40.80241002070294
 20
11.87579553178825
 30
0.0
 11
40.73991020937275
 21
11.87579553178825
 31
0.0
  0
LINE
  5
382
330
1F
100
AcDbEntity
  8
Object
  6
Continuous
370
    15
100
AcDbLine
 10
40.73991020937275
 20
10.87579503054605
 30
0.0
 11
40.80241002070294
 21
10.87579503054605
 31
0.0
  0
LINE
  5
383
330
1F
100
AcDbEntity
  8
Object
  6
Continuous
370
    15
100
AcDbLine
 10
40.80241002070294
 20
38.31172502167493
 30
0.0
 11
40.85991002312467
 21
38.31172502167493
 31
0.0
  0
LINE
  5
384
330
1F
100
AcDbEntity
  8
Object
  6
Continuous
370
    15
100
AcDbLine
 10
40.85991002312467
 20
10.74986613862069
 30
0.0
 11
40.73991020937275
 21
10.74986613862069
 31
0.0
  0
LINE
  5
385
330
1F
100
AcDbEntity
  8
Object
  6
Continuous
370
    15
100
AcDbLine
 10
40.73991020937275
 20
10.68579583876626
 30
0.0
 11
40.85991002312467
 21
10.68579583876626
 31
0.0
  0
LINE
  5
386
330
1F
100
AcDbEntity
  8
Object
  6
Continuous
370
    15
100
AcDbLine
 10
40.73991020937275
 20
10.71079576329833
 30
0.0
 11
40.85991002312467
 21
10.71079576329833
 31
0.0
  0
LINE
  5
387
330
1F
100
AcDbEntity
  8
Object
  6
Continuous
370
    15
100
AcDbLine
 10
40.85991002312467
 20
38.37579532152936
 30
0.0
 11
40.80241002070294
 21
38.37579532152936
 31
0.0
  0
LINE
  5
388
330
1F
100
AcDbEntity
  8
Object
  6
Continuous
370
    15
100
AcDbLine
 10
40.85991002312467
 20
38.35079539699729
 30
0.0
 11
40.80241002070294
 21
38.35079539699729
 31
0.0
  0
LINE
  5
389
330
1F
100
AcDbEntity
  8
Object
  6
Continuous
370
    15
100
AcDbLine
 10
40.07647326011967
 20
28.7307955147235
 30
0.0
 11
40.07647326011967
 21
29.18559802080614
 31
0.0
  0
LINE
  5
38A
330
1F
100
AcDbEntity
  8
Object
  6
Continuous
370
    15
100
AcDbLine
 10
40.07647326011967
 20
28.27599300864086
 30
0.0
 11
40.07647326011967
 21
28.7307955147235
 31
0.0
  0
LINE
  5
38B
330
1F
100
AcDbEntity
  8
Object
  6
Continuous
370
    15
100
AcDbLine
 10
40.270016757622
 20
38.43108801611677
 30
0.0
 11
40.270016757622
 21
38.43179552794353
 31
0.0
  0
LINE
  5
38C
330
1F
100
AcDbEntity
  8
DIMENSIONS
  6
CENTER
 48
2.0
370
     0
100
AcDbLine
 10
44.35142979913478
 20
30.49579558014783
 30
0.0
 11
44.69139042905604
 21
30.49579558014783
 31
0.0
  0
LINE
  5
38D
330
1F
100
AcDbEntity
  8
DIMENSIONS
  6
CENTER
 48
2.0
370
     0
100
AcDbLine
 10
44.35142979913478
 20
18.54079558014783
 30
0.0
 11
44.69139042905604
 21
18.54079558014783
 31
0.0
  0
DIMENSION
  5
3CC
330
1F
100
AcDbEntity
  8
DIMENSIONS
100
AcDbDimension
  2
*D5
 10
24.6100497381345
 20
42.5881073059791
 30
0.0
 11
17.62824640922295
 21
42.5881073059791
 31
0.0
 70
   160
 71
     5
 42
14.15999999067384
  3
Standard
100
AcDbAlignedDimension
 13
10.45004974746065
 23
38.4747953512057
 33
0.0
 14
24.6100497381345
 24
38.47479558014777
 34
0.0
100
AcDbRotatedDimension
  0
DIMENSION
  5
408
330
1F
100
AcDbEntity
  8
DIMENSIONS
100
AcDbDimension
  2
*D6
 10
32.1528052290612
 20
10.32079558014776
 30
0.0
 11
32.1528052290612
 21
24.68002106545501
 31
0.0
 70
   160
 71
     5
 42
28.19000000000001
  3
Standard
100
AcDbAlignedDimension
 13
24.57404973813449
 23
38.51079558014777
 33
0.0
 14
24.57404973813449
 24
10.32079558014776
 34
0.0
 50
90.0
100
AcDbRotatedDimension
  0
DIMENSION
  5
42B
330
1F
100
AcDbEntity
  8
DIMENSIONS
100
AcDbDimension
  2
*D7
 10
28.56660664925577
 20
10.32079558014776
 30
0.0
 11
28.56660664925576
 21
20.76366090799095
 31
0.0
 70
   160
 71
     5
 42
20.90999972103154
  3
Standard
100
AcDbAlignedDimension
 13
22.24904965774017
 23
31.2307953011793
 33
0.0
 14
24.57404973813449
 24
10.32079558014776
 34
0.0
 50
90.0
100
AcDbRotatedDimension
  0
LINE
  5
44E
330
1F
100
AcDbEntity
  8
DIMENSIONS
100
AcDbLine
 10
22.43604973813417
 20
30.49579558014783
 30
0.0
 11
22.61604973813417
 21
30.49579558014783
 31
0.0
  0
LINE
  5
44F
330
1F
100
AcDbEntity
  8
DIMENSIONS
100
AcDbLine
 10
22.52604973813417
 20
30.40579558014783
 30
0.0
 11
22.52604973813417
 21
30.58579558014783
 31
0.0
  0
LINE
  5
450
330
1F
100
AcDbEntity
  8
DIMENSIONS
100
AcDbLine
 10
12.37604973813416
 20
30.49579558014783
 30
0.0
 11
12.55604973813416
 21
30.49579558014783
 31
0.0
  0
LINE
  5
451
330
1F
100
AcDbEntity
  8
DIMENSIONS
100
AcDbLine
 10
12.46604973813417
 20
30.40579558014783
 30
0.0
 11
12.46604973813417
 21
30.58579558014783
 31
0.0
  0
LINE
  5
458
330
1F
100
AcDbEntity
  8
DIMENSIONS
100
AcDbLine
 10
22.43604973813417
 20
18.54079558014783
 30
0.0
 11
22.61604973813417
 21
18.54079558014783
 31
0.0
  0
LINE
  5
459
330
1F
100
AcDbEntity
  8
DIMENSIONS
100
AcDbLine
 10
22.52604973813417
 20
18.45079558014783
 30
0.0
 11
22.52604973813417
 21
18.63079558014783
 31
0.0
  0
LINE
  5
45A
330
1F
100
AcDbEntity
  8
DIMENSIONS
100
AcDbLine
 10
12.37604973813416
 20
18.54079558014783
 30
0.0
 11
12.55604973813416
 21
18.54079558014783
 31
0.0
  0
LINE
  5
45B
330
1F
100
AcDbEntity
  8
DIMENSIONS
100
AcDbLine
 10
12.46604973813417
 20
18.45079558014783
 30
0.0
 11
12.46604973813417
 21
18.63079558014783
 31
0.0
  0
DIMENSION
  5
45C
330
1F
100
AcDbEntity
  8
DIMENSIONS
100
AcDbDimension
  2
*D8
 10
22.37404986706042
 20
40.28085665384399
 30
0.0
 11
17.53004975869636
 21
40.28085665384399
 31
0.0
 70
    32
 71
     5
 42
9.68800021672812
  3
Standard
100
AcDbAlignedDimension
 13
12.6860496503323
 23
36.35579508341115
 33
0.0
 14
22.37404986706042
 24
36.35579508341115
 34
0.0
100
AcDbRotatedDimension
  0
DIMENSION
  5
46B
330
1F
100
AcDbEntity
  8
DIMENSIONS
100
AcDbDimension
  2
*D9
 10
7.049705652807786
 20
31.23079530117931
 30
0.0
 11
7.049705652807781
 21
33.8557955902853
 31
0.0
 70
    32
 71
     5
 42
5.250000578211984
  3
Standard
100
AcDbAlignedDimension
 13
12.81104985965255
 23
36.48079587939129
 33
0.0
 14
12.81104985965255
 24
31.2307953011793
 34
0.0
 50
90.0
100
AcDbRotatedDimension
  0
DIMENSION
  5
47A
330
1F
100
AcDbEntity
  8
DIMENSIONS
100
AcDbDimension
  2
*D10
 10
22.52604973813417
 20
7.317777790890794
 30
0.0
 11
17.49604973813417
 21
7.317777790890794
 31
0.0
 70
    32
 71
     5
 42
10.06
  3
Standard
100
AcDbAlignedDimension
 13
12.46604973813417
 23
18.45079558014783
 33
0.0
 14
22.52604973813417
 24
18.45079558014783
 34
0.0
100
AcDbRotatedDimension
  0
DIMENSION
  5
4C8
330
1F
100
AcDbEntity
  8
DIMENSIONS
100
AcDbDimension
  2
*D11
 10
44.62191011501191
 20
40.83376399365614
 30
0.0
 11
42.3659101744324
 21
40.83376399365614
 31
0.0
 70
    32
 71
     5
 42
4.511999881159027
  3
Standard
100
AcDbAlignedDimension
 13
40.10991023385289
 23
38.40179608783296
 33
0.0
 14
44.62191011501191
 24
38.47126013871164
 34
0.0
100
AcDbRotatedDimension
  0
DIMENSION
  5
4D7
330
1F
100
AcDbEntity
  8
DIMENSIONS
100
AcDbDimension
  2
*D12
 10
49.87899896579446
 20
18.54079558014783
 30
0.0
 11
49.87899896579445
 21
24.51829558014784
 31
0.0
 70
    32
 71
     5
 42
11.955
  3
Standard
100
AcDbAlignedDimension
 13
44.69139042905604
 23
30.49579558014783
 33
0.0
 14
44.69139042905604
 24
18.54079558014783
 34
0.0
 50
90.0
100
AcDbRotatedDimension
  0
DIMENSION
  5
4E6
330
1F
100
AcDbEntity
  8
DIMENSIONS
100
AcDbDimension
  2
*D13
 10
49.87899896579446
 20
18.54079558014783
 30
0.0
 11
49.87899896579445
 21
14.43079579104501
 31
0.0
 70
    32
 71
     5
 42
8.219999578205644
  3
Standard
100
AcDbAlignedDimension
 13
44.58591011588697
 23
10.32079600194218
 33
0.0
 14
44.69139042905604
 24
18.54079558014783
 34
0.0
 50
90.0
100
AcDbRotatedDimension
  0
LINE
  5
500
330
1F
100
AcDbEntity
  8
DIMENSIONS
100
AcDbLine
 10
44.62191011501191
 20
38.47126013871164
 30
0.0
 11
44.62191011501191
 21
47.85871867868943
 31
0.0
  0
LINE
  5
501
330
1F
100
AcDbEntity
  8
DIMENSIONS
100
AcDbLine
 10
44.62191011501191
 20
47.26902818565179
 30
0.0
 11
45.00879253202137
 21
47.85556837763238
 31
0.0
  0
LINE
  5
502
330
1F
100
AcDbEntity
  8
DIMENSIONS
100
AcDbLine
 10
44.62191011501191
 20
46.92119990235318
 30
0.0
 11
45.00879253202137
 21
47.50774009433377
 31
0.0
  0
LINE
  5
503
330
1F
100
AcDbEntity
  8
DIMENSIONS
100
AcDbLine
 10
44.62191011501191
 20
46.5702934908405
 30
0.0
 11
45.00879253202137
 21
47.15683368282109
 31
0.0
  0
LEADER
  5
504
330
1F
100
AcDbEntity
  8
DIMENSIONS
100
AcDbLeader
  3
Standard
 76
     2
 10
44.62191011501191
 20
44.98363382693731
 30
0.0
 10
42.65428455519002
 20
44.98363382693731
 30
0.0
1001
ACAD
1000
DSTYLE
1002
{
1070
   147
1040
0.09
1070
    77
1070
     0
1002
}
  0
MTEXT
  5
505
330
1F
100
AcDbEntity
  8
DIMENSIONS
100
AcDbMText
 10
37.17736606756785
 20
45.20052685982212
 30
0.0
 40
0.36
 41
9.023788851645377
 71
     1
 72
     5
  1
Finish Face of Wall
 73
     1
 44
1.0
  0
LEADER
  5
507
330
1F
100
AcDbEntity
  8
DIMENSIONS
100
AcDbLeader
  3
Standard
 76
     3
 10
12.00698226334197
 20
28.59123354277077
 30
0.0
 10
8.924415849485725
 20
26.63000773371204
 30
0.0
 10
8.336679628194218
 20
26.63000773371204
 30
0.0
1001
ACAD
1000
DSTYLE
1002
{
1070
   147
1040
0.09
1070
    77
1070
     0
1002
}
  0
MTEXT
  5
508
330
1F
100
AcDbEntity
  8
DIMENSIONS
100
AcDbMText
 10
4.347963532426803
 20
26.93921223944173
 30
0.0
 40
0.36
 41
9.023788851645377
 71
     1
 72
     5
  1
Lock and Key
 73
     1
 44
1.0
  0
LINE
  5
58F
330
1F
100
AcDbEntity
  8
DIMENSIONS
100
AcDbLine
 10
44.76591011588697
 20
38.51079514866651
 30
0.0
 11
55.55676517794847
 21
38.5107951486665
 31
0.0
  0
LINE
  5
591
330
1F
100
AcDbEntity
  8
DIMENSIONS
100
AcDbLine
 10
55.37676517794848
 20
38.1507951486665
 30
0.0
 11
55.37676517794848
 21
21.03143829745779
 31
0.0
  0
LINE
  5
592
330
1F
100
AcDbEntity
  8
DIMENSIONS
100
AcDbLine
 10
55.37676517794847
 20
6.942416669281573
 30
0.0
 11
55.37676517794848
 21
21.03143829745779
 31
0.0
  0
SOLID
  5
593
330
1F
100
AcDbEntity
  8
DIMENSIONS
100
AcDbTrace
 10
55.31676517794847
 20
38.1507951486665
 30
0.0
 11
55.43676517794848
 21
38.1507951486665
 31
0.0
 12
55.37676517794848
 22
38.5107951486665
 32
0.0
 13
55.37676517794848
 23
38.5107951486665
 33
0.0
  0
SOLID
  5
594
330
1F
100
AcDbEntity
  8
DIMENSIONS
100
AcDbTrace
 10
55.31676517794847
 20
7.302416669281574
 30
0.0
 11
55.43676517794847
 21
7.302416669281574
 31
0.0
 12
55.37676517794847
 22
6.942416669281573
 32
0.0
 13
55.37676517794847
 23
6.942416669281573
 33
0.0
  0
MTEXT
  5
595
330
1F
100
AcDbEntity
  8
DIMENSIONS
100
AcDbMText
 10
55.88044211654977
 20
22.98622215923044
 30
0.0
 40
0.36
 41
0.0
 71
     5
 72
     1
  1
52" [1320mm]
 11
0.0000000000000001
 21
1.0
 31
0.0
 73
     1
 44
1.0
  0
MTEXT
  5
5F8
330
1F
100
AcDbEntity
  8
DIMENSIONS
100
AcDbMText
 10
54.74761239837473
 20
18.05458801194338
 30
0.0
 40
0.36
 41
12.4304
 71
     1
 72
     5
  1
Recommended Mounting Height Off Floor
 11
0.0000000000000001
 21
1.0
 31
0.0
 73
     1
 44
1.0
  0
MTEXT
  5
5FB
330
1F
100
AcDbEntity
  8
DIMENSIONS
100
AcDbMText
 10
34.15879303107289
 20
2.850009890599153
 30
0.0
 40
0.5
 41
25.34800982665678
 71
     2
 72
     5
  1
{\fArial|b1|i0|c0|p34;B-35639 SURMTD\PWASTE RECEPTACLE}
 73
     1
 44
1.0
  0
CIRCLE
  5
605
330
1F
100
AcDbEntity
  8
Object
100
AcDbCircle
 10
21.11938681945344
 20
32.48628837132925
 30
0.0
 40
0.75
  0
DIMENSION
  5
617
330
1F
100
AcDbEntity
  8
DIMENSIONS
100
AcDbDimension
  2
*D14
 10
24.61004947660213
 20
7.317622700323568
 30
0.0
 11
26.76745828617487
 21
7.317622700323568
 31
0.0
 70
   160
 71
     5
 42
2.083999738467959
  3
Standard
100
AcDbAlignedDimension
 13
22.52604973813417
 23
18.45079558014783
 33
0.0
 14
24.61004947660213
 24
10.35679579940279
 34
0.0
100
AcDbRotatedDimension
  0
MTEXT
  5
649
330
1F
100
AcDbEntity
  8
DIMENSIONS
100
AcDbMText
 10
27.33918483756651
 20
35.94079161812867
 30
0.0
 40
0.36
 41
9.023788851645377
 71
     1
 72
     5
  1
Disposal Door
 73
     1
 44
1.0
  0
LEADER
  5
64A
330
1F
100
AcDbEntity
  8
DIMENSIONS
100
AcDbLeader
  3
Standard
 76
     3
 10
21.58601853416727
 20
34.01793855274237
 30
0.0
 10
26.36283985868937
 20
35.81749669560784
 30
0.0
 10
27.07451080162841
 20
35.81749669560784
 30
0.0
1001
ACAD
1000
DSTYLE
1002
{
1070
   147
1040
0.09
1070
    77
1070
     0
1002
}
  0
LINE
  5
667
330
1F
100
AcDbEntity
  8
DIMENSIONS
100
AcDbLine
 10
44.76591011588697
 20
38.51079514866651
 30
0.0
 11
60.61031716578463
 21
38.5107951486665
 31
0.0
  0
LINE
  5
669
330
1F
100
AcDbEntity
  8
DIMENSIONS
100
AcDbLine
 10
60.43031716578464
 20
38.1507951486665
 30
0.0
 11
60.43031716578464
 21
23.28755828992641
 31
0.0
  0
LINE
  5
66A
330
1F
100
AcDbEntity
  8
DIMENSIONS
100
AcDbLine
 10
60.43031716578463
 20
7.302416669281573
 30
0.0
 11
60.43031716578464
 21
23.28755828992641
 31
0.0
  0
SOLID
  5
66B
330
1F
100
AcDbEntity
  8
DIMENSIONS
100
AcDbTrace
 10
60.37031716578463
 20
38.1507951486665
 30
0.0
 11
60.49031716578464
 21
38.1507951486665
 31
0.0
 12
60.43031716578464
 22
38.5107951486665
 32
0.0
 13
60.43031716578464
 23
38.5107951486665
 33
0.0
  0
SOLID
  5
66C
330
1F
100
AcDbEntity
  8
DIMENSIONS
100
AcDbTrace
 10
60.37031716578463
 20
7.302416669281573
 30
0.0
 11
60.49031716578463
 21
7.302416669281573
 31
0.0
 12
60.43031716578463
 22
6.942416669281572
 32
0.0
 13
60.43031716578463
 23
6.942416669281572
 33
0.0
  0
MTEXT
  5
66F
330
1F
100
AcDbEntity
  8
DIMENSIONS
100
AcDbMText
 10
59.26471304774987
 20
23.78932075071215
 30
0.0
 40
0.36
 41
12.6944
 71
     2
 72
     5
  1
\pt9;Recommended Mounting Height Off Floor\P\ptz;for Accessible Design
 11
0.0000000000000001
 21
1.0
 31
0.0
 73
     1
 44
1.0
  0
MTEXT
  5
670
330
1F
100
AcDbEntity
  8
DIMENSIONS
100
AcDbMText
 10
61.09352647984013
 20
23.88569247295436
 30
0.0
 40
0.36
 41
0.0
 71
     5
 72
     1
  1
47" [1195mm]
 11
0.0000000000000001
 21
1.0
 31
0.0
 73
     1
 44
1.0
  0
VIEWPORT
  5
601
330
1B
100
AcDbEntity
 67
     1
  8
0
100
AcDbViewport
 10
5.375000360443835
 20
4.12500018209923
 30
0.0
 40
19.92926615122608
 41
8.993000381349579
 68
     1
 69
     1
 12
5.375000360443835
 22
4.12500018209923
 13
0.0
 23
0.0
 14
0.5
 24
0.5
 15
0.5
 25
0.5
 16
0.0
 26
0.0
 36
1.0
 17
0.0
 27
0.0
 37
0.0
 42
50.0
 43
0.0
 44
0.0
 45
8.993000381349579
 50
0.0
 51
0.0
 72
  2000
 90
    32800
  1

281
     0
 71
     1
 74
     0
110
0.0
120
0.0
130
0.0
111
1.0
121
0.0
131
0.0
112
0.0
122
1.0
132
0.0
 79
     0
146
0.0
170
     0
  0
VIEWPORT
  5
603
330
1B
100
AcDbEntity
 67
     1
  8
Border
100
AcDbViewport
 10
5.380395418220672
 20
4.125000179163178
 30
0.0
 40
10.88718437813766
 41
8.42150276845464
 68
     2
 69
     2
 12
30.67798904325332
 22
24.64368281490604
 13
0.0
 23
0.0
 14
0.5
 24
0.5
 15
0.5
 25
0.5
 16
0.0
 26
0.0
 36
1.0
 17
0.0
 27
0.0
 37
0.0
 42
50.0
 43
0.0
 44
0.0
 45
51.34361214226129
 50
0.0
 51
0.0
 72
  2000
 90
    32864
  1

281
     0
 71
     1
 74
     0
110
0.0
120
0.0
130
0.0
111
1.0
121
0.0
131
0.0
112
0.0
122
1.0
132
0.0
 79
     0
146
0.0
170
     0
  0
ENDSEC
  0
SECTION
  2
OBJECTS
  0
DICTIONARY
  5
C
330
0
100
AcDbDictionary
281
     1
  3
ACAD_COLOR
350
390
  3
ACAD_GROUP
350
D
  3
ACAD_LAYOUT
350
1A
  3
ACAD_MATERIAL
350
38F
  3
ACAD_MLINESTYLE
350
17
  3
ACAD_PLOTSETTINGS
350
19
  3
ACAD_PLOTSTYLENAME
350
E
  3
ACAD_SCALELIST
350
47
  3
AcadDim
350
606
  0
DICTIONARY
  5
390
102
{ACAD_REACTORS
330
C
102
}
330
C
100
AcDbDictionary
281
     1
  0
DICTIONARY
  5
D
102
{ACAD_REACTORS
330
C
102
}
330
C
100
AcDbDictionary
281
     1
  0
DICTIONARY
  5
1A
102
{ACAD_REACTORS
330
C
102
}
330
C
100
AcDbDictionary
281
     1
  3
Layout1
350
1E
  3
Layout2
350
26
  3
Model
350
22
  0
DICTIONARY
  5
38F
102
{ACAD_REACTORS
330
C
102
}
330
C
100
AcDbDictionary
281
     1
  0
DICTIONARY
  5
17
102
{ACAD_REACTORS
330
C
102
}
330
C
100
AcDbDictionary
281
     1
  3
Standard
350
18
  0
DICTIONARY
  5
19
102
{ACAD_REACTORS
330
C
102
}
330
C
100
AcDbDictionary
281
     1
  0
ACDBDICTIONARYWDFLT
  5
E
102
{ACAD_REACTORS
330
C
102
}
330
C
100
AcDbDictionary
281
     1
  3
Normal
350
F
100
AcDbDictionaryWithDefault
340
F
  0
DICTIONARY
  5
47
102
{ACAD_REACTORS
330
C
102
}
330
C
100
AcDbDictionary
281
     1
  3
A0
350
48
  3
A1
350
49
  3
A2
350
4A
  3
A3
350
4B
  3
A4
350
4C
  3
A5
350
4D
  3
A6
350
4E
  3
A7
350
4F
  3
A8
350
50
  3
A9
350
51
  3
B0
350
52
  3
B1
350
53
  3
B2
350
54
  3
B3
350
55
  3
B4
350
56
  3
B5
350
57
  3
B6
350
58
  3
B7
350
59
  3
B8
350
5A
  3
B9
350
5B
  3
C0
350
5C
  3
C1
350
5D
  3
C2
350
5E
  3
C3
350
5F
  3
C4
350
60
  3
C5
350
61
  3
C6
350
62
  3
C7
350
63
  3
C8
350
64
  3
C9
350
65
  3
D0
350
66
  3
D1
350
67
  3
D2
350
68
  0
XRECORD
  5
606
102
{ACAD_REACTORS
330
C
102
}
330
C
100
AcDbXrecord
280
     1
 90
   990106
  3

 60
     0
 61
     0
 62
     1
 63
     3
 64
     0
 65
     0
 66
     0
 67
     3
 68
     1
 69
     0
 70
     0
 71
     0
 72
     0
 40
0.0
170
     0
  0
LAYOUT
  5
1E
102
{ACAD_REACTORS
330
1A
102
}
330
1A
100
AcDbPlotSettings
  1

  2
Adobe PDF.pc3
  4
User202
  6

 40
3.174999952316284
 41
3.174999952316284
 42
3.175003051757812
 43
3.17498779296875
 44
215.9000091552734
 45
279.3999938964844
 46
0.0
 47
0.0
 48
0.0
 49
0.0
140
0.0
141
0.0
142
1.0
143
1.0
 70
   688
 72
     0
 73
     1
 74
     5
  7
monochrome.ctb
 75
    16
147
1.0
 76
     1
 77
     2
 78
   300
148
0.0
149
0.0
100
AcDbLayout
  1
Layout1
 70
     1
 71
     1
 10
-0.1249995194082185
 20
-0.1249999981226883
 11
10.87500024029589
 21
8.375000362321149
 12
0.0
 22
0.0
 32
0.0
 14
-0.0632319169492561
 24
-0.0863494639527964
 34
-0.0015258207003583
 15
10.82414272301373
 25
8.336349867732462
 35
0.0000000349246037
146
0.0
 13
0.0
 23
0.0
 33
0.0
 16
1.0
 26
0.0
 36
0.0
 17
0.0
 27
1.0
 37
0.0
 76
     0
330
1B
331
601
  0
LAYOUT
  5
26
102
{ACAD_REACTORS
330
1A
102
}
330
1A
100
AcDbPlotSettings
  1

  2
none_device
  4

  6

 40
0.0
 41
0.0
 42
0.0
 43
0.0
 44
0.0
 45
0.0
 46
0.0
 47
0.0
 48
0.0
 49
0.0
140
0.0
141
0.0
142
1.0
143
1.0
 70
   688
 72
     0
 73
     0
 74
     5
  7

 75
    16
147
1.0
 76
     0
 77
     2
 78
   300
148
0.0
149
0.0
100
AcDbLayout
  1
Layout2
 70
     1
 71
     2
 10
0.0
 20
0.0
 11
0.0
 21
0.0
 12
0.0
 22
0.0
 32
0.0
 14
0.0
 24
0.0
 34
0.0
 15
0.0
 25
0.0
 35
0.0
146
0.0
 13
0.0
 23
0.0
 33
0.0
 16
1.0
 26
0.0
 36
0.0
 17
0.0
 27
1.0
 37
0.0
 76
     0
330
23
  0
LAYOUT
  5
22
102
{ACAD_REACTORS
330
1A
102
}
330
1A
100
AcDbPlotSettings
  1

  2
none_device
  4
Letter_(8.50_x_11.00_Inches)
  6

 40
6.349999999999999
 41
6.349999999999999
 42
6.350005079999999
 43
6.350005079999999
 44
215.9
 45
279.4
 46
0.0
 47
0.0
 48
0.0
 49
0.0
140
0.0
141
0.0
142
1.0
143
1.0
 70
  1712
 72
     0
 73
     0
 74
     0
  7

 75
     0
147
1.0
 76
     0
 77
     2
 78
   300
148
0.0
149
0.0
100
AcDbLayout
  1
Model
 70
     1
 71
     0
 10
0.0
 20
0.0
 11
34.0
 21
22.0
 12
0.0
 22
0.0
 32
0.0
 14
0.0
 24
0.0
 34
0.0
 15
34.0
 25
22.0
 35
0.0
146
0.0
 13
0.0
 23
0.0
 33
0.0
 16
1.0
 26
0.0
 36
0.0
 17
0.0
 27
1.0
 37
0.0
 76
     0
330
1F
  0
MLINESTYLE
  5
18
102
{ACAD_REACTORS
330
17
102
}
330
17
100
AcDbMlineStyle
  2
STANDARD
 70
     0
  3

 62
   256
 51
90.0
 52
90.0
 71
     2
 49
0.5
 62
   256
  6
BYLAYER
 49
-0.5
 62
   256
  6
BYLAYER
  0
ACDBPLACEHOLDER
  5
F
102
{ACAD_REACTORS
330
E
102
}
330
E
  0
ACAD_PROXY_OBJECT
  5
48
102
{ACAD_REACTORS
330
47
102
}
330
47
100
AcDbProxyObject
 90
      499
 91
      503
 95
   393239
 70
     0
 93
       41
310
903313A31580
 94
        0
  0
ACAD_PROXY_OBJECT
  5
49
102
{ACAD_REACTORS
330
47
102
}
330
47
100
AcDbProxyObject
 90
      499
 91
      503
 95
   393239
 70
     0
 93
      105
310
903313A324000000000000004013
 94
        0
  0
ACAD_PROXY_OBJECT
  5
4A
102
{ACAD_REACTORS
330
47
102
}
330
47
100
AcDbProxyObject
 90
      499
 91
      503
 95
   393239
 70
     0
 93
      105
310
903313A34400000000000010400C
 94
        0
  0
ACAD_PROXY_OBJECT
  5
4B
102
{ACAD_REACTORS
330
47
102
}
330
47
100
AcDbProxyObject
 90
      499
 91
      503
 95
   393239
 70
     0
 93
      105
310
903313A354000000000000144013
 94
        0
  0
ACAD_PROXY_OBJECT
  5
4C
102
{ACAD_REACTORS
330
47
102
}
330
47
100
AcDbProxyObject
 90
      499
 91
      503
 95
   393239
 70
     0
 93
      105
310
903313A38400000000000020400C
 94
        0
  0
ACAD_PROXY_OBJECT
  5
4D
102
{ACAD_REACTORS
330
47
102
}
330
47
100
AcDbProxyObject
 90
      499
 91
      503
 95
   393239
 70
     0
 93
      113
310
904313A31304000000000000244023
 94
        0
  0
ACAD_PROXY_OBJECT
  5
4E
102
{ACAD_REACTORS
330
47
102
}
330
47
100
AcDbProxyObject
 90
      499
 91
      503
 95
   393239
 70
     0
 93
      113
310
904313A31364000000000000304057
 94
        0
  0
ACAD_PROXY_OBJECT
  5
4F
102
{ACAD_REACTORS
330
47
102
}
330
47
100
AcDbProxyObject
 90
      499
 91
      503
 95
   393239
 70
     0
 93
      113
310
904313A32304000000000000344023
 94
        0
  0
ACAD_PROXY_OBJECT
  5
50
102
{ACAD_REACTORS
330
47
102
}
330
47
100
AcDbProxyObject
 90
      499
 91
      503
 95
   393239
 70
     0
 93
      113
310
904313A333040000000000003E4057
 94
        0
  0
ACAD_PROXY_OBJECT
  5
51
102
{ACAD_REACTORS
330
47
102
}
330
47
100
AcDbProxyObject
 90
      499
 91
      503
 95
   393239
 70
     0
 93
      113
310
904313A34304000000000000444023
 94
        0
  0
ACAD_PROXY_OBJECT
  5
52
102
{ACAD_REACTORS
330
47
102
}
330
47
100
AcDbProxyObject
 90
      499
 91
      503
 95
   393239
 70
     0
 93
      113
310
904313A35304000000000000494057
 94
        0
  0
ACAD_PROXY_OBJECT
  5
53
102
{ACAD_REACTORS
330
47
102
}
330
47
100
AcDbProxyObject
 90
      499
 91
      503
 95
   393239
 70
     0
 93
      121
310
905313A3130304000000000000594015
 94
        0
  0
ACAD_PROXY_OBJECT
  5
54
102
{ACAD_REACTORS
330
47
102
}
330
47
100
AcDbProxyObject
 90
      499
 91
      503
 95
   393239
 70
     0
 93
      105
310
903323A310000000000000010140
 94
        0
  0
ACAD_PROXY_OBJECT
  5
55
102
{ACAD_REACTORS
330
47
102
}
330
47
100
AcDbProxyObject
 90
      499
 91
      503
 95
   393239
 70
     0
 93
      105
310
903343A310000000000000410159
 94
        0
  0
ACAD_PROXY_OBJECT
  5
56
102
{ACAD_REACTORS
330
47
102
}
330
47
100
AcDbProxyObject
 90
      499
 91
      503
 95
   393239
 70
     0
 93
      105
310
903383A310000000000000810140
 94
        0
  0
ACAD_PROXY_OBJECT
  5
57
102
{ACAD_REACTORS
330
47
102
}
330
47
100
AcDbProxyObject
 90
      499
 91
      503
 95
   393239
 70
     0
 93
      113
310
90431303A310000000000000910140
 94
        0
  0
ACAD_PROXY_OBJECT
  5
58
102
{ACAD_REACTORS
330
47
102
}
330
47
100
AcDbProxyObject
 90
      499
 91
      503
 95
   393239
 70
     0
 93
      121
310
9053130303A310000000000001650100
 94
        0
  0
ACAD_PROXY_OBJECT
  5
59
102
{ACAD_REACTORS
330
47
102
}
330
47
100
AcDbProxyObject
 90
      499
 91
      503
 95
   393239
 70
     0
 93
      257
310
90E312F31323822203D2031272D3022000000000000200FC000000000000284000
 94
        0
  0
ACAD_PROXY_OBJECT
  5
5A
102
{ACAD_REACTORS
330
47
102
}
330
47
100
AcDbProxyObject
 90
      499
 91
      503
 95
   393239
 70
     0
 93
      249
310
90D312F363422203D2031272D3022000000000000240FC000000000000284000
 94
        0
  0
ACAD_PROXY_OBJECT
  5
5B
102
{ACAD_REACTORS
330
47
102
}
330
47
100
AcDbProxyObject
 90
      499
 91
      503
 95
   393239
 70
     0
 93
      249
310
90D312F333222203D2031272D3022000000000000280FC000000000000284040
 94
        0
  0
ACAD_PROXY_OBJECT
  5
5C
102
{ACAD_REACTORS
330
47
102
}
330
47
100
AcDbProxyObject
 90
      499
 91
      503
 95
   393239
 70
     0
 93
      249
310
90D312F313622203D2031272D30220000000000002C0FC000000000000284000
 94
        0
  0
ACAD_PROXY_OBJECT
  5
5D
102
{ACAD_REACTORS
330
47
102
}
330
47
100
AcDbProxyObject
 90
      499
 91
      503
 95
   393239
 70
     0
 93
      249
310
90D332F333222203D2031272D30220000000000002E0FC000000000000284040
 94
        0
  0
ACAD_PROXY_OBJECT
  5
5E
102
{ACAD_REACTORS
330
47
102
}
330
47
100
AcDbProxyObject
 90
      499
 91
      503
 95
   393239
 70
     0
 93
      241
310
90C312F3822203D2031272D3022000000000000300FC000000000000284040
 94
        0
  0
ACAD_PROXY_OBJECT
  5
5F
102
{ACAD_REACTORS
330
47
102
}
330
47
100
AcDbProxyObject
 90
      499
 91
      503
 95
   393239
 70
     0
 93
      249
310
90D332F313622203D2031272D3022000000000000320FC000000000000284040
 94
        0
  0
ACAD_PROXY_OBJECT
  5
60
102
{ACAD_REACTORS
330
47
102
}
330
47
100
AcDbProxyObject
 90
      499
 91
      503
 95
   393239
 70
     0
 93
      241
310
90C312F3422203D2031272D3022000000000000340FC000000000000284040
 94
        0
  0
ACAD_PROXY_OBJECT
  5
61
102
{ACAD_REACTORS
330
47
102
}
330
47
100
AcDbProxyObject
 90
      499
 91
      503
 95
   393239
 70
     0
 93
      241
310
90C332F3822203D2031272D3022000000000000360FC000000000000284040
 94
        0
  0
ACAD_PROXY_OBJECT
  5
62
102
{ACAD_REACTORS
330
47
102
}
330
47
100
AcDbProxyObject
 90
      499
 91
      503
 95
   393239
 70
     0
 93
      241
310
90C312F3222203D2031272D3022000000000000380FC000000000000284040
 94
        0
  0
ACAD_PROXY_OBJECT
  5
63
102
{ACAD_REACTORS
330
47
102
}
330
47
100
AcDbProxyObject
 90
      499
 91
      503
 95
   393239
 70
     0
 93
      241
310
90C332F3422203D2031272D30220000000000003A0FC000000000000284040
 94
        0
  0
ACAD_PROXY_OBJECT
  5
64
102
{ACAD_REACTORS
330
47
102
}
330
47
100
AcDbProxyObject
 90
      499
 91
      503
 95
   393239
 70
     0
 93
      161
310
90A3122203D2031272D30224000000000000284000
 94
        0
  0
ACAD_PROXY_OBJECT
  5
65
102
{ACAD_REACTORS
330
47
102
}
330
47
100
AcDbProxyObject
 90
      499
 91
      503
 95
   393239
 70
     0
 93
      257
310
90E312D312F3222203D2031272D30220000000000003E0FC000000000000284000
 94
        0
  0
ACAD_PROXY_OBJECT
  5
66
102
{ACAD_REACTORS
330
47
102
}
330
47
100
AcDbProxyObject
 90
      499
 91
      503
 95
   393239
 70
     0
 93
      225
310
90A3322203D2031272D302200000000000002100000000000000284028
 94
        0
  0
ACAD_PROXY_OBJECT
  5
67
102
{ACAD_REACTORS
330
47
102
}
330
47
100
AcDbProxyObject
 90
      499
 91
      503
 95
   393239
 70
     0
 93
      225
310
90A3622203D2031272D302200000000000006100000000000000284000
 94
        0
  0
ACAD_PROXY_OBJECT
  5
68
102
{ACAD_REACTORS
330
47
102
}
330
47
100
AcDbProxyObject
 90
      499
 91
      503
 95
   393239
 70
     0
 93
      249
310
90D31272D3022203D2031272D30220000000000000A100000000000000284000
 94
        0
  0
ENDSEC
  0
EOF
