  0
SECTION
  2
HEADER
  9
$ACADVER
  1
AC1018
  9
$ACADMAINTVER
 70
     0
  9
$DWGCODEPAGE
  3
ANSI_1252
  9
$INSBASE
 10
0.0
 20
0.0
 30
0.0
  9
$EXTMIN
 10
7.545600672887771
 20
0.2631858933123297
 30
0.0
  9
$EXTMAX
 10
50.89573404974847
 20
37.54954828655574
 30
0.0
  9
$LIMMIN
 10
0.0
 20
0.0
  9
$LIMMAX
 10
34.0
 20
22.0
  9
$ORTHOMODE
 70
     1
  9
$REGENMODE
 70
     1
  9
$FILLMODE
 70
     1
  9
$QTEXTMODE
 70
     0
  9
$MIRRTEXT
 70
     1
  9
$LTSCALE
 40
1.0
  9
$ATTMODE
 70
     1
  9
$TEXTSIZE
 40
0.125
  9
$TRACEWID
 40
0.05
  9
$TEXTSTYLE
  7
Standard
  9
$CLAYER
  8
DIMENSIONS
  9
$CELTYPE
  6
ByLayer
  9
$CECOLOR
 62
   256
  9
$CELTSCALE
 40
1.0
  9
$DISPSILH
 70
     0
  9
$DIMSCALE
 40
1.0
  9
$DIMASZ
 40
0.25
  9
$DIMEXO
 40
0.18
  9
$DIMDLI
 40
0.38
  9
$DIMRND
 40
0.0
  9
$DIMDLE
 40
0.0
  9
$DIMEXE
 40
0.18
  9
$DIMTP
 40
0.0
  9
$DIMTM
 40
0.0
  9
$DIMTXT
 40
0.36
  9
$DIMCEN
 40
0.09
  9
$DIMTSZ
 40
0.0
  9
$DIMTOL
 70
     0
  9
$DIMLIM
 70
     0
  9
$DIMTIH
 70
     1
  9
$DIMTOH
 70
     1
  9
$DIMSE1
 70
     0
  9
$DIMSE2
 70
     0
  9
$DIMTAD
 70
     0
  9
$DIMZIN
 70
     4
  9
$DIMBLK
  1

  9
$DIMASO
 70
     1
  9
$DIMSHO
 70
     1
  9
$DIMPOST
  1
"\X
  9
$DIMAPOST
  1
mm
  9
$DIMALT
 70
     1
  9
$DIMALTD
 70
     0
  9
$DIMALTF
 40
25.4
  9
$DIMLFAC
 40
1.0
  9
$DIMTOFL
 70
     0
  9
$DIMTVP
 40
0.0
  9
$DIMTIX
 70
     0
  9
$DIMSOXD
 70
     0
  9
$DIMSAH
 70
     0
  9
$DIMBLK1
  1

  9
$DIMBLK2
  1

  9
$DIMSTYLE
  2
Standard
  9
$DIMCLRD
 70
     0
  9
$DIMCLRE
 70
     0
  9
$DIMCLRT
 70
     0
  9
$DIMTFAC
 40
1.0
  9
$DIMGAP
 40
0.09
  9
$DIMJUST
 70
     0
  9
$DIMSD1
 70
     0
  9
$DIMSD2
 70
     0
  9
$DIMTOLJ
 70
     1
  9
$DIMTZIN
 70
     0
  9
$DIMALTZ
 70
     4
  9
$DIMALTTZ
 70
     0
  9
$DIMUPT
 70
     0
  9
$DIMDEC
 70
     4
  9
$DIMTDEC
 70
     4
  9
$DIMALTU
 70
     2
  9
$DIMALTTD
 70
     0
  9
$DIMTXSTY
  7
Standard
  9
$DIMAUNIT
 70
     0
  9
$DIMADEC
 70
     0
  9
$DIMALTRND
 40
5.0
  9
$DIMAZIN
 70
     1
  9
$DIMDSEP
 70
    46
  9
$DIMATFIT
 70
     0
  9
$DIMFRAC
 70
     2
  9
$DIMLDRBLK
  1

  9
$DIMLUNIT
 70
     5
  9
$DIMLWD
 70
    -2
  9
$DIMLWE
 70
    -2
  9
$DIMTMOVE
 70
     0
  9
$LUNITS
 70
     2
  9
$LUPREC
 70
     2
  9
$SKETCHINC
 40
0.1
  9
$FILLETRAD
 40
0.5
  9
$AUNITS
 70
     0
  9
$AUPREC
 70
     0
  9
$MENU
  1
.
  9
$ELEVATION
 40
0.0
  9
$PELEVATION
 40
0.0
  9
$THICKNESS
 40
0.0
  9
$LIMCHECK
 70
     0
  9
$CHAMFERA
 40
0.0
  9
$CHAMFERB
 40
0.0
  9
$CHAMFERC
 40
0.0
  9
$CHAMFERD
 40
0.0
  9
$SKPOLY
 70
     0
  9
$TDCREATE
 40
2457610.486749005
  9
$TDUCREATE
 40
2457610.778415671
  9
$TDUPDATE
 40
2457618.434402790
  9
$TDUUPDATE
 40
2457618.726069456
  9
$TDINDWG
 40
0.1061583796
  9
$TDUSRTIMER
 40
0.1061583796
  9
$USRTIMER
 70
     1
  9
$ANGBASE
 50
0.0
  9
$ANGDIR
 70
     0
  9
$PDMODE
 70
     0
  9
$PDSIZE
 40
-1.0
  9
$PLINEWID
 40
0.0
  9
$SPLFRAME
 70
     0
  9
$SPLINETYPE
 70
     6
  9
$SPLINESEGS
 70
     8
  9
$HANDSEED
  5
7BE
  9
$SURFTAB1
 70
     6
  9
$SURFTAB2
 70
     6
  9
$SURFTYPE
 70
     6
  9
$SURFU
 70
     6
  9
$SURFV
 70
     6
  9
$UCSBASE
  2

  9
$UCSNAME
  2

  9
$UCSORG
 10
0.0
 20
0.0
 30
0.0
  9
$UCSXDIR
 10
1.0
 20
0.0
 30
0.0
  9
$UCSYDIR
 10
0.0
 20
1.0
 30
0.0
  9
$UCSORTHOREF
  2

  9
$UCSORTHOVIEW
 70
     0
  9
$UCSORGTOP
 10
0.0
 20
0.0
 30
0.0
  9
$UCSORGBOTTOM
 10
0.0
 20
0.0
 30
0.0
  9
$UCSORGLEFT
 10
0.0
 20
0.0
 30
0.0
  9
$UCSORGRIGHT
 10
0.0
 20
0.0
 30
0.0
  9
$UCSORGFRONT
 10
0.0
 20
0.0
 30
0.0
  9
$UCSORGBACK
 10
0.0
 20
0.0
 30
0.0
  9
$PUCSBASE
  2

  9
$PUCSNAME
  2

  9
$PUCSORG
 10
0.0
 20
0.0
 30
0.0
  9
$PUCSXDIR
 10
1.0
 20
0.0
 30
0.0
  9
$PUCSYDIR
 10
0.0
 20
1.0
 30
0.0
  9
$PUCSORTHOREF
  2

  9
$PUCSORTHOVIEW
 70
     0
  9
$PUCSORGTOP
 10
0.0
 20
0.0
 30
0.0
  9
$PUCSORGBOTTOM
 10
0.0
 20
0.0
 30
0.0
  9
$PUCSORGLEFT
 10
0.0
 20
0.0
 30
0.0
  9
$PUCSORGRIGHT
 10
0.0
 20
0.0
 30
0.0
  9
$PUCSORGFRONT
 10
0.0
 20
0.0
 30
0.0
  9
$PUCSORGBACK
 10
0.0
 20
0.0
 30
0.0
  9
$USERI1
 70
     0
  9
$USERI2
 70
     0
  9
$USERI3
 70
     0
  9
$USERI4
 70
     0
  9
$USERI5
 70
     0
  9
$USERR1
 40
0.0
  9
$USERR2
 40
0.0
  9
$USERR3
 40
0.0
  9
$USERR4
 40
0.0
  9
$USERR5
 40
0.0
  9
$WORLDVIEW
 70
     1
  9
$SHADEDGE
 70
     3
  9
$SHADEDIF
 70
    70
  9
$TILEMODE
 70
     1
  9
$MAXACTVP
 70
    64
  9
$PINSBASE
 10
0.0
 20
0.0
 30
0.0
  9
$PLIMCHECK
 70
     0
  9
$PEXTMIN
 10
-0.1126666515700947
 20
-0.1784022691924321
 30
0.0
  9
$PEXTMAX
 10
10.64503612462523
 20
8.113704219333566
 30
0.0
  9
$PLIMMIN
 10
-0.2500002402958907
 20
-0.2499999962453767
  9
$PLIMMAX
 10
10.74999951940821
 20
8.249999763458731
  9
$UNITMODE
 70
     0
  9
$VISRETAIN
 70
     1
  9
$PLINEGEN
 70
     0
  9
$PSLTSCALE
 70
     1
  9
$TREEDEPTH
 70
  3020
  9
$CMLSTYLE
  2
Standard
  9
$CMLJUST
 70
     0
  9
$CMLSCALE
 40
1.0
  9
$PROXYGRAPHICS
 70
     1
  9
$MEASUREMENT
 70
     0
  9
$CELWEIGHT
370
    -1
  9
$ENDCAPS
280
     0
  9
$JOINSTYLE
280
     0
  9
$LWDISPLAY
290
     1
  9
$INSUNITS
 70
     1
  9
$HYPERLINKBASE
  1

  9
$STYLESHEET
  1

  9
$XEDIT
290
     1
  9
$CEPSNTYPE
380
     0
  9
$PSTYLEMODE
290
     1
  9
$FINGERPRINTGUID
  2
{82FD88D2-BFE9-4DCA-80B4-5C8EEFA737BC}
  9
$VERSIONGUID
  2
{A5F82823-57AA-400B-90D9-75DAA4DE136B}
  9
$EXTNAMES
290
     1
  9
$PSVPSCALE
 40
0.0
  9
$OLESTARTUP
290
     0
  9
$SORTENTS
280
   127
  9
$INDEXCTL
280
     0
  9
$HIDETEXT
280
     0
  9
$XCLIPFRAME
290
     0
  9
$HALOGAP
280
     0
  9
$OBSCOLOR
 70
   257
  9
$OBSLTYPE
280
     0
  9
$INTERSECTIONDISPLAY
280
     0
  9
$INTERSECTIONCOLOR
 70
   257
  9
$DIMASSOC
280
     1
  9
$PROJECTNAME
  1

  0
ENDSEC
  0
SECTION
  2
CLASSES
  0
CLASS
  1
ACDBDICTIONARYWDFLT
  2
AcDbDictionaryWithDefault
  3
ObjectDBX Classes
 90
        0
 91
        1
280
     0
281
     0
  0
CLASS
  1
VISUALSTYLE
  2
AcDbVisualStyle
  3
ObjectDBX Classes
 90
     4095
 91
        0
280
     0
281
     0
  0
CLASS
  1
MATERIAL
  2
AcDbMaterial
  3
ObjectDBX Classes
 90
        0
 91
        0
280
     0
281
     0
  0
CLASS
  1
SCALE
  2
AcDbScale
  3
ObjectDBX Classes
 90
     1153
 91
       34
280
     0
281
     0
  0
CLASS
  1
SUN
  2
AcDbSun
  3
SCENEOE
 90
     1153
 91
        0
280
     0
281
     0
  0
CLASS
  1
ACDBPLACEHOLDER
  2
AcDbPlaceHolder
  3
ObjectDBX Classes
 90
        0
 91
        1
280
     0
281
     0
  0
CLASS
  1
LAYOUT
  2
AcDbLayout
  3
ObjectDBX Classes
 90
        0
 91
        3
280
     0
281
     0
  0
ENDSEC
  0
SECTION
  2
TABLES
  0
TABLE
  2
VPORT
  5
8
330
0
100
AcDbSymbolTable
 70
     7
  0
VPORT
  5
7BD
330
8
100
AcDbSymbolTableRecord
100
AcDbViewportTableRecord
  2
*Active
 70
     0
 10
0.0
 20
0.0
 11
1.0
 21
1.0
 12
29.22151581145011
 22
18.90709677928062
 13
0.0
 23
0.0
 14
0.5
 24
0.5
 15
0.5
 25
0.5
 16
0.0
 26
0.0
 36
1.0
 17
0.0
 27
0.0
 37
0.0
 40
37.55700834877659
 41
2.216086434573829
 42
50.0
 43
0.0
 44
0.0
 50
0.0
 51
0.0
 71
     0
 72
  2000
 73
     1
 74
     3
 75
     0
 76
     0
 77
     0
 78
     0
281
     0
 65
     1
110
0.0
120
0.0
130
0.0
111
1.0
121
0.0
131
0.0
112
0.0
122
1.0
132
0.0
 79
     0
146
0.0
  0
ENDTAB
  0
TABLE
  2
LTYPE
  5
5
330
0
100
AcDbSymbolTable
 70
     6
  0
LTYPE
  5
14
330
5
100
AcDbSymbolTableRecord
100
AcDbLinetypeTableRecord
  2
ByBlock
 70
     0
  3

 72
    65
 73
     0
 40
0.0
  0
LTYPE
  5
15
330
5
100
AcDbSymbolTableRecord
100
AcDbLinetypeTableRecord
  2
ByLayer
 70
     0
  3

 72
    65
 73
     0
 40
0.0
  0
LTYPE
  5
16
330
5
100
AcDbSymbolTableRecord
100
AcDbLinetypeTableRecord
  2
Continuous
 70
     0
  3
Solid line
 72
    65
 73
     0
 40
0.0
  0
LTYPE
  5
6A
330
5
100
AcDbSymbolTableRecord
100
AcDbLinetypeTableRecord
  2
HIDDEN
 70
     0
  3
Hidden __ __ __ __ __ __ __ __ __ __ __ __ __ __
 72
    65
 73
     2
 40
0.075
 49
0.05
 74
     0
 49
-0.025
 74
     0
  0
LTYPE
  5
6B
330
5
100
AcDbSymbolTableRecord
100
AcDbLinetypeTableRecord
  2
PHANTOM
 70
     0
  3
Phantom ______  __  __  ______  __  __  ______
 72
    65
 73
     6
 40
0.5
 49
0.25
 74
     0
 49
-0.05
 74
     0
 49
0.05
 74
     0
 49
-0.05
 74
     0
 49
0.05
 74
     0
 49
-0.05
 74
     0
  0
LTYPE
  5
6C
330
5
100
AcDbSymbolTableRecord
100
AcDbLinetypeTableRecord
  2
CENTER
 70
     0
  3
Center ____ _ ____ _ ____ _ ____ _ ____ _ ____
 72
    65
 73
     4
 40
0.4
 49
0.25
 74
     0
 49
-0.05
 74
     0
 49
0.05
 74
     0
 49
-0.05
 74
     0
  0
LTYPE
  5
6D
330
5
100
AcDbSymbolTableRecord
100
AcDbLinetypeTableRecord
  2
CENTERX2
 70
     0
  3
Center (2x) ________  __  ________  __  _____
 72
    65
 73
     4
 40
0.8
 49
0.5
 74
     0
 49
-0.1
 74
     0
 49
0.1
 74
     0
 49
-0.1
 74
     0
  0
LTYPE
  5
6E
330
5
100
AcDbSymbolTableRecord
100
AcDbLinetypeTableRecord
  2
DOT2
 70
     0
  3
Dot (.5x) ........................................
 72
    65
 73
     2
 40
0.025
 49
0.0
 74
     0
 49
-0.025
 74
     0
  0
ENDTAB
  0
TABLE
  2
LAYER
  5
2
330
0
100
AcDbSymbolTable
 70
     8
  0
LAYER
  5
10
330
2
100
AcDbSymbolTableRecord
100
AcDbLayerTableRecord
  2
0
 70
     0
 62
     7
  6
Continuous
370
    -3
390
F
  0
LAYER
  5
6F
330
2
100
AcDbSymbolTableRecord
100
AcDbLayerTableRecord
  2
FORMAT
 70
     0
 62
     8
  6
Continuous
370
    30
390
F
  0
LAYER
  5
70
330
2
100
AcDbSymbolTableRecord
100
AcDbLayerTableRecord
  2
TITLE_BLOCK_TEXT
 70
     0
 62
     7
  6
Continuous
370
    30
390
F
  0
LAYER
  5
71
330
2
100
AcDbSymbolTableRecord
100
AcDbLayerTableRecord
  2
DIMENSIONS
 70
     0
 62
     1
  6
Continuous
370
    -3
390
F
  0
LAYER
  5
72
330
2
100
AcDbSymbolTableRecord
100
AcDbLayerTableRecord
  2
SLD-0
 70
     0
 62
   179
  6
Continuous
370
    -3
390
F
  0
LAYER
  5
431
330
2
100
AcDbSymbolTableRecord
100
AcDbLayerTableRecord
  2
Object
 70
     0
 62
     4
  6
Continuous
370
    -3
390
F
  0
LAYER
  5
432
330
2
100
AcDbSymbolTableRecord
100
AcDbLayerTableRecord
  2
Defpoints
 70
     0
 62
     7
  6
Continuous
290
     0
370
    -3
390
F
  0
LAYER
  5
5A8
330
2
100
AcDbSymbolTableRecord
100
AcDbLayerTableRecord
  2
Border
 70
     1
 62
    -2
  6
Continuous
370
    -3
390
F
  0
ENDTAB
  0
TABLE
  2
STYLE
  5
3
330
0
100
AcDbSymbolTable
 70
     7
  0
STYLE
  5
11
330
3
100
AcDbSymbolTableRecord
100
AcDbTextStyleTableRecord
  2
Standard
 70
     0
 40
0.0
 41
1.0
 50
0.0
 71
     0
 42
0.125
  3
romans.shx
  4

  0
STYLE
  5
99
330
3
100
AcDbSymbolTableRecord
100
AcDbTextStyleTableRecord
  2
SLDTEXTSTYLE0
 70
     0
 40
0.0
 41
0.7
 50
0.0
 71
     0
 42
0.125
  3
TXT
  4

  0
STYLE
  5
9B
330
3
100
AcDbSymbolTableRecord
100
AcDbTextStyleTableRecord
  2
SLDTEXTSTYLE1
 70
     0
 40
0.0
 41
0.605
 50
0.0
 71
     0
 42
0.125
  3
TXT
  4

  0
STYLE
  5
A1
330
3
100
AcDbSymbolTableRecord
100
AcDbTextStyleTableRecord
  2
SLDTEXTSTYLE2
 70
     0
 40
0.0
 41
0.8764128766729262
 50
0.0
 71
     0
 42
0.125
  3
TXT
  4

  0
STYLE
  5
A3
330
3
100
AcDbSymbolTableRecord
100
AcDbTextStyleTableRecord
  2
SLDTEXTSTYLE3
 70
     0
 40
0.0
 41
0.6163697320172487
 50
0.0
 71
     0
 42
0.125
  3
TXT
  4

  0
STYLE
  5
C2
330
3
100
AcDbSymbolTableRecord
100
AcDbTextStyleTableRecord
  2
SLDTEXTSTYLE4
 70
     0
 40
0.0
 41
0.565625
 50
0.0
 71
     0
 42
0.125
  3
TXT
  4

  0
STYLE
  5
C5
330
3
100
AcDbSymbolTableRecord
100
AcDbTextStyleTableRecord
  2
SLDTEXTSTYLE5
 70
     0
 40
0.0
 41
0.5735
 50
0.0
 71
     0
 42
0.125
  3
TXT
  4

  0
ENDTAB
  0
TABLE
  2
VIEW
  5
6
330
0
100
AcDbSymbolTable
 70
     0
  0
ENDTAB
  0
TABLE
  2
UCS
  5
7
330
0
100
AcDbSymbolTable
 70
     0
  0
ENDTAB
  0
TABLE
  2
APPID
  5
9
330
0
100
AcDbSymbolTable
 70
     1
  0
APPID
  5
12
330
9
100
AcDbSymbolTableRecord
100
AcDbRegAppTableRecord
  2
ACAD
 70
     0
  0
ENDTAB
  0
TABLE
  2
DIMSTYLE
  5
A
330
0
100
AcDbSymbolTable
 70
     1
100
AcDbDimStyleTable
 71
     1
340
27
  0
DIMSTYLE
105
27
102
{ACAD_REACTORS
330
448
330
493
330
4A2
330
4DC
330
4EB
330
505
330
514
330
53F
330
5E3
330
523
330
526
330
599
102
}
330
A
100
AcDbSymbolTableRecord
100
AcDbDimStyleTableRecord
  2
Standard
 70
     0
  3
"\X
  4
mm
 41
0.25
 42
0.18
 78
     4
 79
     1
140
0.36
148
5.0
170
     1
171
     0
274
     0
276
     2
277
     5
285
     4
289
     0
340
11
  0
ENDTAB
  0
TABLE
  2
BLOCK_RECORD
  5
1
330
0
100
AcDbSymbolTable
 70
    16
  0
BLOCK_RECORD
  5
1F
330
1
100
AcDbSymbolTableRecord
100
AcDbBlockTableRecord
  2
*Model_Space
340
22
  0
BLOCK_RECORD
  5
1B
330
1
100
AcDbSymbolTableRecord
100
AcDbBlockTableRecord
  2
*Paper_Space
340
1E
  0
BLOCK_RECORD
  5
23
330
1
100
AcDbSymbolTableRecord
100
AcDbBlockTableRecord
  2
*Paper_Space0
340
26
  0
BLOCK_RECORD
  5
73
330
1
100
AcDbSymbolTableRecord
100
AcDbBlockTableRecord
  2
D
340
0
  0
BLOCK_RECORD
  5
A5
330
1
100
AcDbSymbolTableRecord
100
AcDbBlockTableRecord
  2
SW_NOTE_0
340
0
102
{BLKREFS
331
AD
102
}
  0
BLOCK_RECORD
  5
AE
330
1
100
AcDbSymbolTableRecord
100
AcDbBlockTableRecord
  2
SW_NOTE_1
340
0
102
{BLKREFS
331
B5
102
}
  0
BLOCK_RECORD
  5
2C2
330
1
100
AcDbSymbolTableRecord
100
AcDbBlockTableRecord
  2
_D
340
0
  0
BLOCK_RECORD
  5
449
330
1
100
AcDbSymbolTableRecord
100
AcDbBlockTableRecord
  2
*D5
340
0
  0
BLOCK_RECORD
  5
494
330
1
100
AcDbSymbolTableRecord
100
AcDbBlockTableRecord
  2
*D6
340
0
  0
BLOCK_RECORD
  5
4A3
330
1
100
AcDbSymbolTableRecord
100
AcDbBlockTableRecord
  2
*D7
340
0
  0
BLOCK_RECORD
  5
4DD
330
1
100
AcDbSymbolTableRecord
100
AcDbBlockTableRecord
  2
*D8
340
0
  0
BLOCK_RECORD
  5
4EC
330
1
100
AcDbSymbolTableRecord
100
AcDbBlockTableRecord
  2
*D9
340
0
  0
BLOCK_RECORD
  5
506
330
1
100
AcDbSymbolTableRecord
100
AcDbBlockTableRecord
  2
*D10
340
0
  0
BLOCK_RECORD
  5
515
330
1
100
AcDbSymbolTableRecord
100
AcDbBlockTableRecord
  2
*D11
340
0
  0
BLOCK_RECORD
  5
540
330
1
100
AcDbSymbolTableRecord
100
AcDbBlockTableRecord
  2
*D12
340
0
  0
BLOCK_RECORD
  5
5E4
330
1
100
AcDbSymbolTableRecord
100
AcDbBlockTableRecord
  2
*D13
340
0
  0
ENDTAB
  0
ENDSEC
  0
SECTION
  2
BLOCKS
  0
BLOCK
  5
20
330
1F
100
AcDbEntity
  8
0
100
AcDbBlockBegin
  2
*Model_Space
 70
     0
 10
0.0
 20
0.0
 30
0.0
  3
*Model_Space
  1

  0
ENDBLK
  5
21
330
1F
100
AcDbEntity
  8
0
100
AcDbBlockEnd
  0
BLOCK
  5
1C
330
1B
100
AcDbEntity
 67
     1
  8
0
100
AcDbBlockBegin
  2
*Paper_Space
 70
     0
 10
0.0
 20
0.0
 30
0.0
  3
*Paper_Space
  1

  0
ENDBLK
  5
1D
330
1B
100
AcDbEntity
 67
     1
  8
0
100
AcDbBlockEnd
  0
BLOCK
  5
24
330
23
100
AcDbEntity
  8
0
100
AcDbBlockBegin
  2
*Paper_Space0
 70
     0
 10
0.0
 20
0.0
 30
0.0
  3
*Paper_Space0
  1

  0
ENDBLK
  5
25
330
23
100
AcDbEntity
  8
0
100
AcDbBlockEnd
  0
BLOCK
  5
74
330
73
100
AcDbEntity
  8
0
100
AcDbBlockBegin
  2
D
 70
     0
 10
0.0
 20
0.0
 30
0.0
  3
D
  1

  0
CIRCLE
  5
76
330
73
100
AcDbEntity
  8
FORMAT
100
AcDbCircle
 10
31.60339110637787
 20
0.6244098795826005
 30
0.0
 40
0.0174532499999967
  0
CIRCLE
  5
77
330
73
100
AcDbEntity
  8
FORMAT
100
AcDbCircle
 10
32.43436632794418
 20
0.6273875012279925
 30
0.0
 40
0.0174532499999964
  0
CIRCLE
  5
78
330
73
100
AcDbEntity
  8
FORMAT
100
AcDbCircle
 10
30.77339110637787
 20
0.6244098795826005
 30
0.0
 40
0.0174532472800571
  0
CIRCLE
  5
79
330
73
100
AcDbEntity
  8
FORMAT
100
AcDbCircle
 10
30.77339110637787
 20
0.6244098795826005
 30
0.0
 40
0.0174532500000001
  0
LINE
  5
7A
330
73
100
AcDbEntity
  8
FORMAT
  6
Continuous
370
    30
100
AcDbLine
 10
33.075
 20
21.10500000000001
 30
0.0
 11
0.2000000000000022
 21
21.105
 31
0.0
  0
LINE
  5
7B
330
73
100
AcDbEntity
  8
FORMAT
  6
Continuous
370
    30
100
AcDbLine
 10
0.2000000000000022
 20
21.105
 30
0.0
 11
0.2000000000000022
 21
0.0000000000000044
 31
0.0
  0
LINE
  5
7C
330
73
100
AcDbEntity
  8
FORMAT
  6
Continuous
370
    30
100
AcDbLine
 10
28.275
 20
20.23000000000005
 30
0.0
 11
28.275
 21
20.48000000000005
 31
0.0
  0
LINE
  5
7D
330
73
100
AcDbEntity
  8
FORMAT
  6
Continuous
370
    30
100
AcDbLine
 10
28.9
 20
20.23000000000005
 30
0.0
 11
28.9
 21
20.48000000000006
 31
0.0
  0
LINE
  5
7E
330
73
100
AcDbEntity
  8
FORMAT
  6
Continuous
370
    30
100
AcDbLine
 10
33.075
 20
0.0000000000000044
 30
0.0
 11
33.075
 21
21.10500000000001
 31
0.0
  0
LINE
  5
7F
330
73
100
AcDbEntity
  8
FORMAT
  6
Continuous
370
    30
100
AcDbLine
 10
32.02499999999999
 20
20.23000000000005
 30
0.0
 11
32.02499999999999
 21
20.48000000000005
 31
0.0
  0
LINE
  5
80
330
73
100
AcDbEntity
  8
FORMAT
  6
Continuous
370
    30
100
AcDbLine
 10
32.4625
 20
20.23000000000005
 30
0.0
 11
32.4625
 21
20.48000000000005
 31
0.0
  0
LINE
  5
81
330
73
100
AcDbEntity
  8
FORMAT
  6
Continuous
370
    40
100
AcDbLine
 10
27.825
 20
20.23000000000005
 30
0.0
 11
33.075
 21
20.23000000000005
 31
0.0
  0
LINE
  5
82
330
73
100
AcDbEntity
  8
FORMAT
  6
Continuous
370
    40
100
AcDbLine
 10
27.825
 20
20.23000000000005
 30
0.0
 11
27.825
 21
21.10500000000001
 31
0.0
  0
LINE
  5
83
330
73
100
AcDbEntity
  8
FORMAT
  6
Continuous
370
    30
100
AcDbLine
 10
33.075
 20
0.0000000000000044
 30
0.0
 11
0.2000000000000022
 21
0.0000000000000044
 31
0.0
  0
LINE
  5
84
330
73
100
AcDbEntity
  8
FORMAT
  6
Continuous
370
    30
100
AcDbLine
 10
25.8875
 20
0.0000000000000076
 30
0.0
 11
25.8875
 21
1.500000000000005
 31
0.0
  0
LINE
  5
85
330
73
100
AcDbEntity
  8
FORMAT
  6
Continuous
370
    30
100
AcDbLine
 10
30.075
 20
0.5000000000000072
 30
0.0
 11
33.075
 21
0.5000000000000072
 31
0.0
  0
LINE
  5
86
330
73
100
AcDbEntity
  8
FORMAT
  6
Continuous
370
    30
100
AcDbLine
 10
22.7625
 20
1.125000000000005
 30
0.0
 11
30.075
 21
1.125000000000005
 31
0.0
  0
LINE
  5
87
330
73
100
AcDbEntity
  8
FORMAT
  6
Continuous
370
    30
100
AcDbLine
 10
22.7625
 20
0.0000000000000076
 30
0.0
 11
22.7625
 21
1.500000000000005
 31
0.0
  0
LINE
  5
88
330
73
100
AcDbEntity
  8
FORMAT
  6
Continuous
370
    30
100
AcDbLine
 10
28.725
 20
0.9062000000000079
 30
0.0
 11
28.725
 21
1.500000000000005
 31
0.0
  0
LINE
  5
89
330
73
100
AcDbEntity
  8
FORMAT
  6
Continuous
370
    15
100
AcDbLine
 10
25.10385570751344
 20
0.0529622366790725
 30
0.0
 11
25.10385570751344
 21
0.887531843849992
 31
0.0
  0
LINE
  5
8A
330
73
100
AcDbEntity
  8
FORMAT
  6
Continuous
370
    30
100
AcDbLine
 10
22.7625
 20
1.500000000000005
 30
0.0
 11
33.075
 21
1.500000000000005
 31
0.0
  0
LINE
  5
8B
330
73
100
AcDbEntity
  8
FORMAT
  6
Continuous
370
    30
100
AcDbLine
 10
25.8875
 20
0.9062000000000079
 30
0.0
 11
30.075
 21
0.9062000000000079
 31
0.0
  0
LINE
  5
8C
330
73
100
AcDbEntity
  8
FORMAT
  6
Continuous
370
    30
100
AcDbLine
 10
27.325
 20
0.9062000000000079
 30
0.0
 11
27.325
 21
1.500000000000005
 31
0.0
  0
LINE
  5
8D
330
73
100
AcDbEntity
  8
FORMAT
100
AcDbLine
 10
24.325
 20
1.125000000000005
 30
0.0
 11
24.325
 21
1.500000000000005
 31
0.0
  0
LINE
  5
8E
330
73
100
AcDbEntity
  8
FORMAT
  6
Continuous
370
    30
100
AcDbLine
 10
27.325
 20
1.312500000000005
 30
0.0
 11
30.075
 21
1.312500000000005
 31
0.0
  0
LINE
  5
8F
330
73
100
AcDbEntity
  8
FORMAT
  6
Continuous
370
    30
100
AcDbLine
 10
30.075
 20
0.0000000000000055
 30
0.0
 11
30.075
 21
1.500000000000003
 31
0.0
  0
LINE
  5
90
330
73
100
AcDbEntity
  8
FORMAT
  6
Continuous
370
    30
100
AcDbLine
 10
33.075
 20
7.550000000000004
 30
0.0
 11
32.575
 21
7.550000000000004
 31
0.0
  0
LINE
  5
91
330
73
100
AcDbEntity
  8
FORMAT
  6
Continuous
370
    30
100
AcDbLine
 10
33.075
 20
9.550000000000009
 30
0.0
 11
32.575
 21
9.550000000000009
 31
0.0
  0
LINE
  5
92
330
73
100
AcDbEntity
  8
FORMAT
  6
Continuous
370
    30
100
AcDbLine
 10
33.075
 20
10.0
 30
0.0
 11
32.625
 21
10.0
 31
0.0
  0
LINE
  5
93
330
73
100
AcDbEntity
  8
FORMAT
  6
Continuous
100
AcDbLine
 10
32.575
 20
7.550000000000004
 30
0.0
 11
32.575
 21
9.550000000000009
 31
0.0
  0
LINE
  5
94
330
73
100
AcDbEntity
  8
FORMAT
  6
Continuous
100
AcDbLine
 10
32.625
 20
9.550000000000009
 30
0.0
 11
32.625
 21
10.0
 31
0.0
  0
LINE
  5
95
330
73
100
AcDbEntity
  8
FORMAT
  6
Continuous
370
    40
100
AcDbLine
 10
27.825
 20
20.48000000000005
 30
0.0
 11
33.075
 21
20.48000000000005
 31
0.0
  0
HATCH
  5
96
330
73
100
AcDbEntity
  8
FORMAT
  6
Continuous
100
AcDbHatch
 10
0.0
 20
0.0
 30
0.0
210
0.0
220
0.0
230
1.0
  2
SOLID
 70
     1
 71
     0
 91
        1
 92
        0
 93
        1
 72
     2
 10
30.77339110637787
 20
0.6244098795826005
 40
0.0174532472800566
 50
0.0
 51
360.0
 73
     1
 97
        0
 75
     0
 76
     1
 98
        1
 10
0.0
 20
0.0
450
        0
451
        0
460
0.0
461
0.0
452
        0
462
0.0
453
        0
470

  0
HATCH
  5
97
330
73
100
AcDbEntity
  8
FORMAT
  6
Continuous
100
AcDbHatch
 10
0.0
 20
0.0
 30
0.0
210
0.0
220
0.0
230
1.0
  2
SOLID
 70
     1
 71
     0
 91
        1
 92
        0
 93
        1
 72
     2
 10
31.60339110637787
 20
0.6244098795826005
 40
0.0174532499999962
 50
0.0
 51
360.0
 73
     1
 97
        0
 75
     0
 76
     1
 98
        1
 10
0.0
 20
0.0
450
        0
451
        0
460
0.0
461
0.0
452
        0
462
0.0
453
        0
470

  0
HATCH
  5
98
330
73
100
AcDbEntity
  8
FORMAT
  6
Continuous
100
AcDbHatch
 10
0.0
 20
0.0
 30
0.0
210
0.0
220
0.0
230
1.0
  2
SOLID
 70
     1
 71
     0
 91
        1
 92
        0
 93
        1
 72
     2
 10
32.43436632794418
 20
0.6273875012279925
 40
0.0174532499999959
 50
0.0
 51
360.0
 73
     1
 97
        0
 75
     0
 76
     1
 98
        1
 10
0.0
 20
0.0
450
        0
451
        0
460
0.0
461
0.0
452
        0
462
0.0
453
        0
470

  0
MTEXT
  5
9A
330
73
100
AcDbEntity
  8
FORMAT
100
AcDbMText
 10
30.44161720785566
 20
20.36319306818741
 30
0.0
 40
0.07
 41
0.0
 71
     2
 72
     1
  1
DESCRIPTION OF CHANGE
  7
SLDTEXTSTYLE0
 73
     1
 44
1.0
  0
MTEXT
  5
9C
330
73
100
AcDbEntity
  8
FORMAT
100
AcDbMText
 10
0.3406435258590261
 20
0.3651649014509443
 30
0.0
 40
0.17
 41
0.0
 71
     1
 72
     1
  1
NOTE:
  7
SLDTEXTSTYLE1
 73
     1
 44
1.0
  0
MTEXT
  5
9D
330
73
100
AcDbEntity
  8
FORMAT
100
AcDbMText
 10
28.07175603500805
 20
20.35913829976436
 30
0.0
 40
0.07
 41
0.0
 71
     2
 72
     1
  1
REV.
  7
SLDTEXTSTYLE0
 73
     1
 44
1.0
  0
MTEXT
  5
9E
330
73
100
AcDbEntity
  8
FORMAT
100
AcDbMText
 10
28.55857705076207
 20
20.3564104212415
 30
0.0
 40
0.07
 41
0.0
 71
     2
 72
     1
  1
DATE
  7
SLDTEXTSTYLE0
 73
     1
 44
1.0
  0
MTEXT
  5
9F
330
73
100
AcDbEntity
  8
FORMAT
100
AcDbMText
 10
32.25229754695327
 20
20.36759061973484
 30
0.0
 40
0.07
 41
0.0
 71
     2
 72
     1
  1
BY
  7
SLDTEXTSTYLE0
 73
     1
 44
1.0
  0
MTEXT
  5
A0
330
73
100
AcDbEntity
  8
FORMAT
100
AcDbMText
 10
32.74202674224478
 20
20.36759061973485
 30
0.0
 40
0.07
 41
0.0
 71
     2
 72
     1
  1
CHECK
  7
SLDTEXTSTYLE0
 73
     1
 44
1.0
  0
MTEXT
  5
A2
330
73
100
AcDbEntity
  8
FORMAT
100
AcDbMText
 10
31.11933798915107
 20
20.78173440267642
 30
0.0
 40
0.07
 41
0.0
 71
     1
 72
     1
  1
DO NOT DESTROY
  7
SLDTEXTSTYLE2
 73
     1
 44
1.0
  0
MTEXT
  5
A4
330
73
100
AcDbEntity
  8
FORMAT
100
AcDbMText
 10
27.97225845239749
 20
21.00209464394158
 30
0.0
 40
0.12
 41
0.0
 71
     1
 72
     1
  1
PROPERTY OF BOBRICK WASHROOM EQUIPMENT, INC.
  7
SLDTEXTSTYLE3
 73
     1
 44
1.0
  0
INSERT
  5
AD
330
73
100
AcDbEntity
  8
FORMAT
 62
     8
100
AcDbBlockReference
  2
SW_NOTE_0
 10
27.97281922236897
 20
20.98506755538077
 30
0.0
  0
INSERT
  5
B5
330
73
100
AcDbEntity
  8
FORMAT
 62
     8
100
AcDbBlockReference
  2
SW_NOTE_1
 10
30.60506208147322
 20
20.98202961599092
 30
0.0
  0
MTEXT
  5
B6
330
73
100
AcDbEntity
  8
FORMAT
100
AcDbMText
 10
28.0611725877304
 20
0.1724440845690909
 30
0.0
 40
0.07
 41
0.0
 71
     2
 72
     1
  1
PART NAME
  7
SLDTEXTSTYLE0
 73
     1
 44
1.0
  0
MTEXT
  5
B7
330
73
100
AcDbEntity
  8
FORMAT
100
AcDbMText
 10
30.37025885106279
 20
0.4692356211129586
 30
0.0
 40
0.07
 41
0.0
 71
     2
 72
     1
  1
DWG. NO.
  7
SLDTEXTSTYLE0
 73
     1
 44
1.0
  0
MTEXT
  5
B8
330
73
100
AcDbEntity
  8
FORMAT
100
AcDbMText
 10
22.97373483058121
 20
0.39799715317596
 30
0.0
 40
0.07
 41
0.0
 71
     1
 72
     1
  1
3.  ALL DIA's CONCENTRIC WITHIN .010 TIR
  7
SLDTEXTSTYLE1
 73
     1
 44
1.0
  0
MTEXT
  5
B9
330
73
100
AcDbEntity
  8
FORMAT
100
AcDbMText
 10
23.35604788375365
 20
1.016658214471895
 30
0.0
 40
0.07
 41
0.0
 71
     1
 72
     1
  1
TOLERANCES UNLESS OTHERWISE SPECIFIED
  7
SLDTEXTSTYLE1
 73
     1
 44
1.0
  0
MTEXT
  5
BA
330
73
100
AcDbEntity
  8
FORMAT
100
AcDbMText
 10
28.91120397397544
 20
1.230090288894468
 30
0.0
 40
0.06
 41
0.0
 71
     2
 72
     1
  1
PROD.
  7
SLDTEXTSTYLE0
 73
     1
 44
1.0
  0
MTEXT
  5
BB
330
73
100
AcDbEntity
  8
FORMAT
100
AcDbMText
 10
31.65312089127594
 20
0.6529667658515692
 30
0.0
 40
0.07
 41
0.0
 71
     1
 72
     1
  1
JACKSON, TN
  7
SLDTEXTSTYLE0
 73
     1
 44
1.0
  0
MTEXT
  5
BC
330
73
100
AcDbEntity
  8
FORMAT
100
AcDbMText
 10
22.97373483058121
 20
0.5972973626647788
 30
0.0
 40
0.07
 41
0.0
 71
     1
 72
     1
  1
2.  ALL MACH SURFACES 125 RMS.
  7
SLDTEXTSTYLE1
 73
     1
 44
1.0
  0
MTEXT
  5
BD
330
73
100
AcDbEntity
  8
FORMAT
100
AcDbMText
 10
30.18058231123797
 20
0.9912827556420925
 30
0.0
 40
0.1666666666666666
 41
0.0
 71
     1
 72
     1
  1
BOBRICK WASHROOM EQUIPMENT, INC.
  7
SLDTEXTSTYLE0
 73
     1
 44
1.0
  0
MTEXT
  5
BE
330
73
100
AcDbEntity
  8
FORMAT
100
AcDbMText
 10
30.8292227888737
 20
0.6520623907430573
 30
0.0
 40
0.07
 41
0.0
 71
     1
 72
     1
  1
LOS ANGELES
  7
SLDTEXTSTYLE0
 73
     1
 44
1.0
  0
MTEXT
  5
BF
330
73
100
AcDbEntity
  8
FORMAT
100
AcDbMText
 10
25.43552890673779
 20
0.8901757080132696
 30
0.0
 40
0.06
 41
0.0
 71
     1
 72
     1
  1
DEC
  7
SLDTEXTSTYLE1
 73
     1
 44
1.0
  0
MTEXT
  5
C0
330
73
100
AcDbEntity
  8
FORMAT
100
AcDbMText
 10
27.53571539410476
 20
1.234518794589696
 30
0.0
 40
0.06
 41
0.0
 71
     2
 72
     1
  1
DFTMN
  7
SLDTEXTSTYLE0
 73
     1
 44
1.0
  0
MTEXT
  5
C1
330
73
100
AcDbEntity
  8
FORMAT
100
AcDbMText
 10
28.93632776913067
 20
1.420874845871628
 30
0.0
 40
0.06
 41
0.0
 71
     2
 72
     1
  1
APPVD.
  7
SLDTEXTSTYLE0
 73
     1
 44
1.0
  0
MTEXT
  5
C3
330
73
100
AcDbEntity
  8
FORMAT
100
AcDbMText
 10
25.39863550404208
 20
0.7764046651472981
 30
0.0
 40
0.06
 41
0.0
 71
     1
 72
     1
  1
X = ± .1
  7
SLDTEXTSTYLE4
 73
     1
 44
1.0
  0
MTEXT
  5
C4
330
73
100
AcDbEntity
  8
FORMAT
100
AcDbMText
 10
25.43552890673779
 20
0.4394570642572756
 30
0.0
 40
0.06
 41
0.0
 71
     1
 72
     1
  1
FRAC
  7
SLDTEXTSTYLE1
 73
     1
 44
1.0
  0
MTEXT
  5
C6
330
73
100
AcDbEntity
  8
FORMAT
100
AcDbMText
 10
25.34403326586704
 20
0.6745105466752276
 30
0.0
 40
0.06
 41
0.0
 71
     1
 72
     1
  1
XX = ± .02
  7
SLDTEXTSTYLE5
 73
     1
 44
1.0
  0
MTEXT
  5
C7
330
73
100
AcDbEntity
  8
FORMAT
100
AcDbMText
 10
32.5003094452076
 20
0.6529667658515682
 30
0.0
 40
0.07
 41
0.0
 71
     1
 72
     1
  1
TORONTO
  7
SLDTEXTSTYLE0
 73
     1
 44
1.0
  0
MTEXT
  5
C8
330
73
100
AcDbEntity
  8
FORMAT
100
AcDbMText
 10
28.99535232586629
 20
1.02054003778839
 30
0.0
 40
0.06
 41
0.0
 71
     2
 72
     1
  1
REL.DATE
  7
SLDTEXTSTYLE0
 73
     1
 44
1.0
  0
MTEXT
  5
C9
330
73
100
AcDbEntity
  8
FORMAT
100
AcDbMText
 10
25.44952307514425
 20
0.3451894045223454
 30
0.0
 40
0.06
 41
0.0
 71
     1
 72
     1
  1
± 1/32
  7
SLDTEXTSTYLE1
 73
     1
 44
1.0
  0
MTEXT
  5
CA
330
73
100
AcDbEntity
  8
FORMAT
100
AcDbMText
 10
30.16994701697175
 20
0.655275435501623
 30
0.0
 40
0.07
 41
0.0
 71
     1
 72
     1
  1
NEW YORK
  7
SLDTEXTSTYLE0
 73
     1
 44
1.0
  0
MTEXT
  5
CB
330
73
100
AcDbEntity
  8
FORMAT
100
AcDbMText
 10
22.97373483058121
 20
0.7965975721535953
 30
0.0
 40
0.07
 41
0.0
 71
     1
 72
     1
  1
1.  DEBURR ALL CORNERS AND EDGES.
  7
SLDTEXTSTYLE1
 73
     1
 44
1.0
  0
MTEXT
  5
CC
330
73
100
AcDbEntity
  8
FORMAT
100
AcDbMText
 10
27.53506956824832
 20
1.420874845871627
 30
0.0
 40
0.06
 41
0.0
 71
     2
 72
     1
  1
SCALE
  7
SLDTEXTSTYLE0
 73
     1
 44
1.0
  0
MTEXT
  5
CD
330
73
100
AcDbEntity
  8
FORMAT
100
AcDbMText
 10
25.40881119275927
 20
0.2190078936720642
 30
0.0
 40
0.06
 41
0.0
 71
     1
 72
     1
  1
ANGLE
  7
SLDTEXTSTYLE1
 73
     1
 44
1.0
  0
MTEXT
  5
CE
330
73
100
AcDbEntity
  8
FORMAT
100
AcDbMText
 10
27.55631956540009
 20
1.026795269164697
 30
0.0
 40
0.06
 41
0.0
 71
     2
 72
     1
  1
CHECK
  7
SLDTEXTSTYLE0
 73
     1
 44
1.0
  0
MTEXT
  5
CF
330
73
100
AcDbEntity
  8
FORMAT
100
AcDbMText
 10
25.28500383248081
 20
0.5620235188609052
 30
0.0
 40
0.06
 41
0.0
 71
     1
 72
     1
  1
XXX = ± .010
  7
SLDTEXTSTYLE1
 73
     1
 44
1.0
  0
MTEXT
  5
D0
330
73
100
AcDbEntity
  8
FORMAT
100
AcDbMText
 10
25.45422755851495
 20
0.1247402339371439
 30
0.0
 40
0.06
 41
0.0
 71
     1
 72
     1
  1
± 1°
  7
SLDTEXTSTYLE1
 73
     1
 44
1.0
  0
MTEXT
  5
D1
330
73
100
AcDbEntity
  8
FORMAT
100
AcDbMText
 10
26.2343020645711
 20
1.025630599088518
 30
0.0
 40
0.06
 41
0.0
 71
     3
 72
     1
  1
FINISH
  7
SLDTEXTSTYLE0
 73
     1
 44
1.0
  0
MTEXT
  5
D2
330
73
100
AcDbEntity
  8
FORMAT
100
AcDbMText
 10
26.19822982127122
 20
1.443076586783654
 30
0.0
 40
0.06
 41
0.0
 71
     3
 72
     1
  1
MAT'L
  7
SLDTEXTSTYLE0
 73
     1
 44
1.0
  0
MTEXT
  5
D3
330
73
100
AcDbEntity
  8
FORMAT
100
AcDbMText
 10
23.66799991478947
 20
1.463251144221145
 30
0.0
 40
0.2916666666666666
 41
0.0
 71
     1
 72
     1
  1
D
  7
SLDTEXTSTYLE1
 73
     1
 44
1.0
  0
MTEXT
  5
D4
330
73
100
AcDbEntity
  8
FORMAT
100
AcDbMText
 10
22.90119417862591
 20
1.452644275012908
 30
0.0
 40
0.07
 41
0.0
 71
     1
 72
     1
  1
DRAWING SIZE
  7
SLDTEXTSTYLE1
 73
     1
 44
1.0
  0
MTEXT
  5
D5
330
73
100
AcDbEntity
  8
FORMAT
100
AcDbMText
 10
25.51453209472147
 20
1.449047053026664
 30
0.0
 40
0.07
 41
0.0
 71
     3
 72
     1
  1
3D MODEL REVISION
  7
SLDTEXTSTYLE0
 73
     1
 44
1.0
  0
ENDBLK
  5
75
330
73
100
AcDbEntity
  8
0
100
AcDbBlockEnd
  0
BLOCK
  5
A6
330
A5
100
AcDbEntity
  8
0
100
AcDbBlockBegin
  2
SW_NOTE_0
 70
     0
 10
0.0
 20
0.0
 30
0.0
  3
SW_NOTE_0
  1

  0
MTEXT
  5
A8
330
A5
100
AcDbEntity
  8
FORMAT
 62
     0
100
AcDbMText
 10
0.0
 20
0.0725100603621735
 30
0.0
 40
0.05625
 41
0.0
 71
     1
 72
     1
  1
NOTICE IS HEREBY GIVEN THAT THIS DRAWING IS THE
  7
SLDTEXTSTYLE1
 73
     1
 44
1.0
  0
MTEXT
  5
A9
330
A5
100
AcDbEntity
  8
FORMAT
 62
     0
100
AcDbMText
 10
0.0
 20
-0.1142399339526228
 30
0.0
 40
0.05625
 41
0.0
 71
     1
 72
     1
  1
THE PERSONS, PARTNERSHIP OR CORPORATION ACCEPTING
  7
SLDTEXTSTYLE1
 73
     1
 44
1.0
  0
MTEXT
  5
AA
330
A5
100
AcDbEntity
  8
FORMAT
 62
     0
100
AcDbMText
 10
0.0
 20
-0.207614931110021
 30
0.0
 40
0.05625
 41
0.0
 71
     1
 72
     1
  1
THIS DRAWING AGREES THAT ALL INFORMATION SET FORTH IN
  7
SLDTEXTSTYLE1
 73
     1
 44
1.0
  0
MTEXT
  5
AB
330
A5
100
AcDbEntity
  8
FORMAT
 62
     0
100
AcDbMText
 10
0.0
 20
-0.3009899282674191
 30
0.0
 40
0.05625
 41
0.0
 71
     1
 72
     1
  1
THIS DRAWING WILL BE HELD CONFIDENTIAL AND THAT IT WILL
  7
SLDTEXTSTYLE1
 73
     1
 44
1.0
  0
MTEXT
  5
AC
330
A5
100
AcDbEntity
  8
FORMAT
 62
     0
100
AcDbMText
 10
0.0
 20
-0.3943649254248173
 30
0.0
 40
0.05625
 41
0.0
 71
     1
 72
     1
  1
NOT BE DISCLOSED TO ANYONE OTHER THAN AN OFFICIAL OF
  7
SLDTEXTSTYLE1
 73
     1
 44
1.0
  0
ENDBLK
  5
A7
330
A5
100
AcDbEntity
  8
0
100
AcDbBlockEnd
  0
BLOCK
  5
AF
330
AE
100
AcDbEntity
  8
0
100
AcDbBlockBegin
  2
SW_NOTE_1
 70
     0
 10
0.0
 20
0.0
 30
0.0
  3
SW_NOTE_1
  1

  0
MTEXT
  5
B1
330
AE
100
AcDbEntity
  8
FORMAT
 62
     0
100
AcDbMText
 10
0.0
 20
0.0725100603621735
 30
0.0
 40
0.05625
 41
0.0
 71
     1
 72
     1
  1
THE UNITED STATES GOVERNMENT OR AN EMPLOYEE OF
  7
SLDTEXTSTYLE1
 73
     1
 44
1.0
  0
MTEXT
  5
B2
330
AE
100
AcDbEntity
  8
FORMAT
 62
     0
100
AcDbMText
 10
0.0
 20
-0.0208649367952247
 30
0.0
 40
0.05625
 41
0.0
 71
     1
 72
     1
  1
BOBRICK WASHROOM EQUIPMENT, INC.
  7
SLDTEXTSTYLE1
 73
     1
 44
1.0
  0
MTEXT
  5
B3
330
AE
100
AcDbEntity
  8
FORMAT
 62
     0
100
AcDbMText
 10
0.0
 20
-0.3009899282674191
 30
0.0
 40
0.05625
 41
0.0
 71
     1
 72
     1
  1
WHEN FINISHED WITH THIS DRAWING, RETURN TO BOBRICK
  7
SLDTEXTSTYLE1
 73
     1
 44
1.0
  0
MTEXT
  5
B4
330
AE
100
AcDbEntity
  8
FORMAT
 62
     0
100
AcDbMText
 10
0.0
 20
-0.3943649254248173
 30
0.0
 40
0.05625
 41
0.0
 71
     1
 72
     1
  1
WASHROOM EQUIPMENT, INC.
  7
SLDTEXTSTYLE1
 73
     1
 44
1.0
  0
ENDBLK
  5
B0
330
AE
100
AcDbEntity
  8
0
100
AcDbBlockEnd
  0
BLOCK
  5
2C3
330
2C2
100
AcDbEntity
  8
0
100
AcDbBlockBegin
  2
_D
 70
     0
 10
0.0
 20
0.0
 30
0.0
  3
_D
  1

  0
LINE
  5
43D
330
2C2
100
AcDbEntity
  8
Object
 62
     0
370
    -2
100
AcDbLine
 10
14.65416591657182
 20
13.89813672742908
 30
0.0
 11
14.65416591657182
 21
14.87788549983626
 31
0.0
  0
LINE
  5
43E
330
2C2
100
AcDbEntity
  8
Object
 62
     0
370
    -2
100
AcDbLine
 10
16.95116591657183
 20
13.92913672742905
 30
0.0
 11
16.95116591657183
 21
14.87788549983626
 31
0.0
  0
LINE
  5
43F
330
2C2
100
AcDbEntity
  8
Object
 62
     0
370
    -2
100
AcDbLine
 10
14.83416591657182
 20
14.87788549983626
 30
0.0
 11
15.59103683547907
 21
14.87788549983626
 31
0.0
  0
LINE
  5
440
330
2C2
100
AcDbEntity
  8
Object
 62
     0
370
    -2
100
AcDbLine
 10
16.77116591657183
 20
14.87788549983626
 30
0.0
 11
15.91603683547907
 21
14.87788549983626
 31
0.0
  0
SOLID
  5
441
330
2C2
100
AcDbEntity
  8
Object
 62
     0
100
AcDbTrace
 10
14.83416591657182
 20
14.90788549983626
 30
0.0
 11
14.83416591657182
 21
14.84788549983626
 31
0.0
 12
14.65416591657182
 22
14.87788549983626
 32
0.0
 13
14.65416591657182
 23
14.87788549983626
 33
0.0
  0
SOLID
  5
442
330
2C2
100
AcDbEntity
  8
Object
 62
     0
100
AcDbTrace
 10
16.77116591657183
 20
14.90788549983626
 30
0.0
 11
16.77116591657183
 21
14.84788549983626
 31
0.0
 12
16.95116591657183
 22
14.87788549983626
 32
0.0
 13
16.95116591657183
 23
14.87788549983626
 33
0.0
  0
MTEXT
  5
443
330
2C2
100
AcDbEntity
  8
Object
 62
     0
100
AcDbMText
 10
15.75353683547907
 20
14.94038549983626
 30
0.0
 40
0.125
 41
0.0
 71
     2
 72
     1
  1
\A1;4.59
  7
SLDTEXTSTYLE0
 73
     1
 44
1.0
  0
POINT
  5
444
330
2C2
100
AcDbEntity
  8
Defpoints
 62
     0
100
AcDbPoint
 10
14.65416591657182
 20
13.83563672742908
 30
0.0
  0
POINT
  5
445
330
2C2
100
AcDbEntity
  8
Defpoints
 62
     0
100
AcDbPoint
 10
16.95116591657183
 20
13.86663672742905
 30
0.0
  0
POINT
  5
446
330
2C2
100
AcDbEntity
  8
Defpoints
 62
     0
100
AcDbPoint
 10
16.95116591657183
 20
14.87788549983626
 30
0.0
  0
ENDBLK
  5
2C4
330
2C2
100
AcDbEntity
  8
0
100
AcDbBlockEnd
  0
BLOCK
  5
454
330
449
100
AcDbEntity
  8
0
100
AcDbBlockBegin
  2
*D5
 70
     1
 10
0.0
 20
0.0
 30
0.0
  3
*D5
  1

  0
LINE
  5
758
330
449
100
AcDbEntity
  8
DIMENSIONS
 62
     0
370
    -2
100
AcDbLine
 10
11.08424752639891
 20
17.68995706318647
 30
0.0
 11
11.08424752639891
 21
22.00715435461596
 31
0.0
  0
LINE
  5
759
330
449
100
AcDbEntity
  8
DIMENSIONS
 62
     0
370
    -2
100
AcDbLine
 10
24.74324772476317
 20
17.6899571658606
 30
0.0
 11
24.74324772476317
 21
22.00715435461596
 31
0.0
  0
LINE
  5
75A
330
449
100
AcDbEntity
  8
DIMENSIONS
 62
     0
370
    -2
100
AcDbLine
 10
11.33424752639891
 20
21.82715435461596
 30
0.0
 11
16.50882711302799
 21
21.82715435461596
 31
0.0
  0
LINE
  5
75B
330
449
100
AcDbEntity
  8
DIMENSIONS
 62
     0
370
    -2
100
AcDbLine
 10
24.49324772476316
 20
21.82715435461596
 30
0.0
 11
19.58596997017085
 21
21.82715435461596
 31
0.0
  0
SOLID
  5
75C
330
449
100
AcDbEntity
  8
DIMENSIONS
 62
     0
100
AcDbTrace
 10
11.33424752639891
 20
21.86882102128263
 30
0.0
 11
11.33424752639891
 21
21.7854876879493
 31
0.0
 12
11.08424752639891
 22
21.82715435461596
 32
0.0
 13
11.08424752639891
 23
21.82715435461596
 33
0.0
  0
SOLID
  5
75D
330
449
100
AcDbEntity
  8
DIMENSIONS
 62
     0
100
AcDbTrace
 10
24.49324772476316
 20
21.86882102128263
 30
0.0
 11
24.49324772476316
 21
21.7854876879493
 31
0.0
 12
24.74324772476317
 22
21.82715435461596
 32
0.0
 13
24.74324772476317
 23
21.82715435461596
 33
0.0
  0
MTEXT
  5
75E
330
449
100
AcDbEntity
  8
DIMENSIONS
 62
     0
100
AcDbMText
 10
18.04739854159942
 20
21.82715435461596
 30
0.0
 40
0.36
 41
0.0
 71
     5
 72
     1
  1
\A1;13 11/16"\P [345mm]
 73
     1
 44
1.0
  0
POINT
  5
75F
330
449
100
AcDbEntity
  8
Defpoints
 62
     0
100
AcDbPoint
 10
11.08424752639891
 20
17.50995706318647
 30
0.0
  0
POINT
  5
760
330
449
100
AcDbEntity
  8
Defpoints
 62
     0
100
AcDbPoint
 10
24.74324772476317
 20
17.5099571658606
 30
0.0
  0
POINT
  5
761
330
449
100
AcDbEntity
  8
Defpoints
 62
     0
100
AcDbPoint
 10
24.74324772476317
 20
21.82715435461596
 30
0.0
  0
ENDBLK
  5
455
330
449
100
AcDbEntity
  8
0
100
AcDbBlockEnd
  0
BLOCK
  5
4A0
330
494
100
AcDbEntity
  8
0
100
AcDbBlockBegin
  2
*D6
 70
     1
 10
0.0
 20
0.0
 30
0.0
  3
*D6
  1

  0
LINE
  5
762
330
494
100
AcDbEntity
  8
DIMENSIONS
 62
     0
370
    -2
100
AcDbLine
 10
24.88724772476317
 20
17.5459571658606
 30
0.0
 11
28.58156666779644
 21
17.5459571658606
 31
0.0
  0
LINE
  5
763
330
494
100
AcDbEntity
  8
DIMENSIONS
 62
     0
370
    -2
100
AcDbLine
 10
24.88724772476317
 20
9.025957165860599
 30
0.0
 11
28.58156666779644
 21
9.025957165860598
 31
0.0
  0
LINE
  5
764
330
494
100
AcDbEntity
  8
DIMENSIONS
 62
     0
370
    -2
100
AcDbLine
 10
28.40156666779643
 20
17.2959571658606
 30
0.0
 11
28.40156666779643
 21
13.98452859443203
 31
0.0
  0
LINE
  5
765
330
494
100
AcDbEntity
  8
DIMENSIONS
 62
     0
370
    -2
100
AcDbLine
 10
28.40156666779643
 20
9.275957165860598
 30
0.0
 11
28.40156666779643
 21
12.58738573728917
 31
0.0
  0
SOLID
  5
766
330
494
100
AcDbEntity
  8
DIMENSIONS
 62
     0
100
AcDbTrace
 10
28.35990000112977
 20
17.2959571658606
 30
0.0
 11
28.4432333344631
 21
17.2959571658606
 31
0.0
 12
28.40156666779643
 22
17.5459571658606
 32
0.0
 13
28.40156666779643
 23
17.5459571658606
 33
0.0
  0
SOLID
  5
767
330
494
100
AcDbEntity
  8
DIMENSIONS
 62
     0
100
AcDbTrace
 10
28.35990000112977
 20
9.275957165860598
 30
0.0
 11
28.4432333344631
 21
9.275957165860598
 31
0.0
 12
28.40156666779643
 22
9.025957165860598
 32
0.0
 13
28.40156666779643
 23
9.025957165860598
 33
0.0
  0
MTEXT
  5
768
330
494
100
AcDbEntity
  8
DIMENSIONS
 62
     0
100
AcDbMText
 10
28.40156666779643
 20
13.2859571658606
 30
0.0
 40
0.36
 41
0.0
 71
     5
 72
     1
  1
\A1;8 1/2"\P [215mm]
 73
     1
 44
1.0
  0
POINT
  5
769
330
494
100
AcDbEntity
  8
Defpoints
 62
     0
100
AcDbPoint
 10
24.70724772476317
 20
17.5459571658606
 30
0.0
  0
POINT
  5
76A
330
494
100
AcDbEntity
  8
Defpoints
 62
     0
100
AcDbPoint
 10
24.70724772476317
 20
9.025957165860599
 30
0.0
  0
POINT
  5
76B
330
494
100
AcDbEntity
  8
Defpoints
 62
     0
100
AcDbPoint
 10
28.40156666779643
 20
9.025957165860598
 30
0.0
  0
ENDBLK
  5
4A1
330
494
100
AcDbEntity
  8
0
100
AcDbBlockEnd
  0
BLOCK
  5
4AF
330
4A3
100
AcDbEntity
  8
0
100
AcDbBlockBegin
  2
*D7
 70
     1
 10
0.0
 20
0.0
 30
0.0
  3
*D7
  1

  0
LINE
  5
76C
330
4A3
100
AcDbEntity
  8
DIMENSIONS
 62
     0
370
    -2
100
AcDbLine
 10
35.32258481832762
 20
17.62442158025816
 30
0.0
 11
35.32258481832762
 21
19.5859709231656
 31
0.0
  0
LINE
  5
76D
330
4A3
100
AcDbEntity
  8
DIMENSIONS
 62
     0
370
    -2
100
AcDbLine
 10
39.91658480138112
 20
17.68642155736247
 30
0.0
 11
39.91658480138112
 21
19.5859709231656
 31
0.0
  0
LINE
  5
76E
330
4A3
100
AcDbEntity
  8
DIMENSIONS
 62
     0
370
    -2
100
AcDbLine
 10
35.57258481832762
 20
19.4059709231656
 30
0.0
 11
36.3381562384258
 21
19.4059709231656
 31
0.0
  0
LINE
  5
76F
330
4A3
100
AcDbEntity
  8
DIMENSIONS
 62
     0
370
    -2
100
AcDbLine
 10
39.66658480138112
 20
19.4059709231656
 30
0.0
 11
38.90101338128295
 21
19.4059709231656
 31
0.0
  0
SOLID
  5
770
330
4A3
100
AcDbEntity
  8
DIMENSIONS
 62
     0
100
AcDbTrace
 10
35.57258481832762
 20
19.44763758983226
 30
0.0
 11
35.57258481832762
 21
19.36430425649893
 31
0.0
 12
35.32258481832762
 22
19.4059709231656
 32
0.0
 13
35.32258481832762
 23
19.4059709231656
 33
0.0
  0
SOLID
  5
771
330
4A3
100
AcDbEntity
  8
DIMENSIONS
 62
     0
100
AcDbTrace
 10
39.66658480138112
 20
19.44763758983226
 30
0.0
 11
39.66658480138112
 21
19.36430425649893
 31
0.0
 12
39.91658480138112
 22
19.4059709231656
 32
0.0
 13
39.91658480138112
 23
19.4059709231656
 33
0.0
  0
MTEXT
  5
772
330
4A3
100
AcDbEntity
  8
DIMENSIONS
 62
     0
100
AcDbMText
 10
37.61958480985438
 20
19.77025663745131
 30
0.0
 40
0.36
 41
0.0
 71
     5
 72
     1
  1
\A1;4 5/8"
 73
     1
 44
1.0
  0
MTEXT
  5
773
330
4A3
100
AcDbEntity
  8
DIMENSIONS
 62
     0
100
AcDbMText
 10
37.61958480985438
 20
19.04168520887988
 30
0.0
 40
0.36
 41
0.0
 71
     5
 72
     1
  1
\A1;[115mm]
 73
     1
 44
1.0
  0
POINT
  5
774
330
4A3
100
AcDbEntity
  8
Defpoints
 62
     0
100
AcDbPoint
 10
35.32258481832762
 20
17.44442158025816
 30
0.0
  0
POINT
  5
775
330
4A3
100
AcDbEntity
  8
Defpoints
 62
     0
100
AcDbPoint
 10
39.91658480138112
 20
17.50642155736247
 30
0.0
  0
POINT
  5
776
330
4A3
100
AcDbEntity
  8
Defpoints
 62
     0
100
AcDbPoint
 10
39.91658480138112
 20
19.4059709231656
 30
0.0
  0
ENDBLK
  5
4B0
330
4A3
100
AcDbEntity
  8
0
100
AcDbBlockEnd
  0
BLOCK
  5
4E9
330
4DD
100
AcDbEntity
  8
0
100
AcDbBlockBegin
  2
*D8
 70
     1
 10
0.0
 20
0.0
 30
0.0
  3
*D8
  1

  0
LINE
  5
777
330
4DD
100
AcDbEntity
  8
DIMENSIONS
 62
     0
370
    -2
100
AcDbLine
 10
40.68248277785238
 20
11.2159571658606
 30
0.0
 11
43.30443955487907
 21
11.2159571658606
 31
0.0
  0
LINE
  5
778
330
4DD
100
AcDbEntity
  8
DIMENSIONS
 62
     0
370
    -2
100
AcDbLine
 10
40.70833060195442
 20
15.7159571658606
 30
0.0
 11
43.30443955487907
 21
15.7159571658606
 31
0.0
  0
LINE
  5
779
330
4DD
100
AcDbEntity
  8
DIMENSIONS
 62
     0
370
    -2
100
AcDbLine
 10
43.12443955487907
 20
11.4659571658606
 30
0.0
 11
43.12443955487907
 21
12.73738573728917
 31
0.0
  0
LINE
  5
77A
330
4DD
100
AcDbEntity
  8
DIMENSIONS
 62
     0
370
    -2
100
AcDbLine
 10
43.12443955487907
 20
15.4659571658606
 30
0.0
 11
43.12443955487907
 21
14.19452859443203
 31
0.0
  0
SOLID
  5
77B
330
4DD
100
AcDbEntity
  8
DIMENSIONS
 62
     0
100
AcDbTrace
 10
43.08277288821241
 20
11.4659571658606
 30
0.0
 11
43.16610622154573
 21
11.4659571658606
 31
0.0
 12
43.12443955487907
 22
11.2159571658606
 32
0.0
 13
43.12443955487907
 23
11.2159571658606
 33
0.0
  0
SOLID
  5
77C
330
4DD
100
AcDbEntity
  8
DIMENSIONS
 62
     0
100
AcDbTrace
 10
43.08277288821241
 20
15.4659571658606
 30
0.0
 11
43.16610622154573
 21
15.4659571658606
 31
0.0
 12
43.12443955487907
 22
15.7159571658606
 32
0.0
 13
43.12443955487907
 23
15.7159571658606
 33
0.0
  0
MTEXT
  5
77D
330
4DD
100
AcDbEntity
  8
DIMENSIONS
 62
     0
100
AcDbMText
 10
43.12443955487907
 20
13.83024288014632
 30
0.0
 40
0.36
 41
0.0
 71
     5
 72
     1
  1
\A1;4 1/2"
 73
     1
 44
1.0
  0
MTEXT
  5
77E
330
4DD
100
AcDbEntity
  8
DIMENSIONS
 62
     0
100
AcDbMText
 10
43.12443955487907
 20
13.10167145157489
 30
0.0
 40
0.36
 41
0.0
 71
     5
 72
     1
  1
\A1;[115mm]
 73
     1
 44
1.0
  0
POINT
  5
77F
330
4DD
100
AcDbEntity
  8
Defpoints
 62
     0
100
AcDbPoint
 10
40.50248277785238
 20
11.2159571658606
 30
0.0
  0
POINT
  5
780
330
4DD
100
AcDbEntity
  8
Defpoints
 62
     0
100
AcDbPoint
 10
40.52833060195442
 20
15.7159571658606
 30
0.0
  0
POINT
  5
781
330
4DD
100
AcDbEntity
  8
Defpoints
 62
     0
100
AcDbPoint
 10
43.12443955487907
 20
15.7159571658606
 30
0.0
  0
ENDBLK
  5
4EA
330
4DD
100
AcDbEntity
  8
0
100
AcDbBlockEnd
  0
BLOCK
  5
4F8
330
4EC
100
AcDbEntity
  8
0
100
AcDbBlockBegin
  2
*D9
 70
     1
 10
0.0
 20
0.0
 30
0.0
  3
*D9
  1

  0
LINE
  5
782
330
4EC
100
AcDbEntity
  8
DIMENSIONS
 62
     0
370
    -2
100
AcDbLine
 10
40.68248277785238
 20
11.2159571658606
 30
0.0
 11
43.30443955487907
 21
11.2159571658606
 31
0.0
  0
LINE
  5
783
330
4EC
100
AcDbEntity
  8
DIMENSIONS
 62
     0
370
    -2
100
AcDbLine
 10
40.06058480225619
 20
9.025957177743983
 30
0.0
 11
43.30443955487907
 21
9.025957177743983
 31
0.0
  0
LINE
  5
784
330
4EC
100
AcDbEntity
  8
DIMENSIONS
 62
     0
370
    -2
100
AcDbLine
 10
43.12443955487907
 20
10.9659571658606
 30
0.0
 11
43.12443955487907
 21
10.84952860037372
 31
0.0
  0
LINE
  5
785
330
4EC
100
AcDbEntity
  8
DIMENSIONS
 62
     0
370
    -2
100
AcDbLine
 10
43.12443955487907
 20
9.275957177743983
 30
0.0
 11
43.12443955487907
 21
9.392385743230864
 31
0.0
  0
SOLID
  5
786
330
4EC
100
AcDbEntity
  8
DIMENSIONS
 62
     0
100
AcDbTrace
 10
43.08277288821241
 20
10.9659571658606
 30
0.0
 11
43.16610622154573
 21
10.9659571658606
 31
0.0
 12
43.12443955487907
 22
11.2159571658606
 32
0.0
 13
43.12443955487907
 23
11.2159571658606
 33
0.0
  0
SOLID
  5
787
330
4EC
100
AcDbEntity
  8
DIMENSIONS
 62
     0
100
AcDbTrace
 10
43.08277288821241
 20
9.275957177743983
 30
0.0
 11
43.16610622154573
 21
9.275957177743983
 31
0.0
 12
43.12443955487907
 22
9.025957177743983
 32
0.0
 13
43.12443955487907
 23
9.025957177743983
 33
0.0
  0
MTEXT
  5
788
330
4EC
100
AcDbEntity
  8
DIMENSIONS
 62
     0
100
AcDbMText
 10
43.12443955487907
 20
10.48524288608801
 30
0.0
 40
0.36
 41
0.0
 71
     5
 72
     1
  1
\A1;2 3/16"
 73
     1
 44
1.0
  0
MTEXT
  5
789
330
4EC
100
AcDbEntity
  8
DIMENSIONS
 62
     0
100
AcDbMText
 10
43.12443955487907
 20
9.756671457516585
 30
0.0
 40
0.36
 41
0.0
 71
     5
 72
     1
  1
\A1;[55mm]
 73
     1
 44
1.0
  0
POINT
  5
78A
330
4EC
100
AcDbEntity
  8
Defpoints
 62
     0
100
AcDbPoint
 10
40.50248277785238
 20
11.2159571658606
 30
0.0
  0
POINT
  5
78B
330
4EC
100
AcDbEntity
  8
Defpoints
 62
     0
100
AcDbPoint
 10
39.8805848022562
 20
9.025957177743983
 30
0.0
  0
POINT
  5
78C
330
4EC
100
AcDbEntity
  8
Defpoints
 62
     0
100
AcDbPoint
 10
43.12443955487907
 20
9.025957177743983
 30
0.0
  0
ENDBLK
  5
4F9
330
4EC
100
AcDbEntity
  8
0
100
AcDbBlockEnd
  0
BLOCK
  5
512
330
506
100
AcDbEntity
  8
0
100
AcDbBlockBegin
  2
*D10
 70
     1
 10
0.0
 20
0.0
 30
0.0
  3
*D10
  1

  0
LINE
  5
78D
330
506
100
AcDbEntity
  8
DIMENSIONS
 62
     0
370
    -2
100
AcDbLine
 10
12.19574743292381
 20
10.16142171471873
 30
0.0
 11
12.19574743292381
 21
6.184300393023598
 31
0.0
  0
LINE
  5
78E
330
506
100
AcDbEntity
  8
DIMENSIONS
 62
     0
370
    -2
100
AcDbLine
 10
17.03781266363974
 20
10.16142171471873
 30
0.0
 11
17.03781266363974
 21
6.184300393023598
 31
0.0
  0
LINE
  5
78F
330
506
100
AcDbEntity
  8
DIMENSIONS
 62
     0
370
    -2
100
AcDbLine
 10
12.44574743292381
 20
6.364300393023597
 30
0.0
 11
13.22392290542463
 21
6.364300393023597
 31
0.0
  0
LINE
  5
790
330
506
100
AcDbEntity
  8
DIMENSIONS
 62
     0
370
    -2
100
AcDbLine
 10
16.78781266363974
 20
6.364300393023597
 30
0.0
 11
16.00963719113892
 21
6.364300393023597
 31
0.0
  0
SOLID
  5
791
330
506
100
AcDbEntity
  8
DIMENSIONS
 62
     0
100
AcDbTrace
 10
12.44574743292381
 20
6.405967059690264
 30
0.0
 11
12.44574743292381
 21
6.32263372635693
 31
0.0
 12
12.19574743292381
 22
6.364300393023597
 32
0.0
 13
12.19574743292381
 23
6.364300393023597
 33
0.0
  0
SOLID
  5
792
330
506
100
AcDbEntity
  8
DIMENSIONS
 62
     0
100
AcDbTrace
 10
16.78781266363974
 20
6.405967059690264
 30
0.0
 11
16.78781266363974
 21
6.32263372635693
 31
0.0
 12
17.03781266363974
 22
6.364300393023597
 32
0.0
 13
17.03781266363974
 23
6.364300393023597
 33
0.0
  0
MTEXT
  5
793
330
506
100
AcDbEntity
  8
DIMENSIONS
 62
     0
100
AcDbMText
 10
14.61678004828178
 20
6.728586107309311
 30
0.0
 40
0.36
 41
0.0
 71
     5
 72
     1
  1
\A1;4 13/16"
 73
     1
 44
1.0
  0
MTEXT
  5
794
330
506
100
AcDbEntity
  8
DIMENSIONS
 62
     0
100
AcDbMText
 10
14.61678004828178
 20
6.000014678737883
 30
0.0
 40
0.36
 41
0.0
 71
     5
 72
     1
  1
\A1;[125mm]
 73
     1
 44
1.0
  0
POINT
  5
795
330
506
100
AcDbEntity
  8
Defpoints
 62
     0
100
AcDbPoint
 10
12.19574743292381
 20
10.34142171471873
 30
0.0
  0
POINT
  5
796
330
506
100
AcDbEntity
  8
Defpoints
 62
     0
100
AcDbPoint
 10
17.03781266363974
 20
10.34142171471873
 30
0.0
  0
POINT
  5
797
330
506
100
AcDbEntity
  8
Defpoints
 62
     0
100
AcDbPoint
 10
17.03781266363974
 20
6.364300393023597
 30
0.0
  0
ENDBLK
  5
513
330
506
100
AcDbEntity
  8
0
100
AcDbBlockEnd
  0
BLOCK
  5
521
330
515
100
AcDbEntity
  8
0
100
AcDbBlockBegin
  2
*D11
 70
     1
 10
0.0
 20
0.0
 30
0.0
  3
*D11
  1

  0
LINE
  5
798
330
515
100
AcDbEntity
  8
DIMENSIONS
 62
     0
370
    -2
100
AcDbLine
 10
12.91374772476317
 20
15.9859571658606
 30
0.0
 11
12.91374772476317
 21
19.77737014458611
 31
0.0
  0
LINE
  5
799
330
515
100
AcDbEntity
  8
DIMENSIONS
 62
     0
370
    -2
100
AcDbLine
 10
22.91374772476317
 20
15.9859571658606
 30
0.0
 11
22.91374772476317
 21
19.77737014458611
 31
0.0
  0
LINE
  5
79A
330
515
100
AcDbEntity
  8
DIMENSIONS
 62
     0
370
    -2
100
AcDbLine
 10
13.16374772476317
 20
19.59737014458611
 30
0.0
 11
16.36904262484555
 21
19.59737014458611
 31
0.0
  0
LINE
  5
79B
330
515
100
AcDbEntity
  8
DIMENSIONS
 62
     0
370
    -2
100
AcDbLine
 10
22.66374772476317
 20
19.59737014458611
 30
0.0
 11
19.29189976770269
 21
19.59737014458611
 31
0.0
  0
SOLID
  5
79C
330
515
100
AcDbEntity
  8
DIMENSIONS
 62
     0
100
AcDbTrace
 10
13.16374772476317
 20
19.63903681125278
 30
0.0
 11
13.16374772476317
 21
19.55570347791945
 31
0.0
 12
12.91374772476317
 22
19.59737014458611
 32
0.0
 13
12.91374772476317
 23
19.59737014458611
 33
0.0
  0
SOLID
  5
79D
330
515
100
AcDbEntity
  8
DIMENSIONS
 62
     0
100
AcDbTrace
 10
22.66374772476317
 20
19.63903681125278
 30
0.0
 11
22.66374772476317
 21
19.55570347791945
 31
0.0
 12
22.91374772476317
 22
19.59737014458611
 32
0.0
 13
22.91374772476317
 23
19.59737014458611
 33
0.0
  0
MTEXT
  5
79E
330
515
100
AcDbEntity
  8
DIMENSIONS
 62
     0
100
AcDbMText
 10
17.83047119627411
 20
19.59737014458611
 30
0.0
 40
0.36
 41
0.0
 71
     5
 72
     1
  1
\A1;10"\P [255mm]
 73
     1
 44
1.0
  0
POINT
  5
79F
330
515
100
AcDbEntity
  8
Defpoints
 62
     0
100
AcDbPoint
 10
12.91374772476317
 20
15.8059571658606
 30
0.0
  0
POINT
  5
7A0
330
515
100
AcDbEntity
  8
Defpoints
 62
     0
100
AcDbPoint
 10
22.91374772476317
 20
15.8059571658606
 30
0.0
  0
POINT
  5
7A1
330
515
100
AcDbEntity
  8
Defpoints
 62
     0
100
AcDbPoint
 10
22.91374772476317
 20
19.59737014458611
 30
0.0
  0
ENDBLK
  5
522
330
515
100
AcDbEntity
  8
0
100
AcDbBlockEnd
  0
BLOCK
  5
54D
330
540
100
AcDbEntity
  8
0
100
AcDbBlockBegin
  2
*D12
 70
     1
 10
0.0
 20
0.0
 30
0.0
  3
*D12
  1

  0
LINE
  5
7A2
330
540
100
AcDbEntity
  8
DIMENSIONS
 62
     0
370
    -2
100
AcDbLine
 10
24.88724772476317
 20
9.025957165860599
 30
0.0
 11
26.56610960191938
 21
9.025957165860599
 31
0.0
  0
LINE
  5
7A3
330
540
100
AcDbEntity
  8
DIMENSIONS
 62
     0
370
    -2
100
AcDbLine
 10
23.8212477247632
 20
10.21642163195472
 30
0.0
 11
26.56610960191938
 21
10.21642163195472
 31
0.0
  0
LINE
  5
7A4
330
540
100
AcDbEntity
  8
DIMENSIONS
 62
     0
370
    -2
100
AcDbLine
 10
26.38610960191938
 20
10.46642163195472
 30
0.0
 11
26.38610960191938
 21
10.71642163195472
 31
0.0
  0
LINE
  5
7A5
330
540
100
AcDbEntity
  8
DIMENSIONS
 62
     0
370
    -2
100
AcDbLine
 10
26.38610960191938
 20
8.775957165860599
 30
0.0
 11
26.38610960191938
 21
7.070526495054383
 31
0.0
  0
LINE
  5
7A6
330
540
100
AcDbEntity
  8
DIMENSIONS
 62
     0
370
    -2
100
AcDbLine
 10
26.38610960191938
 20
7.070526495054383
 30
0.0
 11
26.13610960191938
 21
7.070526495054383
 31
0.0
  0
SOLID
  5
7A7
330
540
100
AcDbEntity
  8
DIMENSIONS
 62
     0
100
AcDbTrace
 10
26.34444293525272
 20
10.46642163195472
 30
0.0
 11
26.42777626858605
 21
10.46642163195472
 31
0.0
 12
26.38610960191938
 22
10.21642163195472
 32
0.0
 13
26.38610960191938
 23
10.21642163195472
 33
0.0
  0
SOLID
  5
7A8
330
540
100
AcDbEntity
  8
DIMENSIONS
 62
     0
100
AcDbTrace
 10
26.34444293525272
 20
8.775957165860599
 30
0.0
 11
26.42777626858605
 21
8.775957165860599
 31
0.0
 12
26.38610960191938
 22
9.025957165860599
 32
0.0
 13
26.38610960191938
 23
9.025957165860599
 33
0.0
  0
MTEXT
  5
7A9
330
540
100
AcDbEntity
  8
DIMENSIONS
 62
     0
100
AcDbMText
 10
24.84610960191938
 20
7.070526495054387
 30
0.0
 40
0.36
 41
0.0
 71
     5
 72
     1
  1
\A1;1 3/16"\P [30mm]
 73
     1
 44
1.0
  0
POINT
  5
7AA
330
540
100
AcDbEntity
  8
Defpoints
 62
     0
100
AcDbPoint
 10
24.70724772476317
 20
9.025957165860599
 30
0.0
  0
POINT
  5
7AB
330
540
100
AcDbEntity
  8
Defpoints
 62
     0
100
AcDbPoint
 10
23.64124772476321
 20
10.21642163195472
 30
0.0
  0
POINT
  5
7AC
330
540
100
AcDbEntity
  8
Defpoints
 62
     0
100
AcDbPoint
 10
26.38610960191938
 20
10.21642163195472
 30
0.0
  0
ENDBLK
  5
54E
330
540
100
AcDbEntity
  8
0
100
AcDbBlockEnd
  0
BLOCK
  5
5F0
330
5E4
100
AcDbEntity
  8
0
100
AcDbBlockBegin
  2
*D13
 70
     1
 10
0.0
 20
0.0
 30
0.0
  3
*D13
  1

  0
LINE
  5
7AD
330
5E4
100
AcDbEntity
  8
DIMENSIONS
 62
     0
370
    -2
100
AcDbLine
 10
10.9402479105196
 20
9.025957177743983
 30
0.0
 11
8.557029244316344
 21
9.025957177743983
 31
0.0
  0
LINE
  5
7AE
330
5E4
100
AcDbEntity
  8
DIMENSIONS
 62
     0
370
    -2
100
AcDbLine
 10
11.35716822717175
 20
13.40175791874442
 30
0.0
 11
8.557029244316346
 21
13.40175791874442
 31
0.0
  0
LINE
  5
7AF
330
5E4
100
AcDbEntity
  8
DIMENSIONS
 62
     0
370
    -2
100
AcDbLine
 10
8.737029244316344
 20
9.275957177743983
 30
0.0
 11
8.737029244316344
 21
10.48528611967277
 31
0.0
  0
LINE
  5
7B0
330
5E4
100
AcDbEntity
  8
DIMENSIONS
 62
     0
370
    -2
100
AcDbLine
 10
8.737029244316346
 20
13.15175791874442
 30
0.0
 11
8.737029244316344
 21
11.94242897681563
 31
0.0
  0
SOLID
  5
7B1
330
5E4
100
AcDbEntity
  8
DIMENSIONS
 62
     0
100
AcDbTrace
 10
8.695362577649678
 20
9.275957177743983
 30
0.0
 11
8.77869591098301
 21
9.275957177743983
 31
0.0
 12
8.737029244316344
 22
9.025957177743983
 32
0.0
 13
8.737029244316344
 23
9.025957177743983
 33
0.0
  0
SOLID
  5
7B2
330
5E4
100
AcDbEntity
  8
DIMENSIONS
 62
     0
100
AcDbTrace
 10
8.69536257764968
 20
13.15175791874442
 30
0.0
 11
8.778695910983012
 21
13.15175791874442
 31
0.0
 12
8.737029244316346
 22
13.40175791874442
 32
0.0
 13
8.737029244316346
 23
13.40175791874442
 33
0.0
  0
MTEXT
  5
7B3
330
5E4
100
AcDbEntity
  8
DIMENSIONS
 62
     0
100
AcDbMText
 10
8.737029244316342
 20
11.57814326252992
 30
0.0
 40
0.36
 41
0.0
 71
     5
 72
     1
  1
\A1;4 3/8"
 73
     1
 44
1.0
  0
MTEXT
  5
7B4
330
5E4
100
AcDbEntity
  8
DIMENSIONS
 62
     0
100
AcDbMText
 10
8.737029244316342
 20
10.84957183395849
 30
0.0
 40
0.36
 41
0.0
 71
     5
 72
     1
  1
\A1;[110mm]
 73
     1
 44
1.0
  0
POINT
  5
7B5
330
5E4
100
AcDbEntity
  8
Defpoints
 62
     0
100
AcDbPoint
 10
11.1202479105196
 20
9.025957177743983
 30
0.0
  0
POINT
  5
7B6
330
5E4
100
AcDbEntity
  8
Defpoints
 62
     0
100
AcDbPoint
 10
11.53716822717175
 20
13.40175791874442
 30
0.0
  0
POINT
  5
7B7
330
5E4
100
AcDbEntity
  8
Defpoints
 62
     0
100
AcDbPoint
 10
8.737029244316346
 20
13.40175791874442
 30
0.0
  0
ENDBLK
  5
5F1
330
5E4
100
AcDbEntity
  8
0
100
AcDbBlockEnd
  0
ENDSEC
  0
SECTION
  2
ENTITIES
  0
LINE
  5
168
330
1F
100
AcDbEntity
  8
Object
  6
Continuous
370
    15
100
AcDbLine
 10
23.63174801660253
 20
13.90175791874442
 30
0.0
 11
18.79574774915696
 21
13.90175791874442
 31
0.0
  0
LINE
  5
169
330
1F
100
AcDbEntity
  8
Object
  6
Continuous
370
    15
100
AcDbLine
 10
17.03174770036938
 20
13.90175791874442
 30
0.0
 11
12.19574743292381
 21
13.90175791874442
 31
0.0
  0
LINE
  5
16A
330
1F
100
AcDbEntity
  8
Object
  6
Continuous
370
    15
100
AcDbLine
 10
12.19574743292381
 20
12.90175789416337
 30
0.0
 11
17.03174770036938
 21
12.90175789416337
 31
0.0
  0
LINE
  5
16B
330
1F
100
AcDbEntity
  8
Object
  6
Continuous
370
    15
100
AcDbLine
 10
18.79574774915696
 20
12.90175789416337
 30
0.0
 11
23.63174801660253
 21
12.90175789416337
 31
0.0
  0
CIRCLE
  5
16C
330
1F
100
AcDbEntity
  8
Object
  6
Continuous
370
    15
100
AcDbCircle
 10
17.9137477247632
 20
16.21642163195472
 30
0.0
 40
0.4549999999999983
  0
LINE
  5
16D
330
1F
100
AcDbEntity
  8
Object
  6
Continuous
370
    15
100
AcDbLine
 10
11.09138013733572
 20
9.446957220982227
 30
0.0
 11
11.08022069291723
 21
9.38366659212097
 31
0.0
  0
LINE
  5
16E
330
1F
100
AcDbEntity
  8
Object
  6
Continuous
370
    15
100
AcDbLine
 10
11.08022069291723
 20
9.248247596492763
 30
0.0
 11
11.09138013733572
 21
9.184957260961454
 31
0.0
  0
LINE
  5
16F
330
1F
100
AcDbEntity
  8
Object
  6
Continuous
370
    15
100
AcDbLine
 10
11.09138013733572
 20
9.184957260961454
 30
0.0
 11
11.1137477189435
 21
9.184957260961454
 31
0.0
  0
LINE
  5
170
330
1F
100
AcDbEntity
  8
Object
  6
Continuous
370
    15
100
AcDbLine
 10
11.1137477189435
 20
9.446957220982227
 30
0.0
 11
11.09138013733572
 21
9.446957220982227
 31
0.0
  0
ARC
  5
171
330
1F
100
AcDbEntity
  8
Object
  6
Continuous
370
    15
100
AcDbCircle
 10
11.10976482301213
 20
9.378457165860538
 30
0.0
 40
0.0300000000000029
100
AcDbArc
 50
169.9999999999966
 51
180.0
  0
ARC
  5
172
330
1F
100
AcDbEntity
  8
Object
  6
Continuous
370
    15
100
AcDbCircle
 10
11.10976482301213
 20
9.253457165860538
 30
0.0
 40
0.0300000000000029
100
AcDbArc
 50
180.0
 51
189.9999999999975
  0
LINE
  5
173
330
1F
100
AcDbEntity
  8
Object
  6
Continuous
370
    15
100
AcDbLine
 10
11.07976485818308
 20
9.378457052302021
 30
0.0
 11
11.07976485818308
 21
9.253457136311716
 31
0.0
  0
LINE
  5
174
330
1F
100
AcDbEntity
  8
Object
  6
Continuous
370
    15
100
AcDbLine
 10
24.73611531219063
 20
9.446957220982227
 30
0.0
 11
24.71374773058284
 21
9.446957220982227
 31
0.0
  0
LINE
  5
175
330
1F
100
AcDbEntity
  8
Object
  6
Continuous
370
    15
100
AcDbLine
 10
24.71374773058284
 20
9.184957260961454
 30
0.0
 11
24.73611531219063
 21
9.184957260961454
 31
0.0
  0
LINE
  5
176
330
1F
100
AcDbEntity
  8
Object
  6
Continuous
370
    15
100
AcDbLine
 10
24.73611531219063
 20
9.184957260961454
 30
0.0
 11
24.7472747566091
 21
9.248247596492763
 31
0.0
  0
LINE
  5
177
330
1F
100
AcDbEntity
  8
Object
  6
Continuous
370
    15
100
AcDbLine
 10
24.7472747566091
 20
9.38366659212097
 30
0.0
 11
24.73611531219063
 21
9.446957220982227
 31
0.0
  0
ARC
  5
178
330
1F
100
AcDbEntity
  8
Object
  6
Continuous
370
    15
100
AcDbCircle
 10
24.71773062651427
 20
9.253457165860631
 30
0.0
 40
0.0300000000000011
100
AcDbArc
 50
350.0000000000029
 51
0.0
  0
ARC
  5
179
330
1F
100
AcDbEntity
  8
Object
  6
Continuous
370
    15
100
AcDbCircle
 10
24.71773062651427
 20
9.378457165860631
 30
0.0
 40
0.0300000000000011
100
AcDbArc
 50
0.0
 51
10.00000000000456
  0
LINE
  5
17A
330
1F
100
AcDbEntity
  8
Object
  6
Continuous
370
    15
100
AcDbLine
 10
24.74773059134327
 20
9.253457136311716
 30
0.0
 11
24.74773059134327
 21
9.378457052302021
 31
0.0
  0
CIRCLE
  5
17B
330
1F
100
AcDbEntity
  8
Object
  6
Continuous
370
    15
100
AcDbCircle
 10
12.91374772476317
 20
15.7159571658606
 30
0.0
 40
0.1099999999999994
  0
CIRCLE
  5
17C
330
1F
100
AcDbEntity
  8
Object
  6
Continuous
370
    15
100
AcDbCircle
 10
22.91374772476317
 20
15.7159571658606
 30
0.0
 40
0.1099999999999959
  0
CIRCLE
  5
17D
330
1F
100
AcDbEntity
  8
Object
  6
Continuous
370
    15
100
AcDbCircle
 10
12.91374772476317
 20
11.2159571658606
 30
0.0
 40
0.1099999999999994
  0
CIRCLE
  5
17E
330
1F
100
AcDbEntity
  8
Object
  6
Continuous
370
    15
100
AcDbCircle
 10
22.91374772476317
 20
11.2159571658606
 30
0.0
 40
0.1099999999999959
  0
LINE
  5
17F
330
1F
100
AcDbEntity
  8
Object
  6
Continuous
370
    15
100
AcDbLine
 10
17.91324772475145
 20
9.043957076474285
 30
0.0
 11
17.91424772477489
 21
9.043957076474285
 31
0.0
  0
LINE
  5
180
330
1F
100
AcDbEntity
  8
Object
  6
Continuous
370
    15
100
AcDbLine
 10
11.1202479105194
 20
17.50642155736247
 30
0.0
 11
11.18229951369399
 21
17.44436995418789
 31
0.0
  0
LINE
  5
181
330
1F
100
AcDbEntity
  8
Object
  6
Continuous
370
    15
100
AcDbLine
 10
11.17942370691555
 20
9.124668570754881
 30
0.0
 11
11.1202479105194
 21
9.06549277435873
 31
0.0
  0
LINE
  5
182
330
1F
100
AcDbEntity
  8
Object
  6
Continuous
370
    15
100
AcDbLine
 10
24.65035678288048
 20
17.44953080123601
 30
0.0
 11
24.70724753900694
 21
17.50642155736247
 31
0.0
  0
LINE
  5
183
330
1F
100
AcDbEntity
  8
Object
  6
Continuous
370
    15
100
AcDbLine
 10
24.67283524320739
 20
9.092833765179939
 30
0.0
 11
24.70371232651269
 21
9.061957268534531
 31
0.0
  0
LINE
  5
184
330
1F
100
AcDbEntity
  8
Object
  6
Continuous
370
    15
100
AcDbLine
 10
11.15333376830875
 20
17.48040641789158
 30
0.0
 11
11.12378312301366
 21
17.50995706318667
 31
0.0
  0
LINE
  5
185
330
1F
100
AcDbEntity
  8
Object
  6
Continuous
370
    15
100
AcDbLine
 10
24.70371232651269
 20
17.50995706318667
 30
0.0
 11
24.67415464129891
 21
17.48039967130285
 31
0.0
  0
LINE
  5
186
330
1F
100
AcDbEntity
  8
Object
  6
Continuous
370
    15
100
AcDbLine
 10
11.12378312301366
 20
9.061957268534531
 30
0.0
 11
11.15328331555825
 21
9.091457167749176
 31
0.0
  0
SPLINE
  5
187
330
1F
100
AcDbEntity
  8
Object
  6
Continuous
370
    15
100
AcDbSpline
210
0.0
220
0.0
230
1.0
 70
     8
 71
     3
 72
    11
 73
     7
 74
     0
 42
0.0000000001
 43
0.0000000001
 40
0.0
 40
0.0
 40
0.0
 40
0.0
 40
0.2500020666049884
 40
0.5000052755231389
 40
0.750002706310493
 40
0.9999999999999998
 40
0.9999999999999998
 40
0.9999999999999998
 40
0.9999999999999998
 10
24.74324792312743
 20
9.061957268534531
 30
0.0
 10
24.74270685529417
 20
9.062251868673694
 30
0.0
 10
24.74162471715541
 20
9.062841070298109
 30
0.0
 10
24.73329902805888
 20
9.063724882835298
 30
0.0
 10
24.72139949510839
 20
9.064608600574473
 30
0.0
 10
24.7119648568451
 20
9.065198049817855
 30
0.0
 10
24.70724753900694
 20
9.06549277435873
 30
0.0
  0
SPLINE
  5
188
330
1F
100
AcDbEntity
  8
Object
  6
Continuous
370
    15
100
AcDbSpline
210
0.0
220
0.0
230
1.0
 70
     8
 71
     3
 72
    11
 73
     7
 74
     0
 42
0.0000000001
 43
0.0000000001
 40
0.0
 40
0.0
 40
0.0
 40
0.0
 40
0.249997293689507
 40
0.499994724476861
 40
0.7499979333950116
 40
0.9999999999999998
 40
0.9999999999999998
 40
0.9999999999999998
 40
0.9999999999999998
 10
24.70724753900694
 20
17.50642155736247
 30
0.0
 10
24.7119648568451
 20
17.50671628190335
 30
0.0
 10
24.72139949510839
 20
17.50730573114673
 30
0.0
 10
24.73329902805888
 20
17.5081894488859
 30
0.0
 10
24.74162471715541
 20
17.50907326142309
 30
0.0
 10
24.74270685529417
 20
17.50966246304751
 30
0.0
 10
24.74324792312743
 20
17.50995706318667
 30
0.0
  0
LINE
  5
189
330
1F
100
AcDbEntity
  8
Object
  6
Continuous
370
    15
100
AcDbLine
 10
24.74324792312743
 20
17.50995706318667
 30
0.0
 11
24.74324792312743
 21
9.40650555494999
 31
0.0
  0
LINE
  5
18A
330
1F
100
AcDbEntity
  8
Object
  6
Continuous
370
    15
100
AcDbLine
 10
24.74324792312743
 20
9.225408633663747
 30
0.0
 11
24.74324792312743
 21
9.061957268534531
 31
0.0
  0
LINE
  5
18B
330
1F
100
AcDbEntity
  8
Object
  6
Continuous
370
    15
100
AcDbLine
 10
24.70724753900694
 20
9.025957177743983
 30
0.0
 11
24.70724753900694
 21
9.043957076474285
 31
0.0
  0
SPLINE
  5
18C
330
1F
100
AcDbEntity
  8
Object
  6
Continuous
370
    15
100
AcDbSpline
210
0.0
220
0.0
230
1.0
 70
     8
 71
     3
 72
    11
 73
     7
 74
     0
 42
0.0000000001
 43
0.0000000001
 40
0.0
 40
0.0
 40
0.0
 40
0.0
 40
0.2500019907251781
 40
0.5
 40
0.7499980092748219
 40
1.0
 40
1.0
 40
1.0
 40
1.0
 10
24.70371232651269
 20
9.061957268534531
 30
0.0
 10
24.70400677971516
 20
9.057239856955884
 30
0.0
 10
24.70459568143076
 20
9.047805108926553
 30
0.0
 10
24.70547993275981
 20
9.035905425918596
 30
0.0
 10
24.70636418408887
 20
9.027580502006209
 30
0.0
 10
24.70695308580446
 20
9.026498288703908
 30
0.0
 10
24.70724753900694
 20
9.025957177743983
 30
0.0
  0
SPLINE
  5
18D
330
1F
100
AcDbEntity
  8
Object
  6
Continuous
370
    15
100
AcDbSpline
210
0.0
220
0.0
230
1.0
 70
     8
 71
     3
 72
    11
 73
     7
 74
     0
 42
0.0000000001
 43
0.0000000001
 40
0.0
 40
0.0
 40
0.0
 40
0.0
 40
0.2499945291985722
 40
0.4999921042042005
 40
0.7499953897297452
 40
1.0
 40
1.0
 40
1.0
 40
1.0
 10
24.70371232651269
 20
9.061957268534531
 30
0.0
 10
24.70400678139782
 20
9.059598603485007
 30
0.0
 10
24.70459569475558
 20
9.054881244649177
 30
0.0
 10
24.70547994416036
 20
9.048931531070344
 30
0.0
 10
24.70636417744314
 20
9.044768663471113
 30
0.0
 10
24.70695308463225
 20
9.044227605951061
 30
0.0
 10
24.70724753900694
 20
9.043957076474285
 30
0.0
  0
LINE
  5
18E
330
1F
100
AcDbEntity
  8
Object
  6
Continuous
370
    15
100
AcDbLine
 10
11.08424752639891
 20
9.061957268534531
 30
0.0
 11
11.1022480117891
 21
9.061957268534531
 31
0.0
  0
SPLINE
  5
18F
330
1F
100
AcDbEntity
  8
Object
  6
Continuous
370
    15
100
AcDbSpline
210
0.0
220
0.0
230
1.0
 70
     8
 71
     3
 72
    11
 73
     7
 74
     0
 42
0.0000000001
 43
0.0000000001
 40
0.0
 40
0.0
 40
0.0
 40
0.0
 40
0.249997293689507
 40
0.499994724476861
 40
0.7499979333950116
 40
0.9999999999999998
 40
0.9999999999999998
 40
0.9999999999999998
 40
0.9999999999999998
 10
11.1202479105194
 20
9.06549277435873
 30
0.0
 10
11.11553059268124
 20
9.065198049817851
 30
0.0
 10
11.10609595441795
 20
9.064608600574469
 30
0.0
 10
11.09419642146746
 20
9.063724882835302
 30
0.0
 10
11.08587073237093
 20
9.062841070298109
 30
0.0
 10
11.08478859423216
 20
9.062251868673691
 30
0.0
 10
11.08424752639891
 20
9.061957268534531
 30
0.0
  0
SPLINE
  5
190
330
1F
100
AcDbEntity
  8
Object
  6
Continuous
370
    15
100
AcDbSpline
210
0.0
220
0.0
230
1.0
 70
     8
 71
     3
 72
    11
 73
     7
 74
     0
 42
0.0000000001
 43
0.0000000001
 40
0.0
 40
0.0
 40
0.0
 40
0.0
 40
0.2500062824693525
 40
0.5000016492605269
 40
0.749997016051701
 40
0.9999999999999998
 40
0.9999999999999998
 40
0.9999999999999998
 40
0.9999999999999998
 10
11.1202479105194
 20
9.06549277435873
 30
0.0
 10
11.11788915549696
 20
9.065198052635501
 30
0.0
 10
11.11317174843913
 20
9.064608622057065
 30
0.0
 10
11.10722185984562
 20
9.063724894899525
 30
0.0
 10
11.10305928183651
 20
9.062841050920241
 30
0.0
 10
11.10251843788471
 20
9.062251865655056
 30
0.0
 10
11.1022480117891
 20
9.061957268534531
 30
0.0
  0
SPLINE
  5
191
330
1F
100
AcDbEntity
  8
Object
  6
Continuous
370
    15
100
AcDbSpline
210
0.0
220
0.0
230
1.0
 70
     8
 71
     3
 72
    11
 73
     7
 74
     0
 42
0.0000000001
 43
0.0000000001
 40
0.0
 40
0.0
 40
0.0
 40
0.0
 40
0.2500020666049884
 40
0.5000052755231389
 40
0.750002706310493
 40
0.9999999999999998
 40
0.9999999999999998
 40
0.9999999999999998
 40
0.9999999999999998
 10
11.08424752639891
 20
17.50995706318667
 30
0.0
 10
11.08478859423216
 20
17.50966246304751
 30
0.0
 10
11.08587073237093
 20
17.50907326142309
 30
0.0
 10
11.09419642146746
 20
17.5081894488859
 30
0.0
 10
11.10609595441796
 20
17.50730573114673
 30
0.0
 10
11.11553059268124
 20
17.50671628190335
 30
0.0
 10
11.1202479105194
 20
17.50642155736247
 30
0.0
  0
LINE
  5
192
330
1F
100
AcDbEntity
  8
Object
  6
Continuous
370
    15
100
AcDbLine
 10
11.08424752639891
 20
9.061957268534531
 30
0.0
 11
11.08424752639891
 21
9.225408633663747
 31
0.0
  0
LINE
  5
193
330
1F
100
AcDbEntity
  8
Object
  6
Continuous
370
    15
100
AcDbLine
 10
11.08424752639891
 20
9.40650555494999
 30
0.0
 11
11.08424752639891
 21
17.50995706318667
 31
0.0
  0
LINE
  5
194
330
1F
100
AcDbEntity
  8
Object
  6
Continuous
370
    15
100
AcDbLine
 10
24.74324792312743
 20
17.50995706318667
 30
0.0
 11
24.72524743773724
 21
17.50995706318667
 31
0.0
  0
SPLINE
  5
195
330
1F
100
AcDbEntity
  8
Object
  6
Continuous
370
    15
100
AcDbSpline
210
0.0
220
0.0
230
1.0
 70
     8
 71
     3
 72
    11
 73
     7
 74
     0
 42
0.0000000001
 43
0.0000000001
 40
0.0
 40
0.0
 40
0.0
 40
0.0
 40
0.2500062824693525
 40
0.5000016492605269
 40
0.749997016051701
 40
0.9999999999999998
 40
0.9999999999999998
 40
0.9999999999999998
 40
0.9999999999999998
 10
24.70724753900694
 20
17.50642155736247
 30
0.0
 10
24.70960629402938
 20
17.5067162790857
 30
0.0
 10
24.71432370108722
 20
17.50730570966414
 30
0.0
 10
24.72027358968072
 20
17.50818943682167
 30
0.0
 10
24.72443616768982
 20
17.50907328080096
 30
0.0
 10
24.72497701164163
 20
17.50966246606614
 30
0.0
 10
24.72524743773724
 20
17.50995706318667
 30
0.0
  0
LINE
  5
196
330
1F
100
AcDbEntity
  8
Object
  6
Continuous
370
    15
100
AcDbLine
 10
24.70724753900694
 20
9.025957177743983
 30
0.0
 11
17.91424772477489
 21
9.025957177743983
 31
0.0
  0
LINE
  5
197
330
1F
100
AcDbEntity
  8
Object
  6
Continuous
370
    15
100
AcDbLine
 10
17.91424772477489
 20
9.025957177743983
 30
0.0
 11
17.91424772477489
 21
9.056421545817006
 31
0.0
  0
LINE
  5
198
330
1F
100
AcDbEntity
  8
Object
  6
Continuous
370
    15
100
AcDbLine
 10
24.72524743773724
 20
9.061957268534531
 30
0.0
 11
24.74324792312743
 21
9.061957268534531
 31
0.0
  0
SPLINE
  5
199
330
1F
100
AcDbEntity
  8
Object
  6
Continuous
370
    15
100
AcDbSpline
210
0.0
220
0.0
230
1.0
 70
     8
 71
     3
 72
    11
 73
     7
 74
     0
 42
0.0000000001
 43
0.0000000001
 40
0.0
 40
0.0
 40
0.0
 40
0.0
 40
0.2500029839482989
 40
0.4999983507394731
 40
0.7499937175306474
 40
0.9999999999999998
 40
0.9999999999999998
 40
0.9999999999999998
 40
0.9999999999999998
 10
24.72524743773724
 20
9.061957268534531
 30
0.0
 10
24.72497701164163
 20
9.062251865655056
 30
0.0
 10
24.72443616768982
 20
9.062841050920241
 30
0.0
 10
24.72027358968072
 20
9.063724894899525
 30
0.0
 10
24.71432370108722
 20
9.064608622057065
 30
0.0
 10
24.70960629402938
 20
9.065198052635501
 30
0.0
 10
24.70724753900694
 20
9.06549277435873
 30
0.0
  0
LINE
  5
19A
330
1F
100
AcDbEntity
  8
Object
  6
Continuous
370
    15
100
AcDbLine
 10
11.1022480117891
 20
17.50995706318667
 30
0.0
 11
11.08424752639891
 21
17.50995706318667
 31
0.0
  0
SPLINE
  5
19B
330
1F
100
AcDbEntity
  8
Object
  6
Continuous
370
    15
100
AcDbSpline
210
0.0
220
0.0
230
1.0
 70
     8
 71
     3
 72
    11
 73
     7
 74
     0
 42
0.0000000001
 43
0.0000000001
 40
0.0
 40
0.0
 40
0.0
 40
0.0
 40
0.2500029839482989
 40
0.4999983507394731
 40
0.7499937175306474
 40
0.9999999999999998
 40
0.9999999999999998
 40
0.9999999999999998
 40
0.9999999999999998
 10
11.1022480117891
 20
17.50995706318667
 30
0.0
 10
11.10251843788471
 20
17.50966246606614
 30
0.0
 10
11.10305928183651
 20
17.50907328080096
 30
0.0
 10
11.10722185984562
 20
17.50818943682167
 30
0.0
 10
11.11317174843912
 20
17.50730570966414
 30
0.0
 10
11.11788915549696
 20
17.5067162790857
 30
0.0
 10
11.1202479105194
 20
17.50642155736247
 30
0.0
  0
SPLINE
  5
19C
330
1F
100
AcDbEntity
  8
Object
  6
Continuous
370
    15
100
AcDbSpline
210
0.0
220
0.0
230
1.0
 70
     8
 71
     3
 72
    11
 73
     7
 74
     0
 42
0.0000000001
 43
0.0000000001
 40
0.0
 40
0.0
 40
0.0
 40
0.0
 40
0.2500019907251781
 40
0.5
 40
0.7499980092748219
 40
1.0
 40
1.0
 40
1.0
 40
1.0
 10
11.1202479105194
 20
9.025957177743983
 30
0.0
 10
11.12054236372188
 20
9.026498288703912
 30
0.0
 10
11.12113126543747
 20
9.027580502006209
 30
0.0
 10
11.12201551676653
 20
9.035905425918596
 30
0.0
 10
11.12289976809559
 20
9.047805108926553
 30
0.0
 10
11.12348866981118
 20
9.057239856955884
 30
0.0
 10
11.12378312301366
 20
9.061957268534531
 30
0.0
  0
LINE
  5
19D
330
1F
100
AcDbEntity
  8
Object
  6
Continuous
370
    15
100
AcDbLine
 10
17.91324772475145
 20
9.025957177743983
 30
0.0
 11
11.1202479105194
 21
9.025957177743983
 31
0.0
  0
LINE
  5
19E
330
1F
100
AcDbEntity
  8
Object
  6
Continuous
370
    15
100
AcDbLine
 10
17.91324772475145
 20
9.056421545817006
 30
0.0
 11
17.91324772475145
 21
9.025957177743983
 31
0.0
  0
SPLINE
  5
19F
330
1F
100
AcDbEntity
  8
Object
  6
Continuous
370
    15
100
AcDbSpline
210
0.0
220
0.0
230
1.0
 70
     8
 71
     3
 72
    11
 73
     7
 74
     0
 42
0.0000000001
 43
0.0000000001
 40
0.0
 40
0.0
 40
0.0
 40
0.0
 40
0.2500019907251781
 40
0.5
 40
0.7499980092748219
 40
1.0
 40
1.0
 40
1.0
 40
1.0
 10
24.70724753900694
 20
17.54595715397722
 30
0.0
 10
24.70695308580446
 20
17.54541604301729
 30
0.0
 10
24.70636418408887
 20
17.54433382971499
 30
0.0
 10
24.70547993275982
 20
17.5360089058026
 30
0.0
 10
24.70459568143076
 20
17.52410922279465
 30
0.0
 10
24.70400677971516
 20
17.51467447476532
 30
0.0
 10
24.70371232651269
 20
17.50995706318667
 30
0.0
  0
LINE
  5
1A0
330
1F
100
AcDbEntity
  8
Object
  6
Continuous
370
    15
100
AcDbLine
 10
24.70724753900694
 20
17.52795725524691
 30
0.0
 11
24.70724753900694
 21
17.54595715397722
 31
0.0
  0
SPLINE
  5
1A1
330
1F
100
AcDbEntity
  8
Object
  6
Continuous
370
    15
100
AcDbSpline
210
0.0
220
0.0
230
1.0
 70
     8
 71
     3
 72
    11
 73
     7
 74
     0
 42
0.0000000001
 43
0.0000000001
 40
0.0
 40
0.0
 40
0.0
 40
0.0
 40
0.2500046102702548
 40
0.5000078957957995
 40
0.7500054708014278
 40
1.0
 40
1.0
 40
1.0
 40
1.0
 10
24.70724753900694
 20
17.52795725524691
 30
0.0
 10
24.70695308463225
 20
17.52768672577014
 30
0.0
 10
24.70636417744314
 20
17.52714566825009
 30
0.0
 10
24.70547994416036
 20
17.52298280065086
 30
0.0
 10
24.70459569475558
 20
17.51703308707203
 30
0.0
 10
24.70400678139782
 20
17.5123157282362
 30
0.0
 10
24.70371232651269
 20
17.50995706318667
 30
0.0
  0
LINE
  5
1A2
330
1F
100
AcDbEntity
  8
Object
  6
Continuous
370
    15
100
AcDbLine
 10
11.1202479105194
 20
17.54595715397722
 30
0.0
 11
11.1202479105194
 21
17.52795725524691
 31
0.0
  0
SPLINE
  5
1A3
330
1F
100
AcDbEntity
  8
Object
  6
Continuous
370
    15
100
AcDbSpline
210
0.0
220
0.0
230
1.0
 70
     8
 71
     3
 72
    11
 73
     7
 74
     0
 42
0.0000000001
 43
0.0000000001
 40
0.0
 40
0.0
 40
0.0
 40
0.0
 40
0.2500019907251781
 40
0.5
 40
0.7499980092748219
 40
1.0
 40
1.0
 40
1.0
 40
1.0
 10
11.12378312301366
 20
17.50995706318667
 30
0.0
 10
11.12348866981118
 20
17.51467447476532
 30
0.0
 10
11.12289976809559
 20
17.52410922279465
 30
0.0
 10
11.12201551676653
 20
17.5360089058026
 30
0.0
 10
11.12113126543747
 20
17.54433382971499
 30
0.0
 10
11.12054236372188
 20
17.54541604301729
 30
0.0
 10
11.1202479105194
 20
17.54595715397722
 30
0.0
  0
SPLINE
  5
1A4
330
1F
100
AcDbEntity
  8
Object
  6
Continuous
370
    15
100
AcDbSpline
210
0.0
220
0.0
230
1.0
 70
     8
 71
     3
 72
    11
 73
     7
 74
     0
 42
0.0000000001
 43
0.0000000001
 40
0.0
 40
0.0
 40
0.0
 40
0.0
 40
0.2499945291985722
 40
0.4999921042042005
 40
0.7499953897297452
 40
1.0
 40
1.0
 40
1.0
 40
1.0
 10
11.12378312301366
 20
17.50995706318667
 30
0.0
 10
11.12348866812852
 20
17.5123157282362
 30
0.0
 10
11.12289975477076
 20
17.51703308707203
 30
0.0
 10
11.12201550536598
 20
17.52298280065086
 30
0.0
 10
11.1211312720832
 20
17.52714566825009
 30
0.0
 10
11.1205423648941
 20
17.52768672577014
 30
0.0
 10
11.1202479105194
 20
17.52795725524691
 30
0.0
  0
LINE
  5
1A5
330
1F
100
AcDbEntity
  8
Object
  6
Continuous
370
    15
100
AcDbLine
 10
11.1202479105194
 20
9.043957076474285
 30
0.0
 11
11.1202479105194
 21
9.025957177743983
 31
0.0
  0
SPLINE
  5
1A6
330
1F
100
AcDbEntity
  8
Object
  6
Continuous
370
    15
100
AcDbSpline
210
0.0
220
0.0
230
1.0
 70
     8
 71
     3
 72
    11
 73
     7
 74
     0
 42
0.0000000001
 43
0.0000000001
 40
0.0
 40
0.0
 40
0.0
 40
0.0
 40
0.2500046102702548
 40
0.5000078957957995
 40
0.7500054708014278
 40
1.0
 40
1.0
 40
1.0
 40
1.0
 10
11.1202479105194
 20
9.043957076474285
 30
0.0
 10
11.1205423648941
 20
9.044227605951061
 30
0.0
 10
11.12113127208321
 20
9.044768663471113
 30
0.0
 10
11.12201550536598
 20
9.048931531070341
 30
0.0
 10
11.12289975477076
 20
9.054881244649177
 30
0.0
 10
11.12348866812852
 20
9.059598603485007
 30
0.0
 10
11.12378312301366
 20
9.061957268534531
 30
0.0
  0
LINE
  5
1A7
330
1F
100
AcDbEntity
  8
Object
  6
Continuous
370
    15
100
AcDbLine
 10
11.1202479105194
 20
17.54595715397722
 30
0.0
 11
24.70724753900694
 21
17.54595715397722
 31
0.0
  0
ARC
  5
1A8
330
1F
100
AcDbEntity
  8
Object
  6
Continuous
370
    15
100
AcDbCircle
 10
24.70724772476317
 20
9.061957165860601
 30
0.0
 40
0.0180000000000007
100
AcDbArc
 50
270.0000000000008
 51
0.0
  0
ARC
  5
1A9
330
1F
100
AcDbEntity
  8
Object
  6
Continuous
370
    15
100
AcDbCircle
 10
24.70724772476317
 20
9.061957165860601
 30
0.0
 40
0.0360000000000014
100
AcDbArc
 50
270.0000000000008
 51
0.0
  0
ARC
  5
1AA
330
1F
100
AcDbEntity
  8
Object
  6
Continuous
370
    15
100
AcDbCircle
 10
11.12024772476317
 20
17.5099571658606
 30
0.0
 40
0.0180000000000007
100
AcDbArc
 50
90.00000000000566
 51
180.0
  0
ARC
  5
1AB
330
1F
100
AcDbEntity
  8
Object
  6
Continuous
370
    15
100
AcDbCircle
 10
11.12024772476317
 20
17.5099571658606
 30
0.0
 40
0.0360000000000049
100
AcDbArc
 50
90.00000000000282
 51
180.0
  0
ARC
  5
1AC
330
1F
100
AcDbEntity
  8
Object
  6
Continuous
370
    15
100
AcDbCircle
 10
24.70724772476317
 20
17.5099571658606
 30
0.0
 40
0.0180000000000007
100
AcDbArc
 50
0.0
 51
90.0
  0
ARC
  5
1AD
330
1F
100
AcDbEntity
  8
Object
  6
Continuous
370
    15
100
AcDbCircle
 10
24.70724772476317
 20
17.5099571658606
 30
0.0
 40
0.0359999999999978
100
AcDbArc
 50
0.0
 51
90.0
  0
ARC
  5
1AE
330
1F
100
AcDbEntity
  8
Object
  6
Continuous
370
    15
100
AcDbCircle
 10
11.12024772476317
 20
9.061957165860601
 30
0.0
 40
0.0180000000000007
100
AcDbArc
 50
180.0
 51
270.0000000000008
  0
ARC
  5
1AF
330
1F
100
AcDbEntity
  8
Object
  6
Continuous
370
    15
100
AcDbCircle
 10
11.12024772476317
 20
9.061957165860601
 30
0.0
 40
0.0360000000000014
100
AcDbArc
 50
180.0
 51
270.0000000000008
  0
ARC
  5
1B0
330
1F
100
AcDbEntity
  8
Object
  6
Continuous
370
    15
100
AcDbCircle
 10
17.9137477247632
 20
16.21642163195472
 30
0.0
 40
0.0875311610668335
100
AcDbArc
 50
297.9307865344834
 51
62.06921346552077
  0
SPLINE
  5
1B1
330
1F
100
AcDbEntity
  8
Object
  6
Continuous
370
    15
100
AcDbSpline
210
0.0
220
0.0
230
1.0
 70
    24
 71
     3
 72
    10
 73
     6
 74
     0
 42
0.0000000001
 43
0.0000000001
 40
0.0
 40
0.0
 40
0.0
 40
0.0
 40
0.4684422385876554
 40
0.9368331886624945
 40
1.0
 40
1.0
 40
1.0
 40
1.0
 10
17.95474772529433
 20
16.29375655283875
 30
0.0
 10
17.95474772529433
 20
16.29911518991595
 30
0.0
 10
17.95474772529433
 20
16.30983187736721
 30
0.0
 10
17.95474772529433
 20
16.32401758483627
 30
0.0
 10
17.95474772529433
 20
16.33145579891982
 30
0.0
 10
17.95474772529433
 20
16.33233970712286
 30
0.0
  0
ARC
  5
1B2
330
1F
100
AcDbEntity
  8
Object
  6
Continuous
370
    15
100
AcDbCircle
 10
17.9137477247632
 20
16.21642163195472
 30
0.0
 40
0.1229553282956503
100
AcDbArc
 50
289.4785805473256
 51
70.52141945267632
  0
SPLINE
  5
1B3
330
1F
100
AcDbEntity
  8
Object
  6
Continuous
370
    15
100
AcDbSpline
210
0.0
220
0.0
230
1.0
 70
    24
 71
     3
 72
    10
 73
     6
 74
     0
 42
0.0000000001
 43
0.0000000001
 40
0.0
 40
0.0
 40
0.0
 40
0.0
 40
0.4633817794443999
 40
0.9263520092430274
 40
1.0
 40
1.0
 40
1.0
 40
1.0
 10
17.95474772529433
 20
16.10050345198173
 30
0.0
 10
17.95474772529433
 20
16.10701403650472
 30
0.0
 10
17.95474772529433
 20
16.12002942321555
 30
0.0
 10
17.95474772529433
 20
16.13259479946002
 30
0.0
 10
17.95474772529433
 20
16.13830316369804
 30
0.0
 10
17.95474772529433
 20
16.13908660626584
 30
0.0
  0
ARC
  5
1B4
330
1F
100
AcDbEntity
  8
Object
  6
Continuous
370
    15
100
AcDbCircle
 10
17.9137477247632
 20
16.21642163195472
 30
0.0
 40
0.0875311610668239
100
AcDbArc
 50
117.9307865344773
 51
242.0692134655235
  0
SPLINE
  5
1B5
330
1F
100
AcDbEntity
  8
Object
  6
Continuous
370
    15
100
AcDbSpline
210
0.0
220
0.0
230
1.0
 70
    24
 71
     3
 72
    10
 73
     6
 74
     0
 42
0.0000000001
 43
0.0000000001
 40
0.0
 40
0.0
 40
0.0
 40
0.0
 40
0.4684358932793935
 40
0.9368332445403328
 40
1.0
 40
1.0
 40
1.0
 40
1.0
 10
17.87274772423201
 20
16.13908660626584
 30
0.0
 10
17.87274772423201
 20
16.13372807121472
 30
0.0
 10
17.87274772423201
 20
16.12301144200262
 30
0.0
 10
17.872747724232
 20
16.10882566838549
 30
0.0
 10
17.87274772423201
 20
16.10138736005156
 30
0.0
 10
17.87274772423201
 20
16.10050345198173
 30
0.0
  0
ARC
  5
1B6
330
1F
100
AcDbEntity
  8
Object
  6
Continuous
370
    15
100
AcDbCircle
 10
17.9137477247632
 20
16.21642163195472
 30
0.0
 40
0.1229553282956479
100
AcDbArc
 50
109.4785805473205
 51
250.5214194526792
  0
SPLINE
  5
1B7
330
1F
100
AcDbEntity
  8
Object
  6
Continuous
370
    15
100
AcDbSpline
210
0.0
220
0.0
230
1.0
 70
    24
 71
     3
 72
    10
 73
     6
 74
     0
 42
0.0000000001
 43
0.0000000001
 40
0.0
 40
0.0
 40
0.0
 40
0.0
 40
0.4633756109021718
 40
0.9263465505558608
 40
1.0
 40
1.0
 40
1.0
 40
1.0
 10
17.87274772423201
 20
16.33233970712286
 30
0.0
 10
17.872747724232
 20
16.32582919213825
 30
0.0
 10
17.872747724232
 20
16.31281384787662
 30
0.0
 10
17.87274772423201
 20
16.30024883092736
 30
0.0
 10
17.87274772423201
 20
16.29454009542506
 30
0.0
 10
17.872747724232
 20
16.29375655283875
 30
0.0
  0
CIRCLE
  5
1B8
330
1F
100
AcDbEntity
  8
Object
  6
Continuous
370
    15
100
AcDbCircle
 10
17.9137477247632
 20
16.21642163195472
 30
0.0
 40
0.2800000000000011
  0
CIRCLE
  5
1B9
330
1F
100
AcDbEntity
  8
Object
  6
Continuous
370
    15
100
AcDbCircle
 10
17.9137477247632
 20
16.21642163195472
 30
0.0
 40
0.3100000000000023
  0
LINE
  5
1BA
330
1F
100
AcDbEntity
  8
Object
  6
Continuous
370
    15
100
AcDbLine
 10
17.87274772423201
 20
16.06642173902992
 30
0.0
 11
17.95474772529433
 21
16.06642173902992
 31
0.0
  0
LINE
  5
1BB
330
1F
100
AcDbEntity
  8
Object
  6
Continuous
370
    15
100
AcDbLine
 10
17.95474772529433
 20
16.45642150038606
 30
0.0
 11
17.87274772423201
 21
16.45642150038606
 31
0.0
  0
LINE
  5
1BC
330
1F
100
AcDbEntity
  8
Object
  6
Continuous
370
    15
100
AcDbLine
 10
17.87274772423201
 20
16.10050345198173
 30
0.0
 11
17.87274772423201
 21
16.06642173902992
 31
0.0
  0
LINE
  5
1BD
330
1F
100
AcDbEntity
  8
Object
  6
Continuous
370
    15
100
AcDbLine
 10
17.87274772423201
 20
16.45642150038606
 30
0.0
 11
17.87274772423201
 21
16.33233970712286
 31
0.0
  0
LINE
  5
1BE
330
1F
100
AcDbEntity
  8
Object
  6
Continuous
370
    15
100
AcDbLine
 10
17.95474772529433
 20
16.33233970712286
 30
0.0
 11
17.95474772529433
 21
16.45642150038606
 31
0.0
  0
LINE
  5
1BF
330
1F
100
AcDbEntity
  8
Object
  6
Continuous
370
    15
100
AcDbLine
 10
17.95474772529433
 20
16.06642173902992
 30
0.0
 11
17.95474772529433
 21
16.10050345198173
 31
0.0
  0
SPLINE
  5
1C0
330
1F
100
AcDbEntity
  8
Object
  6
Continuous
370
    15
100
AcDbSpline
210
0.0
220
0.0
230
1.0
 70
    24
 71
     3
 72
    13
 73
     9
 74
     0
 42
0.0000000001
 43
0.0000000001
 40
0.0
 40
0.0
 40
0.0
 40
0.0
 40
0.1367504217211062
 40
0.3636812101964096
 40
0.5004755268755609
 40
0.7402799092174216
 40
0.9803997817950172
 40
1.0
 40
1.0
 40
1.0
 40
1.0
 10
17.95474772529433
 20
16.29375655283875
 30
0.0
 10
17.95474772529433
 20
16.28770761842702
 30
0.0
 10
17.95474772529433
 20
16.27162076648486
 30
0.0
 10
17.95474772529433
 20
16.24445775367804
 30
0.0
 10
17.95474772529433
 20
16.21067979953009
 30
0.0
 10
17.95474772529433
 20
16.17587298433427
 30
0.0
 10
17.95474772529433
 20
16.15089866950321
 30
0.0
 10
17.95474772529433
 20
16.13991547194246
 30
0.0
 10
17.95474772529433
 20
16.13908660626584
 30
0.0
  0
SPLINE
  5
1C1
330
1F
100
AcDbEntity
  8
Object
  6
Continuous
370
    15
100
AcDbSpline
210
0.0
220
0.0
230
1.0
 70
    24
 71
     3
 72
    13
 73
     9
 74
     0
 42
0.0000000001
 43
0.0000000001
 40
0.0
 40
0.0
 40
0.0
 40
0.0
 40
0.136751852599162
 40
0.3636826675412698
 40
0.5004752642602302
 40
0.7402813934851889
 40
0.9803997795090552
 40
1.0
 40
1.0
 40
1.0
 40
1.0
 10
17.87274772423201
 20
16.13908660626584
 30
0.0
 10
17.87274772423201
 20
16.14513564248805
 30
0.0
 10
17.872747724232
 20
16.16122266132938
 30
0.0
 10
17.872747724232
 20
16.18838559804145
 30
0.0
 10
17.87274772423201
 20
16.22216354835653
 30
0.0
 10
17.872747724232
 20
16.25697033222185
 30
0.0
 10
17.87274772423201
 20
16.28194455246159
 30
0.0
 10
17.87274772423201
 20
16.29292768707874
 30
0.0
 10
17.87274772423201
 20
16.29375655283875
 30
0.0
  0
LINE
  5
1C2
330
1F
100
AcDbEntity
  8
Object
  6
Continuous
370
    15
100
AcDbLine
 10
17.87274772423201
 20
16.2564215174696
 30
0.0
 11
17.95474772529433
 21
16.2564215174696
 31
0.0
  0
ARC
  5
1C3
330
1F
100
AcDbEntity
  8
Object
  6
Continuous
370
    15
100
AcDbCircle
 10
17.9137477247632
 20
16.21642163195472
 30
0.0
 40
0.1149999999999959
100
AcDbArc
 50
249.1132628872562
 51
290.8867371127487
  0
CIRCLE
  5
1C4
330
1F
100
AcDbEntity
  8
Object
  6
Continuous
370
    15
100
AcDbCircle
 10
17.9137477247632
 20
16.21642163195472
 30
0.0
 40
0.454802487322425
  0
CIRCLE
  5
1C5
330
1F
100
AcDbEntity
  8
Object
  6
Continuous
370
    15
100
AcDbCircle
 10
17.9137477247632
 20
16.21642163195472
 30
0.0
 40
0.3149999999999977
  0
LINE
  5
1C6
330
1F
100
AcDbEntity
  8
Object
  6
Continuous
370
    15
100
AcDbLine
 10
11.09138013733572
 20
9.446957220982227
 30
0.0
 11
11.09138013733572
 21
9.184957260961454
 31
0.0
  0
LINE
  5
1C7
330
1F
100
AcDbEntity
  8
Object
  6
Continuous
370
    15
100
AcDbLine
 10
24.73611531219063
 20
9.184957260961454
 30
0.0
 11
24.73611531219063
 21
9.446957220982227
 31
0.0
  0
SPLINE
  5
1C8
330
1F
100
AcDbEntity
  8
Object
  6
Continuous
370
    15
100
AcDbSpline
210
0.0
220
0.0
230
1.0
 70
     8
 71
     3
 72
    14
 73
    10
 74
     0
 42
0.0000000001
 43
0.0000000001
 40
0.0
 40
0.0
 40
0.0
 40
0.0
 40
0.253527344465395
 40
0.3693610932210707
 40
0.4830745048888259
 40
0.5991221981321578
 40
0.7217036582912784
 40
0.8543888207962787
 40
1.0
 40
1.0
 40
1.0
 40
1.0
 10
17.1037477352855
 20
16.15392176822211
 30
0.0
 10
17.1010019451688
 20
16.14458784659053
 30
0.0
 10
17.09700163490089
 20
16.13098936274592
 30
0.0
 10
17.08617203805438
 20
16.11608257506745
 30
0.0
 10
17.07690459578528
 20
16.10714690687611
 30
0.0
 10
17.06648448272872
 20
16.10019428091296
 30
0.0
 10
17.05571905736552
 20
16.09524398651572
 30
0.0
 10
17.04527683868623
 20
16.09213487540449
 30
0.0
 10
17.0403765892053
 20
16.09166665005618
 30
0.0
 10
17.03781266363974
 20
16.09142166356199
 30
0.0
  0
SPLINE
  5
1C9
330
1F
100
AcDbEntity
  8
Object
  6
Continuous
370
    15
100
AcDbSpline
210
0.0
220
0.0
230
1.0
 70
     8
 71
     3
 72
    15
 73
    11
 74
     0
 42
0.0000000001
 43
0.0000000001
 40
0.0
 40
0.0
 40
0.0
 40
0.0
 40
0.1687672903560828
 40
0.3186356765000476
 40
0.4515825353605727
 40
0.5704617632953757
 40
0.6792731776925541
 40
0.7832032444591331
 40
0.8881865111175919
 40
1.0
 40
1.0
 40
1.0
 40
1.0
 10
17.03781266363974
 20
10.34142171471873
 30
0.0
 10
17.0408560862471
 20
10.34059856705678
 30
0.0
 10
17.04660212281216
 20
10.33904444948119
 30
0.0
 10
17.05900153288499
 20
10.33477416614748
 30
0.0
 10
17.07125539646778
 20
10.32915647361795
 30
0.0
 10
17.08243182361998
 20
10.32204131508775
 30
0.0
 10
17.09167430184591
 20
10.31339459282998
 30
0.0
 10
17.09846782278512
 20
10.30319280339725
 30
0.0
 10
17.10276887250808
 20
10.29151728105184
 30
0.0
 10
17.10341466574754
 20
10.28320743480835
 30
0.0
 10
17.1037477352855
 20
10.27892161005861
 30
0.0
  0
LINE
  5
1CA
330
1F
100
AcDbEntity
  8
Object
  6
Continuous
370
    15
100
AcDbLine
 10
17.03174770036938
 20
10.34142171471873
 30
0.0
 11
17.03781266363974
 21
10.34142171471873
 31
0.0
  0
LINE
  5
1CB
330
1F
100
AcDbEntity
  8
Object
  6
Continuous
370
    15
100
AcDbLine
 10
17.03174770036938
 20
16.09142166356199
 30
0.0
 11
17.03174770036938
 21
10.34142171471873
 31
0.0
  0
LINE
  5
1CC
330
1F
100
AcDbEntity
  8
Object
  6
Continuous
370
    15
100
AcDbLine
 10
17.03781266363974
 20
16.09142166356199
 30
0.0
 11
17.03174770036938
 21
16.09142166356199
 31
0.0
  0
LINE
  5
1CD
330
1F
100
AcDbEntity
  8
Object
  6
Continuous
370
    15
100
AcDbLine
 10
17.1037477352855
 20
16.15392176822211
 30
0.0
 11
17.1037477352855
 21
10.27892161005861
 31
0.0
  0
SPLINE
  5
1CE
330
1F
100
AcDbEntity
  8
Object
  6
Continuous
370
    15
100
AcDbSpline
210
0.0
220
0.0
230
1.0
 70
     8
 71
     3
 72
    14
 73
    10
 74
     0
 42
0.0000000001
 43
0.0000000001
 40
0.0
 40
0.0
 40
0.0
 40
0.0
 40
0.2535248515079456
 40
0.3693617015071675
 40
0.4830749916797239
 40
0.5991218368199905
 40
0.7217040739001856
 40
0.8543891231447403
 40
1.0
 40
1.0
 40
1.0
 40
1.0
 10
12.1237478380026
 20
10.27892161005861
 30
0.0
 10
12.12649360193894
 20
10.28825538586564
 30
0.0
 10
12.13049391998834
 20
10.30185381336916
 30
0.0
 10
12.14132325592722
 20
10.31676085189749
 30
0.0
 10
12.15059129693346
 20
10.32569593211915
 30
0.0
 10
12.16101077370177
 20
10.33264929816665
 30
0.0
 10
12.17177640262823
 20
10.33759932060771
 30
0.0
 10
12.18221850384873
 20
10.34070851992132
 30
0.0
 10
12.18711866508619
 20
10.34117673417325
 30
0.0
 10
12.18968254298594
 20
10.34142171471873
 30
0.0
  0
LINE
  5
1CF
330
1F
100
AcDbEntity
  8
Object
  6
Continuous
370
    15
100
AcDbLine
 10
18.72374771424084
 20
16.15392176822211
 30
0.0
 11
18.72374771424084
 21
10.27892161005861
 31
0.0
  0
SPLINE
  5
1D0
330
1F
100
AcDbEntity
  8
Object
  6
Continuous
370
    15
100
AcDbSpline
210
0.0
220
0.0
230
1.0
 70
     8
 71
     3
 72
    15
 73
    11
 74
     0
 42
0.0000000001
 43
0.0000000001
 40
0.0
 40
0.0
 40
0.0
 40
0.0
 40
0.1687670394579691
 40
0.3186345669500987
 40
0.4515812281650015
 40
0.5704602793678443
 40
0.6792715320003908
 40
0.7832035667603141
 40
0.8881866773452619
 40
1.0
 40
1.0
 40
1.0
 40
1.0
 10
18.7896827858866
 20
16.09142166356199
 30
0.0
 10
18.78663937061397
 20
16.09224484843209
 30
0.0
 10
18.78089335936343
 20
16.09379903315588
 30
0.0
 10
18.76849388370584
 20
16.09806884199699
 30
0.0
 10
18.75624005203386
 20
16.1036866279451
 30
0.0
 10
18.74506363912987
 20
16.11080177456078
 30
0.0
 10
18.73582104207311
 20
16.11944851788251
 30
0.0
 10
18.72902770935223
 20
16.12965053351052
 30
0.0
 10
18.7247265623886
 20
16.1413260875312
 30
0.0
 10
18.72408077880089
 20
16.14963594017262
 30
0.0
 10
18.72374771424084
 20
16.15392176822211
 30
0.0
  0
LINE
  5
1D1
330
1F
100
AcDbEntity
  8
Object
  6
Continuous
370
    15
100
AcDbLine
 10
18.79574774915696
 20
16.09142166356199
 30
0.0
 11
18.7896827858866
 21
16.09142166356199
 31
0.0
  0
LINE
  5
1D2
330
1F
100
AcDbEntity
  8
Object
  6
Continuous
370
    15
100
AcDbLine
 10
18.79574774915696
 20
16.09142166356199
 30
0.0
 11
18.79574774915696
 21
10.34142171471873
 31
0.0
  0
LINE
  5
1D3
330
1F
100
AcDbEntity
  8
Object
  6
Continuous
370
    15
100
AcDbLine
 10
18.7896827858866
 20
10.34142171471873
 30
0.0
 11
18.79574774915696
 21
10.34142171471873
 31
0.0
  0
SPLINE
  5
1D4
330
1F
100
AcDbEntity
  8
Object
  6
Continuous
370
    15
100
AcDbSpline
210
0.0
220
0.0
230
1.0
 70
     8
 71
     3
 72
    14
 73
    10
 74
     0
 42
0.0000000001
 43
0.0000000001
 40
0.0
 40
0.0
 40
0.0
 40
0.0
 40
0.2535251217790805
 40
0.3693610362031407
 40
0.4830727873740618
 40
0.5991219052053466
 40
0.7217034549363918
 40
0.854388714396228
 40
1.0
 40
1.0
 40
1.0
 40
1.0
 10
18.72374771424084
 20
10.27892161005861
 30
0.0
 10
18.72649358963991
 20
10.28825536858815
 30
0.0
 10
18.73049405860949
 20
10.30185373192962
 30
0.0
 10
18.74132321237273
 20
10.31676080576273
 30
0.0
 10
18.75059104398495
 20
10.32569610537639
 30
0.0
 10
18.76101086544739
 20
10.33264917785458
 30
0.0
 10
18.77177641073129
 20
10.33759936254573
 30
0.0
 10
18.78221860549843
 20
10.34070851128098
 30
0.0
 10
18.78711885848618
 20
10.34117673111156
 30
0.0
 10
18.7896827858866
 20
10.34142171471873
 30
0.0
  0
LINE
  5
1D5
330
1F
100
AcDbEntity
  8
Object
  6
Continuous
370
    15
100
AcDbLine
 10
12.1237478380026
 20
16.15392176822211
 30
0.0
 11
12.1237478380026
 21
10.27892161005861
 31
0.0
  0
SPLINE
  5
1D6
330
1F
100
AcDbEntity
  8
Object
  6
Continuous
370
    15
100
AcDbSpline
210
0.0
220
0.0
230
1.0
 70
     8
 71
     3
 72
    15
 73
    11
 74
     0
 42
0.0000000001
 43
0.0000000001
 40
0.0
 40
0.0
 40
0.0
 40
0.0
 40
0.1687668595881413
 40
0.3186336349423822
 40
0.4515784055794454
 40
0.5704611045755703
 40
0.6792724528916123
 40
0.7832024675406163
 40
0.8881869766455366
 40
1.0
 40
1.0
 40
1.0
 40
1.0
 10
12.18968254298593
 20
16.09142166356199
 30
0.0
 10
12.18663915365212
 20
16.09224485239185
 30
0.0
 10
12.18089320205745
 20
16.09379904170214
 30
0.0
 10
12.16849384535335
 20
16.09806877514544
 30
0.0
 10
12.15624024744142
 20
16.10368682600623
 30
0.0
 10
12.14506347808387
 20
16.11080164291872
 30
0.0
 10
12.13582070696896
 20
16.11944838340346
 30
0.0
 10
12.12902811609559
 20
16.12965077245704
 30
0.0
 10
12.12472607185964
 20
16.1413259431091
 30
0.0
 10
12.1240806918418
 20
16.14963591293654
 30
0.0
 10
12.1237478380026
 20
16.15392176822211
 30
0.0
  0
LINE
  5
1D7
330
1F
100
AcDbEntity
  8
Object
  6
Continuous
370
    15
100
AcDbLine
 10
12.19574743292381
 20
16.09142166356199
 30
0.0
 11
12.18968254298593
 21
16.09142166356199
 31
0.0
  0
LINE
  5
1D8
330
1F
100
AcDbEntity
  8
Object
  6
Continuous
370
    15
100
AcDbLine
 10
12.19574743292381
 20
16.09142166356199
 30
0.0
 11
12.19574743292381
 21
10.34142171471873
 31
0.0
  0
LINE
  5
1D9
330
1F
100
AcDbEntity
  8
Object
  6
Continuous
370
    15
100
AcDbLine
 10
12.18968254298593
 20
10.34142171471873
 30
0.0
 11
12.19574743292381
 21
10.34142171471873
 31
0.0
  0
SPLINE
  5
1DA
330
1F
100
AcDbEntity
  8
Object
  6
Continuous
370
    15
100
AcDbSpline
210
0.0
220
0.0
230
1.0
 70
     8
 71
     3
 72
    14
 73
    10
 74
     0
 42
0.0000000001
 43
0.0000000001
 40
0.0
 40
0.0
 40
0.0
 40
0.0
 40
0.25352707421205
 40
0.369361758555425
 40
0.4830767092090129
 40
0.5991221297356026
 40
0.7217042772468107
 40
0.8543892295404063
 40
1.0
 40
1.0
 40
1.0
 40
1.0
 10
23.70374761152374
 20
16.15392176822211
 30
0.0
 10
23.70100193286987
 20
16.14458782931237
 30
0.0
 10
23.69700177352132
 20
16.13098928130456
 30
0.0
 10
23.68617199449825
 20
16.11608252893743
 30
0.0
 10
23.676904342836
 20
16.10714708013365
 30
0.0
 10
23.66648457447211
 20
16.10019416060138
 30
0.0
 10
23.65571906546888
 20
16.09524402845355
 30
0.0
 10
23.64527694033586
 20
16.09213486676417
 30
0.0
 10
23.64037678260527
 20
16.09166664699448
 30
0.0
 10
23.6378129065404
 20
16.09142166356199
 30
0.0
  0
LINE
  5
1DB
330
1F
100
AcDbEntity
  8
Object
  6
Continuous
370
    15
100
AcDbLine
 10
23.63174801660253
 20
10.34142171471873
 30
0.0
 11
23.6378129065404
 21
10.34142171471873
 31
0.0
  0
LINE
  5
1DC
330
1F
100
AcDbEntity
  8
Object
  6
Continuous
370
    15
100
AcDbLine
 10
23.63174801660253
 20
16.09142166356199
 30
0.0
 11
23.63174801660253
 21
10.34142171471873
 31
0.0
  0
LINE
  5
1DD
330
1F
100
AcDbEntity
  8
Object
  6
Continuous
370
    15
100
AcDbLine
 10
23.6378129065404
 20
16.09142166356199
 30
0.0
 11
23.63174801660253
 21
16.09142166356199
 31
0.0
  0
LINE
  5
1DE
330
1F
100
AcDbEntity
  8
Object
  6
Continuous
370
    15
100
AcDbLine
 10
23.70374761152374
 20
16.15392176822211
 30
0.0
 11
23.70374761152374
 21
10.27892161005861
 31
0.0
  0
SPLINE
  5
1DF
330
1F
100
AcDbEntity
  8
Object
  6
Continuous
370
    15
100
AcDbSpline
210
0.0
220
0.0
230
1.0
 70
     8
 71
     3
 72
    15
 73
    11
 74
     0
 42
0.0000000001
 43
0.0000000001
 40
0.0
 40
0.0
 40
0.0
 40
0.0
 40
0.1687671104928531
 40
0.318634744508217
 40
0.4515797127935001
 40
0.5704625885318442
 40
0.6792740986170869
 40
0.7832021452289818
 40
0.888186810413763
 40
0.9999999999999998
 40
0.9999999999999998
 40
0.9999999999999998
 40
0.9999999999999998
 10
23.6378129065404
 20
10.34142171471873
 30
0.0
 10
23.64085630320899
 20
10.34059856309723
 30
0.0
 10
23.64660228011823
 20
10.33904444093539
 30
0.0
 10
23.65900157123784
 20
10.33477423300038
 30
0.0
 10
23.67125520106046
 20
10.32915627555779
 30
0.0
 10
23.68243198466614
 20
10.32204144672917
 30
0.0
 10
23.69167463694934
 20
10.31339472731298
 30
0.0
 10
23.69846741604661
 20
10.30319256444861
 30
0.0
 10
23.7027693630376
 20
10.29151742547474
 30
0.0
 10
23.70341475270684
 20
10.28320746204472
 30
0.0
 10
23.70374761152374
 20
10.27892161005861
 30
0.0
  0
LINE
  5
1E0
330
1F
100
AcDbEntity
  8
Object
  6
Continuous
370
    15
100
AcDbLine
 10
17.04124770395786
 20
10.21642150539848
 30
0.0
 11
12.18624764933279
 21
10.21642150539848
 31
0.0
  0
LINE
  5
1E1
330
1F
100
AcDbEntity
  8
Object
  6
Continuous
370
    15
100
AcDbLine
 10
12.18624764933279
 20
16.21642157955229
 30
0.0
 11
17.04124770395786
 21
16.21642157955229
 31
0.0
  0
LINE
  5
1E2
330
1F
100
AcDbEntity
  8
Object
  6
Continuous
370
    15
100
AcDbLine
 10
24.64174754900175
 20
17.44442158025816
 30
0.0
 11
11.18574790052459
 21
17.44442158025816
 31
0.0
  0
LINE
  5
1E3
330
1F
100
AcDbEntity
  8
Object
  6
Continuous
370
    15
100
AcDbLine
 10
24.64174754900175
 20
9.128421727398094
 30
0.0
 11
24.64174754900175
 21
17.44442158025816
 31
0.0
  0
LINE
  5
1E4
330
1F
100
AcDbEntity
  8
Object
  6
Continuous
370
    15
100
AcDbLine
 10
11.18574790052459
 20
9.128421727398094
 30
0.0
 11
24.64174754900175
 21
9.128421727398094
 31
0.0
  0
LINE
  5
1E5
330
1F
100
AcDbEntity
  8
Object
  6
Continuous
370
    15
100
AcDbLine
 10
11.18574790052459
 20
17.44442158025816
 30
0.0
 11
11.18574790052459
 21
9.128421727398094
 31
0.0
  0
LINE
  5
1E6
330
1F
100
AcDbEntity
  8
Object
  6
Continuous
370
    15
100
AcDbLine
 10
23.64124780019356
 20
10.21642150539848
 30
0.0
 11
18.78624774556847
 21
10.21642150539848
 31
0.0
  0
LINE
  5
1E7
330
1F
100
AcDbEntity
  8
Object
  6
Continuous
370
    15
100
AcDbLine
 10
18.78624774556847
 20
16.21642157955229
 30
0.0
 11
23.64124780019356
 21
16.21642157955229
 31
0.0
  0
LINE
  5
1E8
330
1F
100
AcDbEntity
  8
Object
  6
Continuous
370
    15
100
AcDbLine
 10
17.54270272444001
 20
16.92019960944844
 30
0.0
 11
17.9137477247632
 21
16.85642175954894
 31
0.0
  0
LINE
  5
1E9
330
1F
100
AcDbEntity
  8
Object
  6
Continuous
370
    15
100
AcDbLine
 10
17.9137477247632
 20
16.85642175954894
 30
0.0
 11
18.28479272508633
 21
16.92019960944844
 31
0.0
  0
ARC
  5
1EA
330
1F
100
AcDbEntity
  8
Object
  6
Continuous
370
    15
100
AcDbCircle
 10
18.27684772476318
 20
16.96642163195472
 30
0.0
 40
0.0468999999999996
100
AcDbArc
 50
279.7530987587117
 51
80.24690124128831
  0
LINE
  5
1EB
330
1F
100
AcDbEntity
  8
Object
  6
Continuous
370
    15
100
AcDbLine
 10
18.28479272508633
 20
17.01264371485958
 30
0.0
 11
17.9137477247632
 21
17.07642156475908
 31
0.0
  0
LINE
  5
1EC
330
1F
100
AcDbEntity
  8
Object
  6
Continuous
370
    15
100
AcDbLine
 10
17.9137477247632
 20
17.07642156475908
 30
0.0
 11
17.54270272444001
 21
17.01264371485958
 31
0.0
  0
ARC
  5
1ED
330
1F
100
AcDbEntity
  8
Object
  6
Continuous
370
    15
100
AcDbCircle
 10
17.55064772476322
 20
16.96642163195472
 30
0.0
 40
0.0469000000000025
100
AcDbArc
 50
99.75309875870742
 51
260.2469012412949
  0
ARC
  5
1EE
330
1F
100
AcDbEntity
  8
Object
  6
Continuous
370
    15
100
AcDbCircle
 10
12.1862477247632
 20
10.27892163195472
 30
0.0
 40
0.0625
100
AcDbArc
 50
180.0
 51
270.0000000000008
  0
ARC
  5
1EF
330
1F
100
AcDbEntity
  8
Object
  6
Continuous
370
    15
100
AcDbCircle
 10
18.7862477247632
 20
10.27892163195472
 30
0.0
 40
0.0624999999999965
100
AcDbArc
 50
180.0
 51
270.0000000000041
  0
ARC
  5
1F0
330
1F
100
AcDbEntity
  8
Object
  6
Continuous
370
    15
100
AcDbCircle
 10
23.64124772476321
 20
16.15392163195472
 30
0.0
 40
0.0625
100
AcDbArc
 50
0.0
 51
90.0
  0
ARC
  5
1F1
330
1F
100
AcDbEntity
  8
Object
  6
Continuous
370
    15
100
AcDbCircle
 10
12.1862477247632
 20
16.15392163195472
 30
0.0
 40
0.0625000000000018
100
AcDbArc
 50
90.0
 51
180.0
  0
ARC
  5
1F2
330
1F
100
AcDbEntity
  8
Object
  6
Continuous
370
    15
100
AcDbCircle
 10
17.0412477247632
 20
16.15392163195472
 30
0.0
 40
0.0625000000000036
100
AcDbArc
 50
0.0
 51
89.99999999999674
  0
ARC
  5
1F3
330
1F
100
AcDbEntity
  8
Object
  6
Continuous
370
    15
100
AcDbCircle
 10
23.64124772476321
 20
10.27892163195472
 30
0.0
 40
0.0625
100
AcDbArc
 50
270.0000000000008
 51
0.0
  0
ARC
  5
1F4
330
1F
100
AcDbEntity
  8
Object
  6
Continuous
370
    15
100
AcDbCircle
 10
18.78624772476321
 20
16.15392163195472
 30
0.0
 40
0.0625
100
AcDbArc
 50
90.0
 51
180.0
  0
ARC
  5
1F5
330
1F
100
AcDbEntity
  8
Object
  6
Continuous
370
    15
100
AcDbCircle
 10
17.0412477247632
 20
10.27892163195472
 30
0.0
 40
0.0625000000000036
100
AcDbArc
 50
270.0000000000008
 51
0.0
  0
SPLINE
  5
1F6
330
1F
100
AcDbEntity
  8
Object
  6
Continuous
370
    15
100
AcDbSpline
210
0.0
220
0.0
230
1.0
 70
     8
 71
     3
 72
    10
 73
     6
 74
     0
 42
0.0000000001
 43
0.0000000001
 40
0.0
 40
0.0
 40
0.0
 40
0.0
 40
0.2792900365688926
 40
0.5596655158187229
 40
1.0
 40
1.0
 40
1.0
 40
1.0
 10
17.87879929515708
 20
16.95057216524874
 30
0.0
 10
17.87849626957265
 20
16.95262408138403
 30
0.0
 10
17.87788904071445
 20
16.95673588829406
 30
0.0
 10
17.87258475930563
 20
16.96234069165965
 30
0.0
 10
17.86750926343713
 20
16.96390888768053
 30
0.0
 10
17.86440827140341
 20
16.96486701344677
 30
0.0
  0
SPLINE
  5
1F7
330
1F
100
AcDbEntity
  8
Object
  6
Continuous
370
    15
100
AcDbSpline
210
0.0
220
0.0
230
1.0
 70
     8
 71
     3
 72
    11
 73
     7
 74
     0
 42
0.0000000001
 43
0.0000000001
 40
0.0
 40
0.0
 40
0.0
 40
0.0
 40
0.4997932723206102
 40
0.7489702294944049
 40
0.8745288568495091
 40
0.9999999999999998
 40
0.9999999999999998
 40
0.9999999999999998
 40
0.9999999999999998
 10
17.85479288373119
 20
16.93606905278994
 30
0.0
 10
17.86020610507732
 20
16.93604934569777
 30
0.0
 10
17.86831814231042
 20
16.93601981343682
 30
0.0
 10
17.87580036900201
 20
16.94198209321038
 30
0.0
 10
17.87842946223929
 20
16.94662016050259
 30
0.0
 10
17.87867604616276
 20
16.94925513643088
 30
0.0
 10
17.87879929515708
 20
16.95057216524874
 30
0.0
  0
LINE
  5
1F8
330
1F
100
AcDbEntity
  8
Object
  6
Continuous
370
    15
100
AcDbLine
 10
17.84392750258233
 20
16.93606905278994
 30
0.0
 11
17.85479288373119
 21
16.93606905278994
 31
0.0
  0
SPLINE
  5
1F9
330
1F
100
AcDbEntity
  8
Object
  6
Continuous
370
    15
100
AcDbSpline
210
0.0
220
0.0
230
1.0
 70
     8
 71
     3
 72
     9
 73
     5
 74
     0
 42
0.0000000001
 43
0.0000000001
 40
0.0
 40
0.0
 40
0.0
 40
0.0
 40
0.5597537472851214
 40
0.9999999999999998
 40
0.9999999999999998
 40
0.9999999999999998
 40
0.9999999999999998
 10
17.86440827140341
 20
16.96486701344677
 30
0.0
 10
17.86151722306257
 20
16.96521097529049
 30
0.0
 10
17.85635236556075
 20
16.96582546308158
 30
0.0
 10
17.85115258260638
 20
16.96581660772586
 30
0.0
 10
17.84886339764579
 20
16.96581270918868
 30
0.0
  0
LINE
  5
1FA
330
1F
100
AcDbEntity
  8
Object
  6
Continuous
370
    15
100
AcDbLine
 10
17.84392750258233
 20
16.96581270918868
 30
0.0
 11
17.84392750258233
 21
16.93606905278994
 31
0.0
  0
LINE
  5
1FB
330
1F
100
AcDbEntity
  8
Object
  6
Continuous
370
    15
100
AcDbLine
 10
17.84886339764579
 20
16.96581270918868
 30
0.0
 11
17.84392750258233
 21
16.96581270918868
 31
0.0
  0
SPLINE
  5
1FC
330
1F
100
AcDbEntity
  8
Object
  6
Continuous
370
    15
100
AcDbSpline
210
0.0
220
0.0
230
1.0
 70
     8
 71
     3
 72
    10
 73
     6
 74
     0
 42
0.0000000001
 43
0.0000000001
 40
0.0
 40
0.0
 40
0.0
 40
0.0
 40
0.279290051570986
 40
0.559665684979027
 40
1.0
 40
1.0
 40
1.0
 40
1.0
 10
17.70546595585194
 20
16.95057216524874
 30
0.0
 10
17.70516293048691
 20
16.95262408160093
 30
0.0
 10
17.70455570191744
 20
16.95673588996755
 30
0.0
 10
17.69925141580794
 20
16.96234068870694
 30
0.0
 10
17.69417592184252
 20
16.9639088867768
 30
0.0
 10
17.69107493209827
 20
16.96486701344677
 30
0.0
  0
SPLINE
  5
1FD
330
1F
100
AcDbEntity
  8
Object
  6
Continuous
370
    15
100
AcDbSpline
210
0.0
220
0.0
230
1.0
 70
     8
 71
     3
 72
    11
 73
     7
 74
     0
 42
0.0000000001
 43
0.0000000001
 40
0.0
 40
0.0
 40
0.0
 40
0.0
 40
0.4997929981435148
 40
0.7489699787474125
 40
0.8745288878678238
 40
1.0
 40
1.0
 40
1.0
 40
1.0
 10
17.68145955817589
 20
16.93606905278994
 30
0.0
 10
17.68687277816122
 20
16.93604934484776
 30
0.0
 10
17.69498481508937
 20
16.9360198113067
 30
0.0
 10
17.70246701799495
 20
16.94198210104383
 30
0.0
 10
17.70509614322855
 20
16.94662015473184
 30
0.0
 10
17.70534271372324
 20
16.94925513560197
 30
0.0
 10
17.70546595585194
 20
16.95057216524874
 30
0.0
  0
LINE
  5
1FE
330
1F
100
AcDbEntity
  8
Object
  6
Continuous
370
    15
100
AcDbLine
 10
17.67059417702704
 20
16.93606905278994
 30
0.0
 11
17.68145955817589
 21
16.93606905278994
 31
0.0
  0
LINE
  5
1FF
330
1F
100
AcDbEntity
  8
Object
  6
Continuous
370
    15
100
AcDbLine
 10
17.67059417702704
 20
16.96581270918868
 30
0.0
 11
17.67059417702704
 21
16.93606905278994
 31
0.0
  0
LINE
  5
200
330
1F
100
AcDbEntity
  8
Object
  6
Continuous
370
    15
100
AcDbLine
 10
17.67553005834065
 20
16.96581270918868
 30
0.0
 11
17.67059417702704
 21
16.96581270918868
 31
0.0
  0
SPLINE
  5
201
330
1F
100
AcDbEntity
  8
Object
  6
Continuous
370
    15
100
AcDbSpline
210
0.0
220
0.0
230
1.0
 70
     8
 71
     3
 72
     9
 73
     5
 74
     0
 42
0.0000000001
 43
0.0000000001
 40
0.0
 40
0.0
 40
0.0
 40
0.0
 40
0.5597537472851214
 40
0.9999999999999998
 40
0.9999999999999998
 40
0.9999999999999998
 40
0.9999999999999998
 10
17.69107493209827
 20
16.96486701344677
 30
0.0
 10
17.68818388375743
 20
16.96521097529049
 30
0.0
 10
17.68301902625561
 20
16.96582546308158
 30
0.0
 10
17.67781924330124
 20
16.96581660772586
 30
0.0
 10
17.67553005834065
 20
16.96581270918868
 30
0.0
  0
SPLINE
  5
202
330
1F
100
AcDbEntity
  8
Object
  6
Continuous
370
    15
100
AcDbSpline
210
0.0
220
0.0
230
1.0
 70
     8
 71
     3
 72
    12
 73
     8
 74
     0
 42
0.0000000001
 43
0.0000000001
 40
0.0
 40
0.0
 40
0.0
 40
0.0
 40
0.4988636772794814
 40
0.6242123685324703
 40
0.7495080599690052
 40
0.8747581629835828
 40
1.0
 40
1.0
 40
1.0
 40
1.0
 10
17.6755941692667
 20
16.97401773440353
 30
0.0
 10
17.68073015048504
 20
16.97401992486392
 30
0.0
 10
17.6871566416229
 20
16.97402266571783
 30
0.0
 10
17.69363638079598
 20
16.97796800686806
 30
0.0
 10
17.6961959633171
 20
16.98074180012981
 30
0.0
 10
17.69796822380125
 20
16.98413692097532
 30
0.0
 10
17.69818038834972
 20
16.98664303727827
 30
0.0
 10
17.69828646712334
 20
16.98789605408
 30
0.0
  0
LINE
  5
203
330
1F
100
AcDbEntity
  8
Object
  6
Continuous
370
    15
100
AcDbLine
 10
17.67059417702704
 20
16.97401773440353
 30
0.0
 11
17.6755941692667
 21
16.97401773440353
 31
0.0
  0
LINE
  5
204
330
1F
100
AcDbEntity
  8
Object
  6
Continuous
370
    15
100
AcDbLine
 10
17.67059417702704
 20
16.99965887819485
 30
0.0
 11
17.67059417702704
 21
16.97401773440353
 31
0.0
  0
LINE
  5
205
330
1F
100
AcDbEntity
  8
Object
  6
Continuous
370
    15
100
AcDbLine
 10
17.68072236502534
 20
16.99965887819485
 30
0.0
 11
17.67059417702704
 21
16.99965887819485
 31
0.0
  0
SPLINE
  5
206
330
1F
100
AcDbEntity
  8
Object
  6
Continuous
370
    15
100
AcDbSpline
210
0.0
220
0.0
230
1.0
 70
     8
 71
     3
 72
    12
 73
     8
 74
     0
 42
0.0000000001
 43
0.0000000001
 40
0.0
 40
0.0
 40
0.0
 40
0.0
 40
0.1253958735949123
 40
0.2506878547321286
 40
0.3759930651227472
 40
0.501391716486964
 40
1.0
 40
1.0
 40
1.0
 40
1.0
 10
17.69828646712334
 20
16.98789605408
 30
0.0
 10
17.6982268470129
 20
16.98889383769957
 30
0.0
 10
17.69810765618825
 20
16.99088857825925
 30
0.0
 10
17.69693148394678
 20
16.99370151718138
 30
0.0
 10
17.6949542992386
 20
16.99598233809983
 30
0.0
 10
17.68993966294991
 20
16.99934059916936
 30
0.0
 10
17.68481621750615
 20
16.99951751492454
 30
0.0
 10
17.68072236502534
 20
16.99965887819485
 30
0.0
  0
SPLINE
  5
207
330
1F
100
AcDbEntity
  8
Object
  6
Continuous
370
    15
100
AcDbSpline
210
0.0
220
0.0
230
1.0
 70
     8
 71
     3
 72
    12
 73
     8
 74
     0
 42
0.0000000001
 43
0.0000000001
 40
0.0
 40
0.0
 40
0.0
 40
0.0
 40
0.4988636422406497
 40
0.6242121944419238
 40
0.7495081899758861
 40
0.8747580797960608
 40
1.0
 40
1.0
 40
1.0
 40
1.0
 10
17.84892749940528
 20
16.97401773440353
 30
0.0
 10
17.85406348378101
 20
16.97401992160209
 30
0.0
 10
17.86048997752868
 20
16.97402265837401
 30
0.0
 10
17.86696970547547
 20
16.97796801315865
 30
0.0
 10
17.86952930771896
 20
16.98074179110925
 30
0.0
 10
17.87130154089529
 20
16.9841369269991
 30
0.0
 10
17.87151372322319
 20
16.98664303829774
 30
0.0
 10
17.87161981101176
 20
16.98789605408
 30
0.0
  0
LINE
  5
208
330
1F
100
AcDbEntity
  8
Object
  6
Continuous
370
    15
100
AcDbLine
 10
17.84392750258233
 20
16.97401773440353
 30
0.0
 11
17.84892749940528
 21
16.97401773440353
 31
0.0
  0
SPLINE
  5
209
330
1F
100
AcDbEntity
  8
Object
  6
Continuous
370
    15
100
AcDbSpline
210
0.0
220
0.0
230
1.0
 70
     8
 71
     3
 72
    12
 73
     8
 74
     0
 42
0.0000000001
 43
0.0000000001
 40
0.0
 40
0.0
 40
0.0
 40
0.0
 40
0.1253959997867245
 40
0.2506879440526065
 40
0.3759929416471738
 40
0.5013919484560994
 40
1.0
 40
1.0
 40
1.0
 40
1.0
 10
17.87161981101176
 20
16.98789605408
 30
0.0
 10
17.87156018297038
 20
16.98889383749309
 30
0.0
 10
17.87144097636787
 20
16.99088857634332
 30
0.0
 10
17.87026481529196
 20
16.99370151472118
 30
0.0
 10
17.86828763719661
 20
16.99598234374463
 30
0.0
 10
17.86327299192059
 20
16.99934058830699
 30
0.0
 10
17.8581495507123
 20
16.99951751015213
 30
0.0
 10
17.85405570433048
 20
16.99965887819485
 30
0.0
  0
LINE
  5
20A
330
1F
100
AcDbEntity
  8
Object
  6
Continuous
370
    15
100
AcDbLine
 10
17.84392750258233
 20
16.99965887819485
 30
0.0
 11
17.84392750258233
 21
16.97401773440353
 31
0.0
  0
LINE
  5
20B
330
1F
100
AcDbEntity
  8
Object
  6
Continuous
370
    15
100
AcDbLine
 10
17.85405570433048
 20
16.99965887819485
 30
0.0
 11
17.84392750258233
 21
16.99965887819485
 31
0.0
  0
SPLINE
  5
20C
330
1F
100
AcDbEntity
  8
Object
  6
Continuous
370
    15
100
AcDbSpline
210
0.0
220
0.0
230
1.0
 70
     8
 71
     3
 72
    12
 73
     8
 74
     0
 42
0.0000000001
 43
0.0000000001
 40
0.0
 40
0.0
 40
0.0
 40
0.0
 40
0.498952834499197
 40
0.6242623286016868
 40
0.7495633907205179
 40
0.8748181258446104
 40
1.0
 40
1.0
 40
1.0
 40
1.0
 10
17.92812621897408
 20
16.9728799075478
 30
0.0
 10
17.93319098869109
 20
16.97288337234453
 30
0.0
 10
17.93952774984117
 20
16.97288770730752
 30
0.0
 10
17.94603439068203
 20
16.97663676517777
 30
0.0
 10
17.94856033445894
 20
16.97939870651054
 30
0.0
 10
17.95028880891749
 20
16.98276723488303
 30
0.0
 10
17.95049240184548
 20
16.98524646786393
 30
0.0
 10
17.95059416869324
 20
16.98648572370559
 30
0.0
  0
LINE
  5
20D
330
1F
100
AcDbEntity
  8
Object
  6
Continuous
370
    15
100
AcDbLine
 10
17.91264544998372
 20
16.9729919595867
 30
0.0
 11
17.92812621897408
 21
16.9728799075478
 31
0.0
  0
LINE
  5
20E
330
1F
100
AcDbEntity
  8
Object
  6
Continuous
370
    15
100
AcDbLine
 10
17.91264544998372
 20
16.99965887819485
 30
0.0
 11
17.91264544998372
 21
16.9729919595867
 31
0.0
  0
LINE
  5
20F
330
1F
100
AcDbEntity
  8
Object
  6
Continuous
370
    15
100
AcDbLine
 10
17.92849480867443
 20
16.99965887819485
 30
0.0
 11
17.91264544998372
 21
16.99965887819485
 31
0.0
  0
SPLINE
  5
210
330
1F
100
AcDbEntity
  8
Object
  6
Continuous
370
    15
100
AcDbSpline
210
0.0
220
0.0
230
1.0
 70
     8
 71
     3
 72
    12
 73
     8
 74
     0
 42
0.0000000001
 43
0.0000000001
 40
0.0
 40
0.0
 40
0.0
 40
0.0
 40
0.1252021221624057
 40
0.2503642439366331
 40
0.3755924407066431
 40
0.5008952865803487
 40
1.0
 40
1.0
 40
1.0
 40
1.0
 10
17.95059416869324
 20
16.98648572370559
 30
0.0
 10
17.95049322977673
 20
16.98770171386985
 30
0.0
 10
17.95029138419235
 20
16.99013330570594
 30
0.0
 10
17.94851482729441
 20
16.99339154633558
 30
0.0
 10
17.94604682540068
 20
16.99608719324993
 30
0.0
 10
17.9397043285025
 20
16.99982950264902
 30
0.0
 10
17.93347448207653
 20
16.99973467573741
 30
0.0
 10
17.92849480867443
 20
16.99965887819485
 30
0.0
  0
SPLINE
  5
211
330
1F
100
AcDbEntity
  8
Object
  6
Continuous
370
    15
100
AcDbSpline
210
0.0
220
0.0
230
1.0
 70
     8
 71
     3
 72
    12
 73
     8
 74
     0
 42
0.0000000001
 43
0.0000000001
 40
0.0
 40
0.0
 40
0.0
 40
0.0
 40
0.2233884119895173
 40
0.4468073285237193
 40
0.6702300909257155
 40
0.8936507775261233
 40
1.0
 40
1.0
 40
1.0
 40
1.0
 10
24.67421213396809
 20
17.51642176183926
 30
0.0
 10
24.67179375682845
 20
17.51555939778459
 30
0.0
 10
24.66695667231048
 20
17.51383455191613
 30
0.0
 10
24.65970029008003
 20
17.50042284035772
 30
0.0
 10
24.65244817779646
 20
17.48082430541237
 30
0.0
 10
24.64644855881364
 20
17.46079609757916
 30
0.0
 10
24.64289390719191
 20
17.44841456533839
 30
0.0
 10
24.64174754900175
 20
17.44442158025816
 30
0.0
  0
LINE
  5
212
330
1F
100
AcDbEntity
  8
Object
  6
Continuous
370
    15
100
AcDbLine
 10
24.67421213396809
 20
17.51642176183926
 30
0.0
 11
24.67421213396809
 21
17.48042167104871
 31
0.0
  0
SPLINE
  5
213
330
1F
100
AcDbEntity
  8
Object
  6
Continuous
370
    15
100
AcDbSpline
210
0.0
220
0.0
230
1.0
 70
     8
 71
     3
 72
    11
 73
     7
 74
     0
 42
0.0000000001
 43
0.0000000001
 40
0.0
 40
0.0
 40
0.0
 40
0.0
 40
0.2826358337875301
 40
0.5306839105430822
 40
0.7786450630199879
 40
1.0
 40
1.0
 40
1.0
 40
1.0
 10
24.67421213396809
 20
17.48042167104871
 30
0.0
 10
24.67114847222784
 20
17.47973028057208
 30
0.0
 10
24.66539606648681
 20
17.47843210901
 30
0.0
 10
24.65697598793304
 20
17.46915944228161
 30
0.0
 10
24.64921090516188
 20
17.45743749107959
 30
0.0
 10
24.64413949924904
 20
17.44859308305665
 30
0.0
 10
24.64174754900175
 20
17.44442158025816
 30
0.0
  0
SPLINE
  5
214
330
1F
100
AcDbEntity
  8
Object
  6
Continuous
370
    15
100
AcDbSpline
210
0.0
220
0.0
230
1.0
 70
     8
 71
     3
 72
    12
 73
     8
 74
     0
 42
0.0000000001
 43
0.0000000001
 40
0.0
 40
0.0
 40
0.0
 40
0.0
 40
0.2233908280835833
 40
0.4468097919989372
 40
0.6702306023171687
 40
0.8936507549723094
 40
1.0
 40
1.0
 40
1.0
 40
1.0
 10
11.18574790052459
 20
17.44442158025816
 30
0.0
 10
11.18332950540289
 20
17.45284420554117
 30
0.0
 10
11.17849241056525
 20
17.46969051692767
 30
0.0
 10
11.17123637105747
 20
17.49190571559606
 30
0.0
 10
11.16398287676315
 20
17.50821992724401
 30
0.0
 10
11.15798442751358
 20
17.51559703160008
 30
0.0
 10
11.15442970018453
 20
17.51622064812914
 30
0.0
 10
11.15328331555825
 20
17.51642176183926
 30
0.0
  0
LINE
  5
215
330
1F
100
AcDbEntity
  8
Object
  6
Continuous
370
    15
100
AcDbLine
 10
11.15328331555825
 20
17.51642176183926
 30
0.0
 11
24.67421213396809
 21
17.51642176183926
 31
0.0
  0
SPLINE
  5
216
330
1F
100
AcDbEntity
  8
Object
  6
Continuous
370
    15
100
AcDbSpline
210
0.0
220
0.0
230
1.0
 70
     8
 71
     3
 72
    11
 73
     7
 74
     0
 42
0.0000000001
 43
0.0000000001
 40
0.0
 40
0.0
 40
0.0
 40
0.0
 40
0.2790654855392593
 40
0.5587715739546892
 40
0.7792983928563581
 40
1.0
 40
1.0
 40
1.0
 40
1.0
 10
17.73623518540317
 20
16.96754335586277
 30
0.0
 10
17.73693845828544
 20
16.96235201596244
 30
0.0
 10
17.73834661843319
 20
16.95195741929121
 30
0.0
 10
17.74887532960027
 20
16.9412063185974
 30
0.0
 10
17.76075398450992
 20
16.93493240514157
 30
0.0
 10
17.76890490802384
 20
16.9343227465414
 30
0.0
 10
17.77298198423435
 20
16.93401779648623
 30
0.0
  0
SPLINE
  5
217
330
1F
100
AcDbEntity
  8
Object
  6
Continuous
370
    15
100
AcDbSpline
210
0.0
220
0.0
230
1.0
 70
     8
 71
     3
 72
    11
 73
     7
 74
     0
 42
0.0000000001
 43
0.0000000001
 40
0.0
 40
0.0
 40
0.0
 40
0.0
 40
0.2791181259068392
 40
0.5585297017324111
 40
0.7793132470371278
 40
1.0
 40
1.0
 40
1.0
 40
1.0
 10
17.81008134732601
 20
16.96791207160333
 30
0.0
 10
17.80937489583613
 20
16.97314494658673
 30
0.0
 10
17.80796125013095
 20
16.98361619811933
 30
0.0
 10
17.79734192844647
 20
16.99449721742584
 30
0.0
 10
17.78527792345491
 20
17.00060793364186
 30
0.0
 10
17.77708003151206
 20
17.00134278791858
 30
0.0
 10
17.77298198423435
 20
17.00171013449856
 30
0.0
  0
SPLINE
  5
218
330
1F
100
AcDbEntity
  8
Object
  6
Continuous
370
    15
100
AcDbSpline
210
0.0
220
0.0
230
1.0
 70
     8
 71
     3
 72
    11
 73
     7
 74
     0
 42
0.0000000001
 43
0.0000000001
 40
0.0
 40
0.0
 40
0.0
 40
0.0
 40
0.2801036763034852
 40
0.5597783910298946
 40
0.7798898899580548
 40
1.0
 40
1.0
 40
1.0
 40
1.0
 10
17.77298198423435
 20
16.93401779648623
 30
0.0
 10
17.77821842328467
 20
16.9345588806121
 30
0.0
 10
17.78868328210053
 20
16.93564022022673
 30
0.0
 10
17.801144095223
 20
16.9440869849018
 30
0.0
 10
17.80881755334831
 20
16.95555478260725
 30
0.0
 10
17.80966008355283
 20
16.96379298393507
 30
0.0
 10
17.81008134732601
 20
16.96791207160333
 30
0.0
  0
SPLINE
  5
219
330
1F
100
AcDbEntity
  8
Object
  6
Continuous
370
    15
100
AcDbSpline
210
0.0
220
0.0
230
1.0
 70
     8
 71
     3
 72
    11
 73
     7
 74
     0
 42
0.0000000001
 43
0.0000000001
 40
0.0
 40
0.0
 40
0.0
 40
0.0
 40
0.2798818537013463
 40
0.5596796128030804
 40
0.779833496699383
 40
0.9999999999999998
 40
0.9999999999999998
 40
0.9999999999999998
 40
0.9999999999999998
 10
17.77298198423435
 20
17.00171013449856
 30
0.0
 10
17.76777805698516
 20
17.001092687734
 30
0.0
 10
17.75737176608288
 20
16.99985797972578
 30
0.0
 10
17.74511479738144
 20
16.99126815323429
 30
0.0
 10
17.73746153223123
 20
16.97986222199725
 30
0.0
 10
17.73664397548947
 20
16.9716497230299
 30
0.0
 10
17.73623518540317
 20
16.96754335586277
 30
0.0
  0
SPLINE
  5
21A
330
1F
100
AcDbEntity
  8
Object
  6
Continuous
370
    15
100
AcDbSpline
210
0.0
220
0.0
230
1.0
 70
     8
 71
     3
 72
    11
 73
     7
 74
     0
 42
0.0000000001
 43
0.0000000001
 40
0.0
 40
0.0
 40
0.0
 40
0.0
 40
0.2826445066633787
 40
0.5306852055581954
 40
0.7786486640458201
 40
1.0
 40
1.0
 40
1.0
 40
1.0
 10
11.18574790052459
 20
17.44442158025816
 30
0.0
 10
11.18268397054392
 20
17.44976227172966
 30
0.0
 10
11.17693122363651
 20
17.45978980060271
 30
0.0
 10
11.16851175288987
 20
17.47170440510939
 30
0.0
 10
11.16074676271836
 20
17.47909706515056
 30
0.0
 10
11.15567527301353
 20
17.47999714858806
 30
0.0
 10
11.15328331555825
 20
17.48042167104871
 30
0.0
  0
LINE
  5
21B
330
1F
100
AcDbEntity
  8
Object
  6
Continuous
370
    15
100
AcDbLine
 10
11.15328331555825
 20
17.51642176183926
 30
0.0
 11
11.15328331555825
 21
17.48042167104871
 31
0.0
  0
SPLINE
  5
21C
330
1F
100
AcDbEntity
  8
Object
  6
Continuous
370
    15
100
AcDbSpline
210
0.0
220
0.0
230
1.0
 70
     8
 71
     3
 72
    12
 73
     8
 74
     0
 42
0.0000000001
 43
0.0000000001
 40
0.0
 40
0.0
 40
0.0
 40
0.0
 40
0.2233906925311405
 40
0.4468095208769789
 40
0.6702295014982771
 40
0.8936510196046684
 40
1.0
 40
1.0
 40
1.0
 40
1.0
 10
11.18574790052459
 20
9.128421727398094
 30
0.0
 10
11.177325277439
 20
9.126003342650545
 30
0.0
 10
11.1604789704476
 20
9.121166268562515
 30
0.0
 10
11.13826376181996
 20
9.113910080932132
 30
0.0
 10
11.12194964664076
 20
9.106657169342824
 30
0.0
 10
11.11457195320869
 20
9.100658230306624
 30
0.0
 10
11.11394871082291
 20
9.097103516135366
 30
0.0
 10
11.1137477189435
 20
9.095957142431753
 30
0.0
  0
SPLINE
  5
21D
330
1F
100
AcDbEntity
  8
Object
  6
Continuous
370
    15
100
AcDbSpline
210
0.0
220
0.0
230
1.0
 70
     8
 71
     3
 72
    11
 73
     7
 74
     0
 42
0.0000000001
 43
0.0000000001
 40
0.0
 40
0.0
 40
0.0
 40
0.0
 40
0.2826456770957895
 40
0.5306851617199712
 40
0.7786482858984682
 40
1.0
 40
1.0
 40
1.0
 40
1.0
 10
11.18574790052459
 20
9.128421727398094
 30
0.0
 10
11.18040705754309
 20
9.125357971576814
 30
0.0
 10
11.17037928655264
 20
9.119605575961944
 30
0.0
 10
11.15846514175733
 20
9.111185438613208
 30
0.0
 10
11.15107247555976
 20
9.103420604827391
 30
0.0
 10
11.15017215254611
 20
9.098349107394742
 30
0.0
 10
11.1497475164041
 20
9.095957142431753
 30
0.0
  0
LINE
  5
21E
330
1F
100
AcDbEntity
  8
Object
  6
Continuous
370
    15
100
AcDbLine
 10
11.1137477189435
 20
9.095957142431753
 30
0.0
 11
11.1497475164041
 21
9.095957142431753
 31
0.0
  0
SPLINE
  5
21F
330
1F
100
AcDbEntity
  8
Object
  6
Continuous
370
    15
100
AcDbSpline
210
0.0
220
0.0
230
1.0
 70
     8
 71
     3
 72
    12
 73
     8
 74
     0
 42
0.0000000001
 43
0.0000000001
 40
0.0
 40
0.0
 40
0.0
 40
0.0
 40
0.223387836664777
 40
0.4468090160541695
 40
0.6702286161620629
 40
0.8936484533607139
 40
1.0
 40
1.0
 40
1.0
 40
1.0
 10
11.1137477189435
 20
17.47688616522451
 30
0.0
 10
11.11460990410511
 20
17.47446776403138
 30
0.0
 10
11.11633440311753
 20
17.4696306006761
 30
0.0
 10
11.12974711208105
 20
17.46237457659027
 30
0.0
 10
11.14934476377414
 20
17.45512164622049
 30
0.0
 10
11.16937321876997
 20
17.4491225651116
 30
0.0
 10
11.18175482286545
 20
17.44556794742887
 30
0.0
 10
11.18574790052459
 20
17.44442158025816
 30
0.0
  0
LINE
  5
220
330
1F
100
AcDbEntity
  8
Object
  6
Continuous
370
    15
100
AcDbLine
 10
11.1137477189435
 20
17.47688616522451
 30
0.0
 11
11.1497475164041
 21
17.47688616522451
 31
0.0
  0
SPLINE
  5
221
330
1F
100
AcDbEntity
  8
Object
  6
Continuous
370
    15
100
AcDbSpline
210
0.0
220
0.0
230
1.0
 70
     8
 71
     3
 72
    11
 73
     7
 74
     0
 42
0.0000000001
 43
0.0000000001
 40
0.0
 40
0.0
 40
0.0
 40
0.0
 40
0.2826384287414279
 40
0.5306814411388514
 40
0.7786454800004781
 40
1.0
 40
1.0
 40
1.0
 40
1.0
 10
11.1497475164041
 20
17.47688616522451
 30
0.0
 10
11.15043904036536
 20
17.47382237179239
 30
0.0
 10
11.15173744459857
 20
17.46806979836794
 30
0.0
 10
11.16100974285549
 20
17.45964995582502
 30
0.0
 10
11.17273198465408
 20
17.45188499153506
 30
0.0
 10
11.18157641636218
 20
17.44681353655604
 30
0.0
 10
11.18574790052459
 20
17.44442158025816
 30
0.0
  0
LINE
  5
222
330
1F
100
AcDbEntity
  8
Object
  6
Continuous
370
    15
100
AcDbLine
 10
11.1137477189435
 20
17.47688616522451
 30
0.0
 11
11.1137477189435
 21
9.095957142431753
 31
0.0
  0
SPLINE
  5
223
330
1F
100
AcDbEntity
  8
Object
  6
Continuous
370
    15
100
AcDbSpline
210
0.0
220
0.0
230
1.0
 70
     8
 71
     3
 72
    12
 73
     8
 74
     0
 42
0.0000000001
 43
0.0000000001
 40
0.0
 40
0.0
 40
0.0
 40
0.0
 40
0.2233899984251387
 40
0.4468095208739984
 40
0.6702295014965003
 40
0.8936510196040954
 40
1.0
 40
1.0
 40
1.0
 40
1.0
 10
24.64174754900175
 20
17.44442158025816
 30
0.0
 10
24.65017018546655
 20
17.44683981236997
 30
0.0
 10
24.667016571562
 20
17.45167659619581
 30
0.0
 10
24.68923163900186
 20
17.45893333604232
 30
0.0
 10
24.70554581157397
 20
17.46618610640352
 30
0.0
 10
24.71292349540608
 20
17.47218508069758
 30
0.0
 10
24.71354673848114
 20
17.4757397923373
 30
0.0
 10
24.71374773058284
 20
17.47688616522451
 30
0.0
  0
SPLINE
  5
224
330
1F
100
AcDbEntity
  8
Object
  6
Continuous
370
    15
100
AcDbSpline
210
0.0
220
0.0
230
1.0
 70
     8
 71
     3
 72
    11
 73
     7
 74
     0
 42
0.0000000001
 43
0.0000000001
 40
0.0
 40
0.0
 40
0.0
 40
0.0
 40
0.2826456770957895
 40
0.5306851617199712
 40
0.7786482858984682
 40
1.0
 40
1.0
 40
1.0
 40
1.0
 10
24.64174754900175
 20
17.44442158025816
 30
0.0
 10
24.64708839198325
 20
17.44748533607944
 30
0.0
 10
24.6571161629737
 20
17.45323773169431
 30
0.0
 10
24.66903030776901
 20
17.46165786904305
 30
0.0
 10
24.67642297396658
 20
17.46942270282887
 30
0.0
 10
24.67732329698022
 20
17.47449420026152
 30
0.0
 10
24.67774793312223
 20
17.47688616522451
 30
0.0
  0
LINE
  5
225
330
1F
100
AcDbEntity
  8
Object
  6
Continuous
370
    15
100
AcDbLine
 10
24.71374773058284
 20
17.47688616522451
 30
0.0
 11
24.67774793312223
 21
17.47688616522451
 31
0.0
  0
LINE
  5
226
330
1F
100
AcDbEntity
  8
Object
  6
Continuous
370
    15
100
AcDbLine
 10
24.71374773058284
 20
9.095957142431753
 30
0.0
 11
24.71374773058284
 21
17.47688616522451
 31
0.0
  0
SPLINE
  5
227
330
1F
100
AcDbEntity
  8
Object
  6
Continuous
370
    15
100
AcDbSpline
210
0.0
220
0.0
230
1.0
 70
     8
 71
     3
 72
    12
 73
     8
 74
     0
 42
0.0000000001
 43
0.0000000001
 40
0.0
 40
0.0
 40
0.0
 40
0.0
 40
0.2233871425539322
 40
0.4468090160422396
 40
0.6702286161549511
 40
0.8936484533584202
 40
0.9999999999999998
 40
0.9999999999999998
 40
0.9999999999999998
 40
0.9999999999999998
 10
24.71374773058284
 20
9.095957142431753
 30
0.0
 10
24.71288553601993
 20
9.098375390990288
 30
0.0
 10
24.71116101284513
 20
9.103212264082586
 30
0.0
 10
24.6977483696142
 20
9.110468840383852
 30
0.0
 10
24.67815068250895
 20
9.117721629526371
 30
0.0
 10
24.65812223109665
 20
9.123720745892658
 30
0.0
 10
24.64574062674387
 20
9.127275361043825
 30
0.0
 10
24.64174754900175
 20
9.128421727398094
 30
0.0
  0
SPLINE
  5
228
330
1F
100
AcDbEntity
  8
Object
  6
Continuous
370
    15
100
AcDbSpline
210
0.0
220
0.0
230
1.0
 70
     8
 71
     3
 72
    12
 73
     8
 74
     0
 42
0.0000000001
 43
0.0000000001
 40
0.0
 40
0.0
 40
0.0
 40
0.0
 40
0.2233908280835833
 40
0.4468097919989372
 40
0.6702306023171687
 40
0.8936507549723094
 40
1.0
 40
1.0
 40
1.0
 40
1.0
 10
24.64174754900175
 20
9.128421727398094
 30
0.0
 10
24.64416594412345
 20
9.119999102115091
 30
0.0
 10
24.64900303896108
 20
9.103152790728593
 30
0.0
 10
24.65625907846888
 20
9.080937592060205
 30
0.0
 10
24.66351257276318
 20
9.06462338041225
 30
0.0
 10
24.66951102201276
 20
9.057246276056179
 30
0.0
 10
24.6730657493418
 20
9.056622659527125
 30
0.0
 10
24.67421213396809
 20
9.056421545817006
 30
0.0
  0
SPLINE
  5
229
330
1F
100
AcDbEntity
  8
Object
  6
Continuous
370
    15
100
AcDbSpline
210
0.0
220
0.0
230
1.0
 70
     8
 71
     3
 72
    11
 73
     7
 74
     0
 42
0.0000000001
 43
0.0000000001
 40
0.0
 40
0.0
 40
0.0
 40
0.0
 40
0.2826441895048208
 40
0.5306877515517478
 40
0.7786489124266264
 40
0.9999999999999998
 40
0.9999999999999998
 40
0.9999999999999998
 40
0.9999999999999998
 10
24.64174754900175
 20
9.128421727398094
 30
0.0
 10
24.64481149531787
 20
9.123081067008307
 30
0.0
 10
24.65056430695087
 20
9.113053537134003
 30
0.0
 10
24.65898358122153
 20
9.101138535337842
 30
0.0
 10
24.6667487360271
 20
9.093746315039073
 30
0.0
 10
24.67182018529344
 20
9.092846183555693
 30
0.0
 10
24.67421213396809
 20
9.09242163660755
 30
0.0
  0
LINE
  5
22A
330
1F
100
AcDbEntity
  8
Object
  6
Continuous
370
    15
100
AcDbLine
 10
24.67421213396809
 20
9.056421545817006
 30
0.0
 11
24.67421213396809
 21
9.09242163660755
 31
0.0
  0
SPLINE
  5
22B
330
1F
100
AcDbEntity
  8
Object
  6
Continuous
370
    15
100
AcDbSpline
210
0.0
220
0.0
230
1.0
 70
     8
 71
     3
 72
    12
 73
     8
 74
     0
 42
0.0000000001
 43
0.0000000001
 40
0.0
 40
0.0
 40
0.0
 40
0.0
 40
0.2233882896817451
 40
0.4468070838914734
 40
0.6702278734010571
 40
0.8936484376760221
 40
1.0
 40
1.0
 40
1.0
 40
1.0
 10
11.15328331555825
 20
9.056421545817006
 30
0.0
 10
11.15570169417041
 20
9.057283906338042
 30
0.0
 10
11.16053878163359
 20
9.059008745138754
 30
0.0
 10
11.16779512173695
 20
9.072420472680018
 30
0.0
 10
11.17504729796787
 20
9.092018726435124
 30
0.0
 10
11.18104696159085
 20
9.112046995734278
 30
0.0
 10
11.18460154637623
 20
9.124428643923579
 30
0.0
 10
11.18574790052459
 20
9.128421727398094
 30
0.0
  0
LINE
  5
22C
330
1F
100
AcDbEntity
  8
Object
  6
Continuous
370
    15
100
AcDbLine
 10
11.15328331555825
 20
9.056421545817006
 30
0.0
 11
11.15328331555825
 21
9.09242163660755
 31
0.0
  0
SPLINE
  5
22D
330
1F
100
AcDbEntity
  8
Object
  6
Continuous
370
    15
100
AcDbSpline
210
0.0
220
0.0
230
1.0
 70
     8
 71
     3
 72
    11
 73
     7
 74
     0
 42
0.0000000001
 43
0.0000000001
 40
0.0
 40
0.0
 40
0.0
 40
0.0
 40
0.2826358337875301
 40
0.5306839105430822
 40
0.7786450630199879
 40
1.0
 40
1.0
 40
1.0
 40
1.0
 10
11.15328331555825
 20
9.09242163660755
 30
0.0
 10
11.1563469772985
 20
9.093113027084179
 30
0.0
 10
11.16209938303953
 20
9.094411198646263
 30
0.0
 10
11.1705194615933
 20
9.103683865374655
 30
0.0
 10
11.17828454436446
 20
9.115405816576668
 30
0.0
 10
11.1833559502773
 20
9.124250224599613
 30
0.0
 10
11.18574790052459
 20
9.128421727398094
 30
0.0
  0
LINE
  5
22E
330
1F
100
AcDbEntity
  8
Object
  6
Continuous
370
    15
100
AcDbLine
 10
18.11059417244287
 20
16.96549209955906
 30
0.0
 11
18.11059417244287
 21
16.92786373424515
 31
0.0
  0
LINE
  5
22F
330
1F
100
AcDbEntity
  8
Object
  6
Continuous
370
    15
100
AcDbLine
 10
18.161363407619
 20
16.92786373424515
 30
0.0
 11
18.1499371246164
 21
16.92786373424515
 31
0.0
  0
LINE
  5
230
330
1F
100
AcDbEntity
  8
Object
  6
Continuous
370
    15
100
AcDbLine
 10
18.11522557727382
 20
16.97196647809982
 30
0.0
 11
18.161363407619
 21
16.92786373424515
 31
0.0
  0
LINE
  5
231
330
1F
100
AcDbEntity
  8
Object
  6
Continuous
370
    15
100
AcDbLine
 10
18.1023890372293
 20
16.92786373424515
 30
0.0
 11
18.1023890372293
 21
17.0078639034097
 31
0.0
  0
LINE
  5
232
330
1F
100
AcDbEntity
  8
Object
  6
Continuous
370
    15
100
AcDbLine
 10
17.97726083522096
 20
17.0078639034097
 30
0.0
 11
17.98546596126798
 21
17.0078639034097
 31
0.0
  0
LINE
  5
233
330
1F
100
AcDbEntity
  8
Object
  6
Continuous
370
    15
100
AcDbLine
 10
17.97726083522096
 20
16.92786373424515
 30
0.0
 11
17.97726083522096
 21
17.0078639034097
 31
0.0
  0
LINE
  5
234
330
1F
100
AcDbEntity
  8
Object
  6
Continuous
370
    15
100
AcDbLine
 10
17.98546596126798
 20
16.92786373424515
 30
0.0
 11
17.97726083522096
 21
16.92786373424515
 31
0.0
  0
LINE
  5
235
330
1F
100
AcDbEntity
  8
Object
  6
Continuous
370
    15
100
AcDbLine
 10
17.91264544998372
 20
16.96478693437185
 30
0.0
 11
17.91264544998372
 21
16.92786373424515
 31
0.0
  0
LINE
  5
236
330
1F
100
AcDbEntity
  8
Object
  6
Continuous
370
    15
100
AcDbLine
 10
17.91796596290872
 20
16.96478693437185
 30
0.0
 11
17.91264544998372
 21
16.96478693437185
 31
0.0
  0
LINE
  5
237
330
1F
100
AcDbEntity
  8
Object
  6
Continuous
370
    15
100
AcDbLine
 10
17.9493922446613
 20
16.92786373424515
 30
0.0
 11
17.91796596290872
 21
16.96478693437185
 31
0.0
  0
LINE
  5
238
330
1F
100
AcDbEntity
  8
Object
  6
Continuous
370
    15
100
AcDbLine
 10
17.91264544998372
 20
16.92786373424515
 30
0.0
 11
17.90444032150183
 21
16.92786373424515
 31
0.0
  0
SPLINE
  5
239
330
1F
100
AcDbEntity
  8
Object
  6
Continuous
370
    15
100
AcDbSpline
210
0.0
220
0.0
230
1.0
 70
     8
 71
     3
 72
     9
 73
     5
 74
     0
 42
0.0000000001
 43
0.0000000001
 40
0.0
 40
0.0
 40
0.0
 40
0.0
 40
0.5590624577613335
 40
1.0
 40
1.0
 40
1.0
 40
1.0
 10
18.01267750191794
 20
16.9398028496568
 30
0.0
 10
18.00917647079254
 20
16.94459365131857
 30
0.0
 10
18.00291414522086
 20
16.95316300094178
 30
0.0
 10
18.00219383454683
 20
16.96368781464019
 30
0.0
 10
18.00187622252858
 20
16.9683286001249
 30
0.0
  0
SPLINE
  5
23A
330
1F
100
AcDbEntity
  8
Object
  6
Continuous
370
    15
100
AcDbSpline
210
0.0
220
0.0
230
1.0
 70
     8
 71
     3
 72
    11
 73
     7
 74
     0
 42
0.0000000001
 43
0.0000000001
 40
0.0
 40
0.0
 40
0.0
 40
0.0
 40
0.2791064558154443
 40
0.5587128468043657
 40
0.7791842831648145
 40
0.9999999999999998
 40
0.9999999999999998
 40
0.9999999999999998
 40
0.9999999999999998
 10
18.00187622252858
 20
16.9683286001249
 30
0.0
 10
18.0027293128849
 20
16.97480810970795
 30
0.0
 10
18.00443702165204
 20
16.98777873496443
 30
0.0
 10
18.01747422462903
 20
17.00136056322639
 30
0.0
 10
18.03247647494791
 20
17.00889424011801
 30
0.0
 10
18.04265058202988
 20
17.00957467622891
 30
0.0
 10
18.04774160435444
 20
17.00991515971341
 30
0.0
  0
LINE
  5
23B
330
1F
100
AcDbEntity
  8
Object
  6
Continuous
370
    15
100
AcDbLine
 10
17.95982493664195
 20
16.92786373424515
 30
0.0
 11
17.9493922446613
 21
16.92786373424515
 31
0.0
  0
SPLINE
  5
23C
330
1F
100
AcDbEntity
  8
Object
  6
Continuous
370
    15
100
AcDbSpline
210
0.0
220
0.0
230
1.0
 70
     8
 71
     3
 72
     9
 73
     5
 74
     0
 42
0.0000000001
 43
0.0000000001
 40
0.0
 40
0.0
 40
0.0
 40
0.0
 40
0.5583932558086515
 40
1.0
 40
1.0
 40
1.0
 40
1.0
 10
18.07814223733039
 20
16.98837682185946
 30
0.0
 10
18.07318227872695
 20
16.99271276504908
 30
0.0
 10
18.0642997240903
 20
17.00047780007503
 30
0.0
 10
18.05262486258148
 20
17.00133263405003
 30
0.0
 10
18.04746916500169
 20
17.00171013449856
 30
0.0
  0
LINE
  5
23D
330
1F
100
AcDbEntity
  8
Object
  6
Continuous
370
    15
100
AcDbLine
 10
18.08495313865029
 20
16.99318449965409
 30
0.0
 11
18.07814223733039
 21
16.98837682185946
 31
0.0
  0
SPLINE
  5
23E
330
1F
100
AcDbEntity
  8
Object
  6
Continuous
370
    15
100
AcDbSpline
210
0.0
220
0.0
230
1.0
 70
     8
 71
     3
 72
     9
 73
     5
 74
     0
 42
0.0000000001
 43
0.0000000001
 40
0.0
 40
0.0
 40
0.0
 40
0.0
 40
0.5598631965046006
 40
1.0
 40
1.0
 40
1.0
 40
1.0
 10
18.04774160435444
 20
17.00991515971341
 30
0.0
 10
18.05581637160597
 20
17.0091276817981
 30
0.0
 10
18.07023912220282
 20
17.00772112762518
 30
0.0
 10
18.08045621853127
 20
16.99762720603676
 30
0.0
 10
18.08495313865029
 20
16.99318449965409
 30
0.0
  0
LINE
  5
23F
330
1F
100
AcDbEntity
  8
Object
  6
Continuous
370
    15
100
AcDbLine
 10
18.11059417244287
 20
16.92786373424515
 30
0.0
 11
18.1023890372293
 21
16.92786373424515
 31
0.0
  0
SPLINE
  5
240
330
1F
100
AcDbEntity
  8
Object
  6
Continuous
370
    15
100
AcDbSpline
210
0.0
220
0.0
230
1.0
 70
     8
 71
     3
 72
    10
 73
     6
 74
     0
 42
0.0000000001
 43
0.0000000001
 40
0.0
 40
0.0
 40
0.0
 40
0.0
 40
0.2806966085847971
 40
0.5611675850367152
 40
1.0
 40
1.0
 40
1.0
 40
1.0
 10
17.70649160233691
 20
16.98804007908288
 30
0.0
 10
17.70633335916884
 20
16.986085840858
 30
0.0
 10
17.70601700003318
 20
16.98217893528201
 30
0.0
 10
17.70286040513803
 20
16.97570728471394
 30
0.0
 10
17.69868584795853
 20
16.97279674000339
 30
0.0
 10
17.69613903526399
 20
16.97102107568786
 30
0.0
  0
LINE
  5
241
330
1F
100
AcDbEntity
  8
Object
  6
Continuous
370
    15
100
AcDbLine
 10
18.15828646816408
 20
17.0078639034097
 30
0.0
 11
18.11522557727382
 21
16.97196647809982
 31
0.0
  0
LINE
  5
242
330
1F
100
AcDbEntity
  8
Object
  6
Continuous
370
    15
100
AcDbLine
 10
18.14602685312152
 20
17.0078639034097
 30
0.0
 11
18.15828646816408
 21
17.0078639034097
 31
0.0
  0
LINE
  5
243
330
1F
100
AcDbEntity
  8
Object
  6
Continuous
370
    15
100
AcDbLine
 10
18.11059417244287
 20
16.97831267145472
 30
0.0
 11
18.14602685312152
 21
17.0078639034097
 31
0.0
  0
LINE
  5
244
330
1F
100
AcDbEntity
  8
Object
  6
Continuous
370
    15
100
AcDbLine
 10
18.11059417244287
 20
17.0078639034097
 30
0.0
 11
18.11059417244287
 21
16.97831267145472
 31
0.0
  0
LINE
  5
245
330
1F
100
AcDbEntity
  8
Object
  6
Continuous
370
    15
100
AcDbLine
 10
18.1023890372293
 20
17.0078639034097
 30
0.0
 11
18.11059417244287
 21
17.0078639034097
 31
0.0
  0
SPLINE
  5
246
330
1F
100
AcDbEntity
  8
Object
  6
Continuous
370
    15
100
AcDbSpline
210
0.0
220
0.0
230
1.0
 70
     8
 71
     3
 72
    10
 73
     6
 74
     0
 42
0.0000000001
 43
0.0000000001
 40
0.0
 40
0.0
 40
0.0
 40
0.0
 40
0.2802615964030777
 40
0.5605896235564538
 40
1.0
 40
1.0
 40
1.0
 40
1.0
 10
18.08495313865029
 20
16.94259153744164
 30
0.0
 10
18.08225978802775
 20
16.93971579432331
 30
0.0
 10
18.07687244837449
 20
16.93396362644572
 30
0.0
 10
18.06419273916137
 20
16.92726239299632
 30
0.0
 10
18.05405750828376
 20
16.92636211206179
 30
0.0
 10
18.04786980787342
 20
16.92581247794143
 30
0.0
  0
LINE
  5
247
330
1F
100
AcDbEntity
  8
Object
  6
Continuous
370
    15
100
AcDbLine
 10
18.07814223733039
 20
16.94735110912533
 30
0.0
 11
18.08495313865029
 21
16.94259153744164
 31
0.0
  0
SPLINE
  5
248
330
1F
100
AcDbEntity
  8
Object
  6
Continuous
370
    15
100
AcDbSpline
210
0.0
220
0.0
230
1.0
 70
     8
 71
     3
 72
     9
 73
     5
 74
     0
 42
0.0000000001
 43
0.0000000001
 40
0.0
 40
0.0
 40
0.0
 40
0.0
 40
0.5590517367561665
 40
0.9999999999999998
 40
0.9999999999999998
 40
0.9999999999999998
 40
0.9999999999999998
 10
18.04799801139241
 20
16.93401779648623
 30
0.0
 10
18.05445246832923
 20
16.93473605789746
 30
0.0
 10
18.06599783437046
 20
16.93602084312217
 30
0.0
 10
18.07442589752145
 20
16.94388390544868
 30
0.0
 10
18.07814223733039
 20
16.94735110912533
 30
0.0
  0
SPLINE
  5
249
330
1F
100
AcDbEntity
  8
Object
  6
Continuous
370
    15
100
AcDbSpline
210
0.0
220
0.0
230
1.0
 70
     8
 71
     3
 72
    11
 73
     7
 74
     0
 42
0.0000000001
 43
0.0000000001
 40
0.0
 40
0.0
 40
0.0
 40
0.0
 40
0.2790778676468677
 40
0.5585903138409529
 40
0.7791179553002326
 40
0.9999999999999998
 40
0.9999999999999998
 40
0.9999999999999998
 40
0.9999999999999998
 10
18.01008134857559
 20
16.96778388641747
 30
0.0
 10
18.01078120734353
 20
16.96246014400414
 30
0.0
 10
18.01218201469571
 20
16.95180436907455
 30
0.0
 10
18.02305820866436
 20
16.94076902812152
 30
0.0
 10
18.03547120724303
 20
16.93482590989883
 30
0.0
 10
18.04382017557603
 20
16.9342873117687
 30
0.0
 10
18.04799801139241
 20
16.93401779648623
 30
0.0
  0
SPLINE
  5
24A
330
1F
100
AcDbEntity
  8
Object
  6
Continuous
370
    15
100
AcDbSpline
210
0.0
220
0.0
230
1.0
 70
     8
 71
     3
 72
    11
 73
     7
 74
     0
 42
0.0000000001
 43
0.0000000001
 40
0.0
 40
0.0
 40
0.0
 40
0.0
 40
0.2801055789619795
 40
0.5598452989171131
 40
0.7798928409144054
 40
1.0
 40
1.0
 40
1.0
 40
1.0
 10
18.04746916500169
 20
17.00171013449856
 30
0.0
 10
18.04221016950728
 20
17.0011617932619
 30
0.0
 10
18.03169904753866
 20
17.00006582700273
 30
0.0
 10
18.01914051944152
 20
16.99167518167601
 30
0.0
 10
18.01131092264142
 20
16.98021292690409
 30
0.0
 10
18.01049124360489
 20
16.97192727399853
 30
0.0
 10
18.01008134857559
 20
16.96778388641747
 30
0.0
  0
LINE
  5
24B
330
1F
100
AcDbEntity
  8
Object
  6
Continuous
370
    15
100
AcDbLine
 10
17.98546596126798
 20
17.0078639034097
 30
0.0
 11
17.98546596126798
 21
16.92786373424515
 31
0.0
  0
SPLINE
  5
24C
330
1F
100
AcDbEntity
  8
Object
  6
Continuous
370
    15
100
AcDbSpline
210
0.0
220
0.0
230
1.0
 70
     8
 71
     3
 72
    11
 73
     7
 74
     0
 42
0.0000000001
 43
0.0000000001
 40
0.0
 40
0.0
 40
0.0
 40
0.0
 40
0.280021072482804
 40
0.5597663998053072
 40
0.7799033729090909
 40
0.9999999999999998
 40
0.9999999999999998
 40
0.9999999999999998
 40
0.9999999999999998
 10
17.77330250219836
 20
16.92581247794143
 30
0.0
 10
17.76687233473064
 20
16.9264369437633
 30
0.0
 10
17.75401833177422
 20
16.9276852604768
 30
0.0
 10
17.73916747869262
 20
16.93854449570691
 30
0.0
 10
17.7295512011139
 20
16.95236333101387
 30
0.0
 10
17.7285370817395
 20
16.96246234078455
 30
0.0
 10
17.72803006852272
 20
16.96751138289879
 30
0.0
  0
SPLINE
  5
24D
330
1F
100
AcDbEntity
  8
Object
  6
Continuous
370
    15
100
AcDbSpline
210
0.0
220
0.0
230
1.0
 70
     8
 71
     3
 72
    11
 73
     7
 74
     0
 42
0.0000000001
 43
0.0000000001
 40
0.0
 40
0.0
 40
0.0
 40
0.0
 40
0.27922043112827
 40
0.5589445006679073
 40
0.7793487343430402
 40
1.0
 40
1.0
 40
1.0
 40
1.0
 10
17.81828647337303
 20
16.96789593845637
 30
0.0
 10
17.8174541216439
 20
16.9614631841425
 30
0.0
 10
17.81578791684745
 20
16.94858607255953
 30
0.0
 10
17.8030884286609
 20
16.93497817331671
 30
0.0
 10
17.78846097908283
 20
16.92695385602192
 30
0.0
 10
17.77835721417497
 20
16.92619307933676
 30
0.0
 10
17.77330250219836
 20
16.92581247794143
 30
0.0
  0
SPLINE
  5
24E
330
1F
100
AcDbEntity
  8
Object
  6
Continuous
370
    15
100
AcDbSpline
210
0.0
220
0.0
230
1.0
 70
     8
 71
     3
 72
    11
 73
     7
 74
     0
 42
0.0000000001
 43
0.0000000001
 40
0.0
 40
0.0
 40
0.0
 40
0.0
 40
0.2800908994582282
 40
0.5597439657132242
 40
0.779819554982426
 40
1.0
 40
1.0
 40
1.0
 40
1.0
 10
17.77259737367741
 20
17.00991515971341
 30
0.0
 10
17.77909911797342
 20
17.00931744242584
 30
0.0
 10
17.79209244315229
 20
17.00812294219192
 30
0.0
 10
17.80719740848052
 20
16.99725236827226
 30
0.0
 10
17.81684348716499
 20
16.98321660464814
 30
0.0
 10
17.81780540160398
 20
16.97300363799415
 30
0.0
 10
17.81828647337303
 20
16.96789593845637
 30
0.0
  0
SPLINE
  5
24F
330
1F
100
AcDbEntity
  8
Object
  6
Continuous
370
    15
100
AcDbSpline
210
0.0
220
0.0
230
1.0
 70
     8
 71
     3
 72
    11
 73
     7
 74
     0
 42
0.0000000001
 43
0.0000000001
 40
0.0
 40
0.0
 40
0.0
 40
0.0
 40
0.2793508866168312
 40
0.5588855563570477
 40
0.7794158326434246
 40
1.0
 40
1.0
 40
1.0
 40
1.0
 10
17.72803006852272
 20
16.96751138289879
 30
0.0
 10
17.72889259923681
 20
16.97390538138327
 30
0.0
 10
17.73061822811832
 20
16.98669758492205
 30
0.0
 10
17.74285639346144
 20
17.00064390363216
 30
0.0
 10
17.75751677581434
 20
17.00857202646676
 30
0.0
 10
17.76757009831734
 20
17.00946741216802
 30
0.0
 10
17.77259737367741
 20
17.00991515971341
 30
0.0
  0
LINE
  5
250
330
1F
100
AcDbEntity
  8
Object
  6
Continuous
370
    15
100
AcDbLine
 10
17.9137477247632
 20
16.87164147706279
 30
0.0
 11
18.28225168110735
 21
16.93498255867455
 31
0.0
  0
LINE
  5
251
330
1F
100
AcDbEntity
  8
Object
  6
Continuous
370
    15
100
AcDbLine
 10
18.1499371246164
 20
16.92786373424515
 30
0.0
 11
18.11059417244287
 21
16.96549209955906
 31
0.0
  0
LINE
  5
252
330
1F
100
AcDbEntity
  8
Object
  6
Continuous
370
    15
100
AcDbLine
 10
17.85923198786695
 20
16.92786373424515
 30
0.0
 11
17.83572237195204
 21
16.92786373424515
 31
0.0
  0
SPLINE
  5
253
330
1F
100
AcDbEntity
  8
Object
  6
Continuous
370
    15
100
AcDbSpline
210
0.0
220
0.0
230
1.0
 70
     8
 71
     3
 72
    11
 73
     7
 74
     0
 42
0.0000000001
 43
0.0000000001
 40
0.0
 40
0.0
 40
0.0
 40
0.0
 40
0.2800737765151162
 40
0.5598180343378253
 40
0.7797411277496181
 40
1.0
 40
1.0
 40
1.0
 40
1.0
 10
17.94136339845288
 20
17.00677418266491
 30
0.0
 10
17.94398102869324
 20
17.00598693584944
 30
0.0
 10
17.9492132094208
 20
17.00441336844779
 30
0.0
 10
17.95497820959768
 20
16.99918464185502
 30
0.0
 10
17.95832167289919
 20
16.99289444170902
 30
0.0
 10
17.95864000651634
 20
16.98861229644162
 30
0.0
 10
17.95879929474025
 20
16.98646959055863
 30
0.0
  0
LINE
  5
254
330
1F
100
AcDbEntity
  8
Object
  6
Continuous
370
    15
100
AcDbLine
 10
17.90444032150183
 20
16.92786373424515
 30
0.0
 11
17.90444032150183
 21
17.0078639034097
 31
0.0
  0
ARC
  5
255
330
1F
100
AcDbEntity
  8
Object
  6
Continuous
370
    15
100
AcDbCircle
 10
18.27684772476318
 20
16.96642163195472
 30
0.0
 40
0.0319000000000031
100
AcDbArc
 50
279.7530987587095
 51
80.24690124128914
  0
SPLINE
  5
256
330
1F
100
AcDbEntity
  8
Object
  6
Continuous
370
    15
100
AcDbSpline
210
0.0
220
0.0
230
1.0
 70
     8
 71
     3
 72
    11
 73
     7
 74
     0
 42
0.0000000001
 43
0.0000000001
 40
0.0
 40
0.0
 40
0.0
 40
0.0
 40
0.2785100076097361
 40
0.558125230700605
 40
0.7788292970593732
 40
1.0
 40
1.0
 40
1.0
 40
1.0
 10
17.71367109106552
 20
16.95057216524874
 30
0.0
 10
17.71308494702392
 20
16.94682209030036
 30
0.0
 10
17.71191033293647
 20
16.93930705892439
 30
0.0
 10
17.70376636806781
 20
16.93187855571364
 30
0.0
 10
17.69474936305918
 20
16.92831298176415
 30
0.0
 10
17.68885096303927
 20
16.92801358880826
 30
0.0
 10
17.68589864856181
 20
16.92786373424515
 30
0.0
  0
SPLINE
  5
257
330
1F
100
AcDbEntity
  8
Object
  6
Continuous
370
    15
100
AcDbSpline
210
0.0
220
0.0
230
1.0
 70
     8
 71
     3
 72
    11
 73
     7
 74
     0
 42
0.0000000001
 43
0.0000000001
 40
0.0
 40
0.0
 40
0.0
 40
0.0
 40
0.2805939671519728
 40
0.5599687832615209
 40
0.7799734281316186
 40
1.0
 40
1.0
 40
1.0
 40
1.0
 10
17.69613903526399
 20
16.97102107568786
 30
0.0
 10
17.69871072005519
 20
16.97011368215557
 30
0.0
 10
17.7038429159398
 20
16.9683028376197
 30
0.0
 10
17.70969561703645
 20
16.96323927119876
 30
0.0
 10
17.71310921588399
 20
16.95697998591757
 30
0.0
 10
17.71348379311654
 20
16.95270817642723
 30
0.0
 10
17.71367109106552
 20
16.95057216524874
 30
0.0
  0
SPLINE
  5
258
330
1F
100
AcDbEntity
  8
Object
  6
Continuous
370
    15
100
AcDbSpline
210
0.0
220
0.0
230
1.0
 70
     8
 71
     3
 72
    11
 73
     7
 74
     0
 42
0.0000000001
 43
0.0000000001
 40
0.0
 40
0.0
 40
0.0
 40
0.0
 40
0.2814189813256257
 40
0.560488354160613
 40
0.7803013145522356
 40
0.9999999999999998
 40
0.9999999999999998
 40
0.9999999999999998
 40
0.9999999999999998
 10
17.67916788131621
 20
17.0078639034097
 30
0.0
 10
17.68273977831233
 20
17.0077895232476
 30
0.0
 10
17.68985375001089
 20
17.00764138393432
 30
0.0
 10
17.69940283699359
 20
17.00390500180241
 30
0.0
 10
17.70542263013701
 20
16.9964455231758
 30
0.0
 10
17.70613534003951
 20
16.9908414080824
 30
0.0
 10
17.70649160233691
 20
16.98804007908288
 30
0.0
  0
LINE
  5
259
330
1F
100
AcDbEntity
  8
Object
  6
Continuous
370
    15
100
AcDbLine
 10
17.66238904181346
 20
17.0078639034097
 30
0.0
 11
17.67916788131621
 21
17.0078639034097
 31
0.0
  0
LINE
  5
25A
330
1F
100
AcDbEntity
  8
Object
  6
Continuous
370
    15
100
AcDbLine
 10
17.66238904181346
 20
16.92786373424515
 30
0.0
 11
17.66238904181346
 21
17.0078639034097
 31
0.0
  0
LINE
  5
25B
330
1F
100
AcDbEntity
  8
Object
  6
Continuous
370
    15
100
AcDbLine
 10
18.28225168110735
 20
16.99786047230352
 30
0.0
 11
17.9137477247632
 21
17.06120155391528
 31
0.0
  0
LINE
  5
25C
330
1F
100
AcDbEntity
  8
Object
  6
Continuous
370
    15
100
AcDbLine
 10
17.9137477247632
 20
17.06120155391528
 30
0.0
 11
17.54524376841899
 21
16.99786047230352
 31
0.0
  0
ARC
  5
25D
330
1F
100
AcDbEntity
  8
Object
  6
Continuous
370
    15
100
AcDbCircle
 10
17.55064772476322
 20
16.96642163195472
 30
0.0
 40
0.0319000000000031
100
AcDbArc
 50
99.75309875871085
 51
260.2469012412921
  0
LINE
  5
25E
330
1F
100
AcDbEntity
  8
Object
  6
Continuous
370
    15
100
AcDbLine
 10
17.54524376841899
 20
16.93498255867455
 30
0.0
 11
17.9137477247632
 21
16.87164147706279
 31
0.0
  0
LINE
  5
25F
330
1F
100
AcDbEntity
  8
Object
  6
Continuous
370
    15
100
AcDbLine
 10
17.90444032150183
 20
17.0078639034097
 30
0.0
 11
17.92174801427023
 21
17.0078639034097
 31
0.0
  0
SPLINE
  5
260
330
1F
100
AcDbEntity
  8
Object
  6
Continuous
370
    15
100
AcDbSpline
210
0.0
220
0.0
230
1.0
 70
     8
 71
     3
 72
     9
 73
     5
 74
     0
 42
0.0000000001
 43
0.0000000001
 40
0.0
 40
0.0
 40
0.0
 40
0.0
 40
0.5600267059354245
 40
1.0
 40
1.0
 40
1.0
 40
1.0
 10
18.04786980787342
 20
16.92581247794143
 30
0.0
 10
18.04041943884294
 20
16.92636815982834
 30
0.0
 10
18.02711584286882
 20
16.92736040159292
 30
0.0
 10
18.01708903125336
 20
16.93600115077568
 30
0.0
 10
18.01267750191794
 20
16.9398028496568
 30
0.0
  0
SPLINE
  5
261
330
1F
100
AcDbEntity
  8
Object
  6
Continuous
370
    15
100
AcDbSpline
210
0.0
220
0.0
230
1.0
 70
     8
 71
     3
 72
    11
 73
     7
 74
     0
 42
0.0000000001
 43
0.0000000001
 40
0.0
 40
0.0
 40
0.0
 40
0.0
 40
0.2785100870954057
 40
0.5581251141924937
 40
0.7788294868065964
 40
1.0
 40
1.0
 40
1.0
 40
1.0
 10
17.88700442349573
 20
16.95057216524874
 30
0.0
 10
17.88641827693459
 20
16.94682209119955
 30
0.0
 10
17.88524365837847
 20
16.93930706533903
 30
0.0
 10
17.87709970669231
 20
16.9318785483249
 30
0.0
 10
17.86808269851676
 20
16.92831298522173
 30
0.0
 10
17.86218429885424
 20
16.92801358984959
 30
0.0
 10
17.85923198786695
 20
16.92786373424515
 30
0.0
  0
SPLINE
  5
262
330
1F
100
AcDbEntity
  8
Object
  6
Continuous
370
    15
100
AcDbSpline
210
0.0
220
0.0
230
1.0
 70
     8
 71
     3
 72
    11
 73
     7
 74
     0
 42
0.0000000001
 43
0.0000000001
 40
0.0
 40
0.0
 40
0.0
 40
0.0
 40
0.2814187739894018
 40
0.5604884009211871
 40
0.7803012754773216
 40
1.0
 40
1.0
 40
1.0
 40
1.0
 10
17.85250122062134
 20
17.0078639034097
 30
0.0
 10
17.85607311411069
 20
17.00778952224837
 30
0.0
 10
17.86318708465973
 20
17.00764138082347
 30
0.0
 10
17.87273617566108
 20
17.00390500701412
 30
0.0
 10
17.87875596101293
 20
16.99644552034857
 30
0.0
 10
17.87946867341209
 20
16.99084140767105
 30
0.0
 10
17.87982493705877
 20
16.98804007908288
 30
0.0
  0
LINE
  5
263
330
1F
100
AcDbEntity
  8
Object
  6
Continuous
370
    15
100
AcDbLine
 10
17.83572237195204
 20
17.0078639034097
 30
0.0
 11
17.85250122062134
 21
17.0078639034097
 31
0.0
  0
LINE
  5
264
330
1F
100
AcDbEntity
  8
Object
  6
Continuous
370
    15
100
AcDbLine
 10
17.83572237195204
 20
16.92786373424515
 30
0.0
 11
17.83572237195204
 21
17.0078639034097
 31
0.0
  0
SPLINE
  5
265
330
1F
100
AcDbEntity
  8
Object
  6
Continuous
370
    15
100
AcDbSpline
210
0.0
220
0.0
230
1.0
 70
     8
 71
     3
 72
     9
 73
     5
 74
     0
 42
0.0000000001
 43
0.0000000001
 40
0.0
 40
0.0
 40
0.0
 40
0.0
 40
0.5602067241054179
 40
1.0
 40
1.0
 40
1.0
 40
1.0
 10
17.92174801427023
 20
17.0078639034097
 30
0.0
 10
17.92542389565646
 20
17.00787522827361
 30
0.0
 10
17.9319855473255
 20
17.00789544378234
 30
0.0
 10
17.93849887898525
 20
17.00711667843026
 30
0.0
 10
17.94136339845288
 20
17.00677418266491
 30
0.0
  0
LINE
  5
266
330
1F
100
AcDbEntity
  8
Object
  6
Continuous
370
    15
100
AcDbLine
 10
17.68589864856181
 20
16.92786373424515
 30
0.0
 11
17.66238904181346
 21
16.92786373424515
 31
0.0
  0
SPLINE
  5
267
330
1F
100
AcDbEntity
  8
Object
  6
Continuous
370
    15
100
AcDbSpline
210
0.0
220
0.0
230
1.0
 70
     8
 71
     3
 72
    11
 73
     7
 74
     0
 42
0.0000000001
 43
0.0000000001
 40
0.0
 40
0.0
 40
0.0
 40
0.0
 40
0.2805936719119335
 40
0.559968675473734
 40
0.7799733742350396
 40
0.9999999999999998
 40
0.9999999999999998
 40
0.9999999999999998
 40
0.9999999999999998
 10
17.86947237456913
 20
16.97102107568786
 30
0.0
 10
17.87204405497995
 20
16.97011368119267
 30
0.0
 10
17.87717624653503
 20
16.96830283317839
 30
0.0
 10
17.88302894943098
 20
16.96323927294282
 30
0.0
 10
17.88644254819531
 20
16.95697998575832
 30
0.0
 10
17.88681712550713
 20
16.95270817637415
 30
0.0
 10
17.88700442349573
 20
16.95057216524874
 30
0.0
  0
LINE
  5
268
330
1F
100
AcDbEntity
  8
Object
  6
Continuous
370
    15
100
AcDbLine
 10
17.92839865488938
 20
16.96478693437185
 30
0.0
 11
17.95982493664195
 21
16.92786373424515
 31
0.0
  0
SPLINE
  5
269
330
1F
100
AcDbEntity
  8
Object
  6
Continuous
370
    15
100
AcDbSpline
210
0.0
220
0.0
230
1.0
 70
     8
 71
     3
 72
    10
 73
     6
 74
     0
 42
0.0000000001
 43
0.0000000001
 40
0.0
 40
0.0
 40
0.0
 40
0.0
 40
0.2806965859368912
 40
0.561167571219687
 40
1.0
 40
1.0
 40
1.0
 40
1.0
 10
17.87982493705877
 20
16.98804007908288
 30
0.0
 10
17.87966669579181
 20
16.98608584080484
 30
0.0
 10
17.87935034043911
 20
16.98217893490354
 30
0.0
 10
17.87619374393942
 20
16.97570728478726
 30
0.0
 10
17.87201918707279
 20
16.97279674003118
 30
0.0
 10
17.86947237456913
 20
16.97102107568786
 30
0.0
  0
SPLINE
  5
26A
330
1F
100
AcDbEntity
  8
Object
  6
Continuous
370
    15
100
AcDbSpline
210
0.0
220
0.0
230
1.0
 70
     8
 71
     3
 72
    11
 73
     7
 74
     0
 42
0.0000000001
 43
0.0000000001
 40
0.0
 40
0.0
 40
0.0
 40
0.0
 40
0.2494495783242477
 40
0.3752444907800418
 40
0.5011084214243348
 40
1.0
 40
1.0
 40
1.0
 40
1.0
 10
17.95879929474025
 20
16.98646959055863
 30
0.0
 10
17.95834546156257
 20
16.98292283462006
 30
0.0
 10
17.95766276487973
 20
16.97758748534816
 30
0.0
 10
17.95325446283262
 20
16.97194469913425
 30
0.0
 10
17.94476593724938
 20
16.96552235700837
 30
0.0
 10
17.93566561568361
 20
16.96511345696426
 30
0.0
 10
17.92839865488938
 20
16.96478693437185
 30
0.0
  0
LINE
  5
26B
330
1F
100
AcDbEntity
  8
Object
  6
Continuous
370
    15
100
AcDbLine
 10
11.15328331555825
 20
9.056421545817006
 30
0.0
 11
24.67421213396809
 21
9.056421545817006
 31
0.0
  0
LINE
  5
26C
330
1F
100
AcDbEntity
  8
Object
  6
Continuous
370
    15
100
AcDbLine
 10
24.71374773058284
 20
9.095957142431753
 30
0.0
 11
24.67774793312223
 21
9.095957142431753
 31
0.0
  0
SPLINE
  5
26D
330
1F
100
AcDbEntity
  8
Object
  6
Continuous
370
    15
100
AcDbSpline
210
0.0
220
0.0
230
1.0
 70
     8
 71
     3
 72
    11
 73
     7
 74
     0
 42
0.0000000001
 43
0.0000000001
 40
0.0
 40
0.0
 40
0.0
 40
0.0
 40
0.2826384287414279
 40
0.5306814411388514
 40
0.7786454800004781
 40
1.0
 40
1.0
 40
1.0
 40
1.0
 10
24.67774793312223
 20
9.095957142431753
 30
0.0
 10
24.67705640916098
 20
9.099020935863865
 30
0.0
 10
24.67575800492777
 20
9.104773509288321
 30
0.0
 10
24.66648570667086
 20
9.113193351831238
 30
0.0
 10
24.65476346487226
 20
9.120958316121203
 30
0.0
 10
24.64591903316416
 20
9.126029771100217
 30
0.0
 10
24.64174754900175
 20
9.128421727398094
 30
0.0
  0
LINE
  5
26E
330
1F
100
AcDbEntity
  8
Object
  6
Continuous
370
    15
100
AcDbLine
 10
11.1202479105194
 20
17.50642155736247
 30
0.0
 11
11.1202479105194
 21
17.47688616522451
 31
0.0
  0
LINE
  5
26F
330
1F
100
AcDbEntity
  8
Object
  6
Continuous
370
    15
100
AcDbLine
 10
11.1202479105194
 20
9.095957142431753
 30
0.0
 11
11.1202479105194
 21
9.06549277435873
 31
0.0
  0
LINE
  5
270
330
1F
100
AcDbEntity
  8
Object
  6
Continuous
370
    15
100
AcDbLine
 10
24.70724753900694
 20
9.06549277435873
 30
0.0
 11
24.70724753900694
 21
9.095957142431753
 31
0.0
  0
LINE
  5
271
330
1F
100
AcDbEntity
  8
Object
  6
Continuous
370
    15
100
AcDbLine
 10
24.70724753900694
 20
17.47688616522451
 30
0.0
 11
24.70724753900694
 21
17.50642155736247
 31
0.0
  0
LINE
  5
272
330
1F
100
AcDbEntity
  8
Object
  6
Continuous
370
    15
100
AcDbLine
 10
24.70371232651269
 20
9.061957268534531
 30
0.0
 11
24.67421213396809
 21
9.061957268534531
 31
0.0
  0
LINE
  5
273
330
1F
100
AcDbEntity
  8
Object
  6
Continuous
370
    15
100
AcDbLine
 10
24.70371232651269
 20
17.50995706318667
 30
0.0
 11
24.67421213396809
 21
17.50995706318667
 31
0.0
  0
LINE
  5
274
330
1F
100
AcDbEntity
  8
Object
  6
Continuous
370
    15
100
AcDbLine
 10
11.15328331555825
 20
17.50995706318667
 30
0.0
 11
11.12378312301366
 21
17.50995706318667
 31
0.0
  0
LINE
  5
275
330
1F
100
AcDbEntity
  8
Object
  6
Continuous
370
    15
100
AcDbLine
 10
11.15328331555825
 20
9.061957268534531
 30
0.0
 11
11.12378312301366
 21
9.061957268534531
 31
0.0
  0
LINE
  5
276
330
1F
100
AcDbEntity
  8
Object
  6
Continuous
370
    15
100
AcDbLine
 10
11.08022069291723
 20
9.38366659212097
 30
0.0
 11
11.08022069291723
 21
9.248247596492763
 31
0.0
  0
LINE
  5
277
330
1F
100
AcDbEntity
  8
Object
  6
Continuous
370
    15
100
AcDbLine
 10
24.7472747566091
 20
9.248247596492763
 30
0.0
 11
24.7472747566091
 21
9.38366659212097
 31
0.0
  0
ARC
  5
278
330
1F
100
AcDbEntity
  8
Object
  6
Continuous
370
    15
100
AcDbCircle
 10
35.10258480371464
 20
15.93642163195472
 30
0.0
 40
0.0300000000000053
100
AcDbArc
 50
179.9999999999996
 51
250.5287793655177
  0
ARC
  5
279
330
1F
100
AcDbEntity
  8
Object
  6
Continuous
370
    15
100
AcDbCircle
 10
35.10258480371464
 20
16.49642163195472
 30
0.0
 40
0.030000000000002
100
AcDbArc
 50
109.4712206344853
 51
179.9999999999996
  0
ARC
  5
27A
330
1F
100
AcDbEntity
  8
Object
  6
Continuous
370
    15
100
AcDbCircle
 10
35.29258480371465
 20
15.79142163195471
 30
0.0
 40
0.0300000000000011
100
AcDbArc
 50
263.4217094218567
 51
0.0000000000004001
  0
ARC
  5
27B
330
1F
100
AcDbEntity
  8
Object
  6
Continuous
370
    15
100
AcDbCircle
 10
35.29258480371465
 20
16.64142163195472
 30
0.0
 40
0.0300000000000014
100
AcDbArc
 50
0.0000000000004001
 51
96.57829057814257
  0
ARC
  5
27C
330
1F
100
AcDbEntity
  8
Object
  6
Continuous
370
    15
100
AcDbCircle
 10
35.31778816924842
 20
16.00997320565249
 30
0.0
 40
0.250000000000001
100
AcDbArc
 50
205.7347999331744
 51
263.4217094218582
  0
ARC
  5
27D
330
1F
100
AcDbEntity
  8
Object
  6
Continuous
370
    15
100
AcDbCircle
 10
35.31778816924842
 20
16.42287005825695
 30
0.0
 40
0.2499999999999995
100
AcDbArc
 50
96.57829057814263
 51
154.2652000668271
  0
LINE
  5
27E
330
1F
100
AcDbEntity
  8
Object
  6
Continuous
370
    15
100
AcDbLine
 10
35.87258491801286
 20
17.37688617376627
 30
0.0
 11
35.87458484157625
 21
17.37688617376627
 31
0.0
  0
LINE
  5
27F
330
1F
100
AcDbEntity
  8
Object
  6
Continuous
370
    15
100
AcDbLine
 10
35.87458484157625
 20
9.195028157954926
 30
0.0
 11
35.82188459704064
 21
9.195028157954926
 31
0.0
  0
LINE
  5
280
330
1F
100
AcDbEntity
  8
Object
  6
Continuous
370
    15
100
AcDbLine
 10
35.75015838562795
 20
9.130957271440607
 30
0.0
 11
35.87458484157625
 21
9.130957271440607
 31
0.0
  0
LINE
  5
281
330
1F
100
AcDbEntity
  8
Object
  6
Continuous
370
    15
100
AcDbLine
 10
35.78506552904432
 20
9.155957195972678
 30
0.0
 11
35.87458484157625
 21
9.155957195972678
 31
0.0
  0
LINE
  5
282
330
1F
100
AcDbEntity
  8
Object
  6
Continuous
370
    15
100
AcDbLine
 10
35.87458484157625
 20
17.41595713574852
 30
0.0
 11
35.87258491801286
 21
17.41595713574852
 31
0.0
  0
LINE
  5
283
330
1F
100
AcDbEntity
  8
Object
  6
Continuous
370
    15
100
AcDbLine
 10
35.87458484157625
 20
17.44095706028059
 30
0.0
 11
35.87258491801286
 21
17.44095706028059
 31
0.0
  0
LINE
  5
284
330
1F
100
AcDbEntity
  8
Object
  6
Continuous
370
    15
100
AcDbLine
 10
35.91058493236679
 20
17.50995706318667
 30
0.0
 11
39.8805848022562
 21
17.50995706318667
 31
0.0
  0
LINE
  5
285
330
1F
100
AcDbEntity
  8
Object
  6
Continuous
370
    15
100
AcDbLine
 10
35.91058493236679
 20
17.54595715397722
 30
0.0
 11
35.91058493236679
 21
17.50995706318667
 31
0.0
  0
LINE
  5
286
330
1F
100
AcDbEntity
  8
Object
  6
Continuous
370
    15
100
AcDbLine
 10
35.91058493236679
 20
17.54595715397722
 30
0.0
 11
39.8805848022562
 21
17.54595715397722
 31
0.0
  0
LINE
  5
287
330
1F
100
AcDbEntity
  8
Object
  6
Continuous
370
    15
100
AcDbLine
 10
39.8805848022562
 20
17.54595715397722
 30
0.0
 11
39.8805848022562
 21
17.50995706318667
 31
0.0
  0
LINE
  5
288
330
1F
100
AcDbEntity
  8
Object
  6
Continuous
370
    15
100
AcDbLine
 10
35.91058493236679
 20
9.025957177743983
 30
0.0
 11
39.8805848022562
 21
9.025957177743983
 31
0.0
  0
LINE
  5
289
330
1F
100
AcDbEntity
  8
Object
  6
Continuous
370
    15
100
AcDbLine
 10
35.91058493236679
 20
9.061957268534531
 30
0.0
 11
35.91058493236679
 21
9.025957177743983
 31
0.0
  0
LINE
  5
28A
330
1F
100
AcDbEntity
  8
Object
  6
Continuous
370
    15
100
AcDbLine
 10
35.91058493236679
 20
9.061957268534531
 30
0.0
 11
39.8805848022562
 21
9.061957268534531
 31
0.0
  0
LINE
  5
28B
330
1F
100
AcDbEntity
  8
Object
  6
Continuous
370
    15
100
AcDbLine
 10
39.8805848022562
 20
9.061957268534531
 30
0.0
 11
39.8805848022562
 21
9.025957177743983
 31
0.0
  0
SPLINE
  5
28C
330
1F
100
AcDbEntity
  8
Object
  6
Continuous
370
    15
100
AcDbSpline
210
0.0
220
0.0
230
1.0
 70
     8
 71
     3
 72
    11
 73
     7
 74
     0
 42
0.0000000001
 43
0.0000000001
 40
0.0
 40
0.0
 40
0.0
 40
0.0
 40
0.2499988671367824
 40
0.5000029840804135
 40
0.7500018424589579
 40
1.0
 40
1.0
 40
1.0
 40
1.0
 10
39.8805848022562
 20
17.50995706318667
 30
0.0
 10
39.88530216189453
 20
17.50966246180661
 30
0.0
 10
39.89473698023257
 20
17.50907325286005
 30
0.0
 10
39.90663626276502
 20
17.50818944864361
 30
0.0
 10
39.9149614120429
 20
17.50730573221698
 30
0.0
 10
39.91604367210738
 20
17.50671628203857
 30
0.0
 10
39.91658480138112
 20
17.50642155736247
 30
0.0
  0
LINE
  5
28D
330
1F
100
AcDbEntity
  8
Object
  6
Continuous
370
    15
100
AcDbLine
 10
39.91658480138112
 20
9.06549277435873
 30
0.0
 11
39.91658480138112
 21
17.50642155736247
 31
0.0
  0
LINE
  5
28E
330
1F
100
AcDbEntity
  8
Object
  6
Continuous
370
    15
100
AcDbLine
 10
39.8805848022562
 20
17.50995706318667
 30
0.0
 11
39.8805848022562
 21
9.061957268534531
 31
0.0
  0
SPLINE
  5
28F
330
1F
100
AcDbEntity
  8
Object
  6
Continuous
370
    15
100
AcDbSpline
210
0.0
220
0.0
230
1.0
 70
     8
 71
     3
 72
    11
 73
     7
 74
     0
 42
0.0000000001
 43
0.0000000001
 40
0.0
 40
0.0
 40
0.0
 40
0.0
 40
0.2499981575410422
 40
0.4999970159195867
 40
0.7500011328632177
 40
1.0
 40
1.0
 40
1.0
 40
1.0
 10
39.91658480138112
 20
9.06549277435873
 30
0.0
 10
39.91604367210738
 20
9.065198049682635
 30
0.0
 10
39.9149614120429
 20
9.064608599504222
 30
0.0
 10
39.90663626276502
 20
9.06372488307759
 30
0.0
 10
39.89473698023257
 20
9.062841078861147
 30
0.0
 10
39.88530216189453
 20
9.062251869914593
 30
0.0
 10
39.8805848022562
 20
9.061957268534531
 30
0.0
  0
LINE
  5
290
330
1F
100
AcDbEntity
  8
Object
  6
Continuous
370
    15
100
AcDbLine
 10
35.91058493236679
 20
17.50995706318667
 30
0.0
 11
35.91058493236679
 21
9.061957268534531
 31
0.0
  0
LINE
  5
291
330
1F
100
AcDbEntity
  8
Object
  6
Continuous
370
    15
100
AcDbLine
 10
35.87458484157625
 20
9.06549277435873
 30
0.0
 11
35.87458484157625
 21
17.50642155736247
 31
0.0
  0
SPLINE
  5
292
330
1F
100
AcDbEntity
  8
Object
  6
Continuous
370
    15
100
AcDbSpline
210
0.0
220
0.0
230
1.0
 70
     8
 71
     3
 72
    11
 73
     7
 74
     0
 42
0.0000000001
 43
0.0000000001
 40
0.0
 40
0.0
 40
0.0
 40
0.0
 40
0.249997293689507
 40
0.499994724476861
 40
0.7499979333950116
 40
0.9999999999999998
 40
0.9999999999999998
 40
0.9999999999999998
 40
0.9999999999999998
 10
35.87458484157625
 20
17.50642155736247
 30
0.0
 10
35.87512595706382
 20
17.50671628190335
 30
0.0
 10
35.87620818833572
 20
17.50730573114673
 30
0.0
 10
35.88453325510496
 20
17.5081894488859
 30
0.0
 10
35.89643259860866
 20
17.50907326142309
 30
0.0
 10
35.90586749496574
 20
17.50966246304751
 30
0.0
 10
35.91058493236679
 20
17.50995706318667
 30
0.0
  0
SPLINE
  5
293
330
1F
100
AcDbEntity
  8
Object
  6
Continuous
370
    15
100
AcDbSpline
210
0.0
220
0.0
230
1.0
 70
     8
 71
     3
 72
    11
 73
     7
 74
     0
 42
0.0000000001
 43
0.0000000001
 40
0.0
 40
0.0
 40
0.0
 40
0.0
 40
0.2500020666049884
 40
0.5000052755231389
 40
0.750002706310493
 40
0.9999999999999998
 40
0.9999999999999998
 40
0.9999999999999998
 40
0.9999999999999998
 10
35.91058493236679
 20
9.061957268534531
 30
0.0
 10
35.90586749496574
 20
9.062251868673694
 30
0.0
 10
35.89643259860866
 20
9.062841070298109
 30
0.0
 10
35.88453325510496
 20
9.063724882835298
 30
0.0
 10
35.87620818833572
 20
9.064608600574473
 30
0.0
 10
35.87512595706382
 20
9.065198049817855
 30
0.0
 10
35.87458484157625
 20
9.06549277435873
 30
0.0
  0
LINE
  5
294
330
1F
100
AcDbEntity
  8
Object
  6
Continuous
370
    15
100
AcDbLine
 10
39.91658480138112
 20
17.50995706318667
 30
0.0
 11
39.89858480181866
 21
17.50995706318667
 31
0.0
  0
SPLINE
  5
295
330
1F
100
AcDbEntity
  8
Object
  6
Continuous
370
    15
100
AcDbSpline
210
0.0
220
0.0
230
1.0
 70
     8
 71
     3
 72
    11
 73
     7
 74
     0
 42
0.0000000001
 43
0.0000000001
 40
0.0
 40
0.0
 40
0.0
 40
0.0
 40
0.2499966289921808
 40
0.4999967717330449
 40
0.7500022675257715
 40
1.0
 40
1.0
 40
1.0
 40
1.0
 10
39.89858480181866
 20
17.50995706318667
 30
0.0
 10
39.8983142326549
 20
17.51231572929771
 30
0.0
 10
39.89777309052449
 20
17.51703309467129
 30
0.0
 10
39.89361053318996
 20
17.52298279586057
 30
0.0
 10
39.88766093252167
 20
17.52714561620912
 30
0.0
 10
39.8829434879295
 20
17.52768671170143
 30
0.0
 10
39.8805848022562
 20
17.52795725524691
 30
0.0
  0
SPLINE
  5
296
330
1F
100
AcDbEntity
  8
Object
  6
Continuous
370
    15
100
AcDbSpline
210
0.0
220
0.0
230
1.0
 70
     8
 71
     3
 72
    11
 73
     7
 74
     0
 42
0.0000000001
 43
0.0000000001
 40
0.0
 40
0.0
 40
0.0
 40
0.0
 40
0.2500028545891285
 40
0.5000022914583761
 40
0.7500012087504534
 40
1.0
 40
1.0
 40
1.0
 40
1.0
 10
39.91658480138112
 20
17.50995706318667
 30
0.0
 10
39.91604367663513
 20
17.51467447747363
 30
0.0
 10
39.9149614345407
 20
17.52410924155707
 30
0.0
 10
39.9066364281197
 20
17.53600889104682
 30
0.0
 10
39.8947368060844
 20
17.54433378428918
 30
0.0
 10
39.88530213607281
 20
17.54541603083881
 30
0.0
 10
39.8805848022562
 20
17.54595715397722
 30
0.0
  0
SPLINE
  5
297
330
1F
100
AcDbEntity
  8
Object
  6
Continuous
370
    15
100
AcDbSpline
210
0.0
220
0.0
230
1.0
 70
     8
 71
     3
 72
    11
 73
     7
 74
     0
 42
0.0000000001
 43
0.0000000001
 40
0.0
 40
0.0
 40
0.0
 40
0.0
 40
0.2499987912495468
 40
0.4999977085416241
 40
0.7499971454108716
 40
1.0
 40
1.0
 40
1.0
 40
1.0
 10
39.8805848022562
 20
9.025957177743983
 30
0.0
 10
39.88530213607281
 20
9.026498300882391
 30
0.0
 10
39.8947368060844
 20
9.027580547432023
 30
0.0
 10
39.9066364281197
 20
9.03590544067438
 30
0.0
 10
39.9149614345407
 20
9.047805090164125
 30
0.0
 10
39.91604367663513
 20
9.057239854247576
 30
0.0
 10
39.91658480138112
 20
9.061957268534531
 30
0.0
  0
LINE
  5
298
330
1F
100
AcDbEntity
  8
Object
  6
Continuous
370
    15
100
AcDbLine
 10
39.91658480138112
 20
9.061957268534531
 30
0.0
 11
39.89858480181866
 21
9.061957268534531
 31
0.0
  0
SPLINE
  5
299
330
1F
100
AcDbEntity
  8
Object
  6
Continuous
370
    15
100
AcDbSpline
210
0.0
220
0.0
230
1.0
 70
     8
 71
     3
 72
    11
 73
     7
 74
     0
 42
0.0000000001
 43
0.0000000001
 40
0.0
 40
0.0
 40
0.0
 40
0.0
 40
0.2499977324742284
 40
0.5000032282669552
 40
0.7500033710078191
 40
1.0
 40
1.0
 40
1.0
 40
1.0
 10
39.8805848022562
 20
9.043957076474285
 30
0.0
 10
39.8829434879295
 20
9.044227620019771
 30
0.0
 10
39.88766093252167
 20
9.044768715512084
 30
0.0
 10
39.89361053318996
 20
9.048931535860624
 30
0.0
 10
39.89777309052449
 20
9.054881237049922
 30
0.0
 10
39.8983142326549
 20
9.059598602423488
 30
0.0
 10
39.89858480181866
 20
9.061957268534531
 30
0.0
  0
LINE
  5
29A
330
1F
100
AcDbEntity
  8
Object
  6
Continuous
370
    15
100
AcDbLine
 10
35.87458484157625
 20
17.50995706318667
 30
0.0
 11
35.89258474030655
 21
17.50995706318667
 31
0.0
  0
SPLINE
  5
29B
330
1F
100
AcDbEntity
  8
Object
  6
Continuous
370
    15
100
AcDbSpline
210
0.0
220
0.0
230
1.0
 70
     8
 71
     3
 72
    11
 73
     7
 74
     0
 42
0.0000000001
 43
0.0000000001
 40
0.0
 40
0.0
 40
0.0
 40
0.0
 40
0.2500019907251781
 40
0.5
 40
0.7499980092748219
 40
1.0
 40
1.0
 40
1.0
 40
1.0
 10
35.91058493236679
 20
17.54595715397722
 30
0.0
 10
35.90586752078814
 20
17.54541604301729
 30
0.0
 10
35.89643277275881
 20
17.54433382971499
 30
0.0
 10
35.88453308975086
 20
17.5360089058026
 30
0.0
 10
35.87620816583847
 20
17.52410922279465
 30
0.0
 10
35.87512595253617
 20
17.51467447476532
 30
0.0
 10
35.87458484157625
 20
17.50995706318667
 30
0.0
  0
SPLINE
  5
29C
330
1F
100
AcDbEntity
  8
Object
  6
Continuous
370
    15
100
AcDbSpline
210
0.0
220
0.0
230
1.0
 70
     8
 71
     3
 72
    11
 73
     7
 74
     0
 42
0.0000000001
 43
0.0000000001
 40
0.0
 40
0.0
 40
0.0
 40
0.0
 40
0.2500046102702548
 40
0.5000078957957995
 40
0.7500054708014278
 40
1.0
 40
1.0
 40
1.0
 40
1.0
 10
35.91058493236679
 20
17.52795725524691
 30
0.0
 10
35.90822615689121
 20
17.52768672577014
 30
0.0
 10
35.90350861843892
 20
17.52714566825009
 30
0.0
 10
35.89755895136975
 20
17.52298280065086
 30
0.0
 10
35.89339642939783
 20
17.51703308707203
 30
0.0
 10
35.89285530223818
 20
17.5123157282362
 30
0.0
 10
35.89258474030655
 20
17.50995706318667
 30
0.0
  0
LINE
  5
29D
330
1F
100
AcDbEntity
  8
Object
  6
Continuous
370
    15
100
AcDbLine
 10
35.87458484157625
 20
9.061957268534531
 30
0.0
 11
35.89258474030655
 21
9.061957268534531
 31
0.0
  0
SPLINE
  5
29E
330
1F
100
AcDbEntity
  8
Object
  6
Continuous
370
    15
100
AcDbSpline
210
0.0
220
0.0
230
1.0
 70
     8
 71
     3
 72
    11
 73
     7
 74
     0
 42
0.0000000001
 43
0.0000000001
 40
0.0
 40
0.0
 40
0.0
 40
0.0
 40
0.2500019907251781
 40
0.5
 40
0.7499980092748219
 40
1.0
 40
1.0
 40
1.0
 40
1.0
 10
35.87458484157625
 20
9.061957268534531
 30
0.0
 10
35.87512595253617
 20
9.057239856955884
 30
0.0
 10
35.87620816583847
 20
9.047805108926553
 30
0.0
 10
35.88453308975086
 20
9.035905425918596
 30
0.0
 10
35.89643277275881
 20
9.027580502006209
 30
0.0
 10
35.90586752078814
 20
9.026498288703908
 30
0.0
 10
35.91058493236679
 20
9.025957177743983
 30
0.0
  0
SPLINE
  5
29F
330
1F
100
AcDbEntity
  8
Object
  6
Continuous
370
    15
100
AcDbSpline
210
0.0
220
0.0
230
1.0
 70
     8
 71
     3
 72
    11
 73
     7
 74
     0
 42
0.0000000001
 43
0.0000000001
 40
0.0
 40
0.0
 40
0.0
 40
0.0
 40
0.2499945291985722
 40
0.4999921042042005
 40
0.7499953897297452
 40
1.0
 40
1.0
 40
1.0
 40
1.0
 10
35.89258474030655
 20
9.061957268534531
 30
0.0
 10
35.89285530223818
 20
9.059598603485007
 30
0.0
 10
35.89339642939783
 20
9.054881244649177
 30
0.0
 10
35.89755895136975
 20
9.048931531070344
 30
0.0
 10
35.90350861843892
 20
9.044768663471113
 30
0.0
 10
35.90822615689121
 20
9.044227605951061
 30
0.0
 10
35.91058493236679
 20
9.043957076474285
 30
0.0
  0
LINE
  5
2A0
330
1F
100
AcDbEntity
  8
Object
  6
Continuous
370
    15
100
AcDbLine
 10
39.91658480138112
 20
17.50642155736247
 30
0.0
 11
39.91658480138112
 21
17.50995706318667
 31
0.0
  0
LINE
  5
2A1
330
1F
100
AcDbEntity
  8
Object
  6
Continuous
370
    15
100
AcDbLine
 10
39.91658480138112
 20
9.061957268534531
 30
0.0
 11
39.91658480138112
 21
9.06549277435873
 31
0.0
  0
LINE
  5
2A2
330
1F
100
AcDbEntity
  8
Object
  6
Continuous
370
    15
100
AcDbLine
 10
35.87458484157625
 20
17.50995706318667
 30
0.0
 11
35.87458484157625
 21
17.50642155736247
 31
0.0
  0
LINE
  5
2A3
330
1F
100
AcDbEntity
  8
Object
  6
Continuous
370
    15
100
AcDbLine
 10
35.87458484157625
 20
9.06549277435873
 30
0.0
 11
35.87458484157625
 21
9.061957268534531
 31
0.0
  0
LINE
  5
2A4
330
1F
100
AcDbEntity
  8
Object
  6
Continuous
370
    15
100
AcDbLine
 10
35.07258469301707
 20
16.21642157955229
 30
0.0
 11
35.07258469301707
 21
16.49642173163331
 31
0.0
  0
LINE
  5
2A5
330
1F
100
AcDbEntity
  8
Object
  6
Continuous
370
    15
100
AcDbLine
 10
35.07258469301707
 20
15.93642172080122
 30
0.0
 11
35.07258469301707
 21
16.21642157955229
 31
0.0
  0
LINE
  5
2A6
330
1F
100
AcDbEntity
  8
Object
  6
Continuous
370
    15
100
AcDbLine
 10
35.09258480864069
 20
15.90142159179237
 30
0.0
 11
35.09258480864069
 21
16.53142156731222
 31
0.0
  0
CIRCLE
  5
2A7
330
1F
100
AcDbEntity
  8
Object
  6
Continuous
370
    15
100
AcDbCircle
 10
35.68458480371463
 20
9.315957165860634
 30
0.0
 40
0.0324999999999975
  0
CIRCLE
  5
2A8
330
1F
100
AcDbEntity
  8
Object
  6
Continuous
370
    15
100
AcDbCircle
 10
35.68458480371463
 20
9.315957165860634
 30
0.0
 40
0.0677094453300061
  0
CIRCLE
  5
2A9
330
1F
100
AcDbEntity
  8
Object
  6
Continuous
370
    15
100
AcDbCircle
 10
35.68458480371463
 20
9.315957165860634
 30
0.0
 40
0.1309999999999969
  0
CIRCLE
  5
2AA
330
1F
100
AcDbEntity
  8
Object
  6
Continuous
370
    15
100
AcDbCircle
 10
35.68458480371463
 20
9.315957165860634
 30
0.0
 40
0.0306385550672972
  0
LINE
  5
2AB
330
1F
100
AcDbEntity
  8
Object
  6
Continuous
370
    15
100
AcDbLine
 10
35.39458470657877
 20
9.095957142431753
 30
0.0
 11
35.39458470657877
 21
17.47688616522451
 31
0.0
  0
LINE
  5
2AC
330
1F
100
AcDbEntity
  8
Object
  6
Continuous
370
    15
100
AcDbLine
 10
35.39458470657877
 20
17.47688616522451
 30
0.0
 11
35.87258491801286
 21
17.47688616522451
 31
0.0
  0
LINE
  5
2AD
330
1F
100
AcDbEntity
  8
Object
  6
Continuous
370
    15
100
AcDbLine
 10
35.87258491801286
 20
17.47688616522451
 30
0.0
 11
35.87258491801286
 21
9.345957267742303
 31
0.0
  0
ARC
  5
2AE
330
1F
100
AcDbEntity
  8
Object
  6
Continuous
370
    15
100
AcDbCircle
 10
35.62258480371465
 20
9.345957165860653
 30
0.0
 40
0.25
100
AcDbArc
 50
270.0000000000008
 51
0.0000000000004071
  0
LINE
  5
2AF
330
1F
100
AcDbEntity
  8
Object
  6
Continuous
370
    15
100
AcDbLine
 10
35.39458470657877
 20
9.095957142431753
 30
0.0
 11
35.62258479270231
 21
9.095957142431753
 31
0.0
  0
SPLINE
  5
2B0
330
1F
100
AcDbEntity
  8
Object
  6
Continuous
370
    15
100
AcDbSpline
210
0.0
220
0.0
230
1.0
 70
     8
 71
     3
 72
    12
 73
     8
 74
     0
 42
0.0000000001
 43
0.0000000001
 40
0.0
 40
0.0
 40
0.0
 40
0.0
 40
0.2233899984251387
 40
0.4468095208739984
 40
0.6702295014965003
 40
0.8936510196040954
 40
1.0
 40
1.0
 40
1.0
 40
1.0
 10
35.32258481832762
 20
17.44442158025816
 30
0.0
 10
35.3234471780698
 20
17.44683981236997
 30
0.0
 10
35.32517201152673
 20
17.45167659619581
 30
0.0
 10
35.33858365698435
 20
17.45893333604232
 30
0.0
 10
35.35818212484544
 20
17.46618610640352
 30
0.0
 10
35.37821012247795
 20
17.47218508069758
 30
0.0
 10
35.39059171748338
 20
17.4757397923373
 30
0.0
 10
35.39458470657877
 20
17.47688616522451
 30
0.0
  0
LINE
  5
2B1
330
1F
100
AcDbEntity
  8
Object
  6
Continuous
370
    15
100
AcDbLine
 10
35.32258481832762
 20
9.128421727398094
 30
0.0
 11
35.32258481832762
 21
17.44442158025816
 31
0.0
  0
SPLINE
  5
2B2
330
1F
100
AcDbEntity
  8
Object
  6
Continuous
370
    15
100
AcDbSpline
210
0.0
220
0.0
230
1.0
 70
     8
 71
     3
 72
    12
 73
     8
 74
     0
 42
0.0000000001
 43
0.0000000001
 40
0.0
 40
0.0
 40
0.0
 40
0.0
 40
0.2233871425539322
 40
0.4468090160422396
 40
0.6702286161549511
 40
0.8936484533584202
 40
0.9999999999999998
 40
0.9999999999999998
 40
0.9999999999999998
 40
0.9999999999999998
 10
35.39458470657877
 20
9.095957142431753
 30
0.0
 10
35.38616212859174
 20
9.098375390990288
 30
0.0
 10
35.3693156631242
 20
9.103212264082586
 30
0.0
 10
35.34710125958605
 20
9.110468840383852
 30
0.0
 10
35.33078606153961
 20
9.117721629526371
 30
0.0
 10
35.32340957381378
 20
9.123720745892658
 30
0.0
 10
35.32278594056959
 20
9.127275361043825
 30
0.0
 10
35.32258481832762
 20
9.128421727398094
 30
0.0
  0
SPLINE
  5
2B3
330
1F
100
AcDbEntity
  8
Object
  6
Continuous
370
    15
100
AcDbSpline
210
0.0
220
0.0
230
1.0
 70
     8
 71
     3
 72
    12
 73
     8
 74
     0
 42
0.0000000001
 43
0.0000000001
 40
0.0
 40
0.0
 40
0.0
 40
0.0
 40
0.2233908280835833
 40
0.4468097919989372
 40
0.6702306023171687
 40
0.8936507549723094
 40
1.0
 40
1.0
 40
1.0
 40
1.0
 10
35.32258481832762
 20
9.128421727398094
 30
0.0
 10
35.32344716511659
 20
9.119999102115091
 30
0.0
 10
35.32517196730617
 20
9.103152790728593
 30
0.0
 10
35.33858374567894
 20
9.080937592060205
 30
0.0
 10
35.35818196162553
 20
9.06462338041225
 30
0.0
 10
35.37821022511764
 20
9.057246276056179
 30
0.0
 10
35.39059172492064
 20
9.056622659527125
 30
0.0
 10
35.39458470657877
 20
9.056421545817006
 30
0.0
  0
SPLINE
  5
2B4
330
1F
100
AcDbEntity
  8
Object
  6
Continuous
370
    15
100
AcDbSpline
210
0.0
220
0.0
230
1.0
 70
     8
 71
     3
 72
    10
 73
     6
 74
     0
 42
0.0000000001
 43
0.0000000001
 40
0.0
 40
0.0
 40
0.0
 40
0.0
 40
0.0736120790809676
 40
0.563069205015913
 40
1.0
 40
1.0
 40
1.0
 40
1.0
 10
35.369147720429
 20
9.103438522672874
 30
0.0
 10
35.36955278951953
 20
9.102867956906607
 30
0.0
 10
35.37265122028842
 20
9.09850361865622
 30
0.0
 10
35.38178723396657
 20
9.093904279983227
 30
0.0
 10
35.39048323726201
 20
9.092896809830993
 30
0.0
 10
35.39458470657877
 20
9.09242163660755
 30
0.0
  0
LINE
  5
2B5
330
1F
100
AcDbEntity
  8
Object
  6
Continuous
370
    15
100
AcDbLine
 10
35.39458470657877
 20
9.056421545817006
 30
0.0
 11
35.39458470657877
 21
9.09242163660755
 31
0.0
  0
SPLINE
  5
2B6
330
1F
100
AcDbEntity
  8
Object
  6
Continuous
370
    15
100
AcDbSpline
210
0.0
220
0.0
230
1.0
 70
     8
 71
     3
 72
    12
 73
     8
 74
     0
 42
0.0000000001
 43
0.0000000001
 40
0.0
 40
0.0
 40
0.0
 40
0.0
 40
0.2233884119895173
 40
0.4468073285237193
 40
0.6702300909257155
 40
0.8936507775261233
 40
1.0
 40
1.0
 40
1.0
 40
1.0
 10
35.39458470657877
 20
17.51642176183926
 30
0.0
 10
35.38616217669402
 20
17.51555939778459
 30
0.0
 10
35.36931596679577
 20
17.51383455191613
 30
0.0
 10
35.34710089004381
 20
17.50042284035772
 30
0.0
 10
35.3307862011866
 20
17.48082430541237
 30
0.0
 10
35.3234096019588
 20
17.46079609757916
 30
0.0
 10
35.32278594478949
 20
17.44841456533839
 30
0.0
 10
35.32258481832762
 20
17.44442158025816
 30
0.0
  0
LINE
  5
2B7
330
1F
100
AcDbEntity
  8
Object
  6
Continuous
370
    15
100
AcDbLine
 10
35.39458470657877
 20
17.51642176183926
 30
0.0
 11
35.39458470657877
 21
17.48042167104871
 31
0.0
  0
SPLINE
  5
2B8
330
1F
100
AcDbEntity
  8
Object
  6
Continuous
370
    15
100
AcDbSpline
210
0.0
220
0.0
230
1.0
 70
     8
 71
     3
 72
     9
 73
     5
 74
     0
 42
0.0000000001
 43
0.0000000001
 40
0.0
 40
0.0
 40
0.0
 40
0.0
 40
0.5496349918696253
 40
1.0
 40
1.0
 40
1.0
 40
1.0
 10
35.39458470657877
 20
17.48042167104871
 30
0.0
 10
35.38917363777509
 20
17.47980288467401
 30
0.0
 10
35.37932879731967
 20
17.4786770713909
 30
0.0
 10
35.37197461781346
 20
17.47211532760358
 30
0.0
 10
35.36866255270036
 20
17.46916014780945
 30
0.0
  0
LINE
  5
2B9
330
1F
100
AcDbEntity
  8
Object
  6
Continuous
370
    15
100
AcDbLine
 10
35.39458470657877
 20
9.056421545817006
 30
0.0
 11
35.60258467707869
 21
9.056421545817006
 31
0.0
  0
LINE
  5
2BA
330
1F
100
AcDbEntity
  8
Object
  6
Continuous
370
    15
100
AcDbLine
 10
35.39458470657877
 20
9.09242163660755
 30
0.0
 11
35.60258467707869
 21
9.09242163660755
 31
0.0
  0
LINE
  5
2BB
330
1F
100
AcDbEntity
  8
Object
  6
Continuous
370
    15
100
AcDbLine
 10
35.60258467707869
 20
9.09242163660755
 30
0.0
 11
35.60258467707869
 21
9.056421545817006
 31
0.0
  0
LINE
  5
2BC
330
1F
100
AcDbEntity
  8
Object
  6
Continuous
370
    15
100
AcDbLine
 10
35.87258491801286
 20
17.51642176183926
 30
0.0
 11
35.39458470657877
 21
17.51642176183926
 31
0.0
  0
LINE
  5
2BD
330
1F
100
AcDbEntity
  8
Object
  6
Continuous
370
    15
100
AcDbLine
 10
35.87258491801286
 20
17.48042167104871
 30
0.0
 11
35.87258491801286
 21
17.51642176183926
 31
0.0
  0
LINE
  5
2BE
330
1F
100
AcDbEntity
  8
Object
  6
Continuous
370
    15
100
AcDbLine
 10
35.39458470657877
 20
17.48042167104871
 30
0.0
 11
35.87258491801286
 21
17.48042167104871
 31
0.0
  0
LINE
  5
2BF
330
1F
100
AcDbEntity
  8
Object
  6
Continuous
370
    15
100
AcDbLine
 10
35.2891478445944
 20
15.76161907346965
 30
0.0
 11
35.2891478445944
 21
16.67122408563493
 31
0.0
  0
SPLINE
  5
2CC
330
1F
100
AcDbEntity
  8
Object
  6
Continuous
370
    15
100
AcDbSpline
210
0.0
220
0.0
230
1.0
 70
     8
 71
     3
 72
    11
 73
     7
 74
     0
 42
0.0000000001
 43
0.0000000001
 40
0.0
 40
0.0
 40
0.0
 40
0.0
 40
0.2563926766206342
 40
0.5062740008838844
 40
0.7538218791347978
 40
1.0
 40
1.0
 40
1.0
 40
1.0
 10
13.83551534562487
 20
31.10733091429493
 30
0.0
 10
13.83660456602656
 20
31.10592487871829
 30
0.0
 10
13.83875534497188
 20
31.10314851526613
 30
0.0
 10
13.8396503883249
 20
31.09841932301308
 30
0.0
 10
13.83926480498889
 20
31.09451518639053
 30
0.0
 10
13.83855284425231
 20
31.09309059972027
 30
0.0
 10
13.83819785148999
 20
31.09238028251979
 30
0.0
  0
LINE
  5
2CD
330
1F
100
AcDbEntity
  8
Object
  6
Continuous
370
    15
100
AcDbLine
 10
14.32210174876111
 20
24.84816742269661
 30
0.0
 11
14.32210174876111
 21
30.7335527450924
 31
0.0
  0
LINE
  5
2CE
330
1F
100
AcDbEntity
  8
Object
  6
Continuous
370
    15
100
AcDbLine
 10
14.33481777652517
 20
30.75843418426018
 30
0.0
 11
22.77474410272862
 21
34.97839734736192
 31
0.0
  0
LINE
  5
2CF
330
1F
100
AcDbEntity
  8
Object
  6
Continuous
370
    15
100
AcDbLine
 10
22.83313428857924
 20
35.02770803314481
 30
0.0
 11
23.28381767480264
 21
35.80502214618618
 31
0.0
  0
LINE
  5
2D0
330
1F
100
AcDbEntity
  8
Object
  6
Continuous
370
    15
100
AcDbLine
 10
23.31650014980195
 20
30.38484914493971
 30
0.0
 11
23.31650014980195
 21
35.83090773033993
 31
0.0
  0
LINE
  5
2D1
330
1F
100
AcDbEntity
  8
Object
  6
Continuous
370
    15
100
AcDbLine
 10
14.42611755744952
 20
30.91746492116025
 30
0.0
 11
14.52535077739304
 21
30.9044796943293
 31
0.0
  0
LINE
  5
2D2
330
1F
100
AcDbEntity
  8
Object
  6
Continuous
370
    15
100
AcDbLine
 10
14.71040821401956
 20
31.27459463801891
 30
0.0
 11
14.64048032838908
 21
31.34619034209157
 31
0.0
  0
LINE
  5
2D3
330
1F
100
AcDbEntity
  8
Object
  6
Continuous
370
    15
100
AcDbLine
 10
22.55077467118064
 20
34.97979347802584
 30
0.0
 11
22.65000789112415
 21
34.96680825119489
 31
0.0
  0
LINE
  5
2D4
330
1F
100
AcDbEntity
  8
Object
  6
Continuous
370
    15
100
AcDbLine
 10
22.83506532775069
 20
35.33692319488449
 30
0.0
 11
22.7651374421202
 21
35.40851889895715
 31
0.0
  0
LINE
  5
2D5
330
1F
100
AcDbEntity
  8
Object
  6
Continuous
370
    15
100
AcDbLine
 10
10.62384706655535
 20
32.71013667739954
 30
0.0
 11
10.62384706655535
 21
25.39701582789287
 31
0.0
  0
LINE
  5
2D6
330
1F
100
AcDbEntity
  8
Object
  6
Continuous
370
    15
100
AcDbLine
 10
20.2501167127332
 20
37.54705171167163
 30
0.0
 11
10.64483749216488
 21
32.74441210138745
 31
0.0
  0
LINE
  5
2D7
330
1F
100
AcDbEntity
  8
Object
  6
Continuous
370
    15
100
AcDbLine
 10
10.64374699172087
 20
25.36328527170447
 30
0.0
 11
13.45096082102938
 21
23.95967835705022
 31
0.0
  0
LINE
  5
2D8
330
1F
100
AcDbEntity
  8
Object
  6
Continuous
370
    15
100
AcDbLine
 10
13.48425081630078
 20
23.9602235489366
 30
0.0
 11
13.53273545567339
 21
23.98446586862289
 31
0.0
  0
LINE
  5
2D9
330
1F
100
AcDbEntity
  8
Object
  6
Continuous
370
    15
100
AcDbLine
 10
23.11052049488732
 20
35.94670677344178
 30
0.0
 11
23.11052049488732
 21
36.11025941651102
 31
0.0
  0
LINE
  5
2DA
330
1F
100
AcDbEntity
  8
Object
  6
Continuous
370
    15
100
AcDbLine
 10
23.09062042064184
 20
36.14399004723939
 30
0.0
 11
20.28340659133333
 21
37.54759696189365
 31
0.0
  0
LINE
  5
2DB
330
1F
100
AcDbEntity
  8
Object
  6
Continuous
370
    15
100
AcDbLine
 10
19.76603032214887
 20
30.58657558636721
 30
0.0
 11
19.76603032214887
 21
30.58006959371752
 31
0.0
  0
SPLINE
  5
2DC
330
1F
100
AcDbEntity
  8
Object
  6
Continuous
370
    15
100
AcDbSpline
210
0.0
220
0.0
230
1.0
 70
     8
 71
     3
 72
    28
 73
    24
 74
     0
 42
0.0000000001
 43
0.0000000001
 40
0.0
 40
0.0
 40
0.0
 40
0.0
 40
0.0231808922531008
 40
0.0704773973897318
 40
0.117847612288203
 40
0.1661831127619633
 40
0.2158541538048221
 40
0.26663593595454
 40
0.3180126181797638
 40
0.369517727350571
 40
0.4209471609182024
 40
0.4722900292622621
 40
0.5235987755892149
 40
0.574950406529704
 40
0.6264044538904298
 40
0.6780474542993114
 40
0.7299497759774465
 40
0.7821254675709021
 40
0.8343830442687421
 40
0.8861702335993534
 40
0.9367583884786673
 40
0.9857177149711972
 40
0.9999999999999998
 40
0.9999999999999998
 40
0.9999999999999998
 40
0.9999999999999998
 10
16.2344621089667
 20
26.26408506347731
 30
0.0
 10
16.22656855916514
 20
26.26056358643278
 30
0.0
 10
16.20256961899901
 20
26.24985715915828
 30
0.0
 10
16.16902530668785
 20
26.22016062052459
 30
0.0
 10
16.13508069645879
 20
26.17734436247229
 30
0.0
 10
16.10949617013506
 20
26.12560159066021
 30
0.0
 10
16.09228457337087
 20
26.06637238598315
 30
0.0
 10
16.08407387898013
 20
26.00051291852068
 30
0.0
 10
16.0851734953201
 20
25.92974893380293
 30
0.0
 10
16.09555477190587
 20
25.85605720850703
 30
0.0
 10
16.11484250212138
 20
25.78144381798208
 30
0.0
 10
16.14245842910832
 20
25.70776828176288
 30
0.0
 10
16.17768807727191
 20
25.6367771398018
 30
0.0
 10
16.21969992250006
 20
25.57015051599353
 30
0.0
 10
16.26756617469069
 20
25.5094781618032
 30
0.0
 10
16.32029498783033
 20
25.45624539133006
 30
0.0
 10
16.37684889788581
 20
25.41183573623204
 30
0.0
 10
16.43612412917974
 20
25.37755589666104
 30
0.0
 10
16.49673426682325
 20
25.35477901669177
 30
0.0
 10
16.55713607063448
 20
25.34428636010318
 30
0.0
 10
16.61460543506256
 20
25.34775566645857
 30
0.0
 10
16.65674517620353
 20
25.35779659015283
 30
0.0
 10
16.67688826737405
 20
25.37005018642835
 30
0.0
 10
16.68143731921726
 20
25.37281749975932
 30
0.0
  0
LINE
  5
2DD
330
1F
100
AcDbEntity
  8
Object
  6
Continuous
370
    15
100
AcDbLine
 10
16.27136051331067
 20
26.28432006387708
 30
0.0
 11
16.23246967477971
 21
26.2648746446116
 31
0.0
  0
LINE
  5
2DE
330
1F
100
AcDbEntity
  8
Object
  6
Continuous
370
    15
100
AcDbLine
 10
16.6796834129623
 20
25.37044743779492
 30
0.0
 11
16.71857425149326
 21
25.3898928570604
 31
0.0
  0
LINE
  5
2DF
330
1F
100
AcDbEntity
  8
Object
  6
Continuous
370
    15
100
AcDbLine
 10
24.52830189949349
 20
30.41279075696852
 30
0.0
 11
24.50561934506705
 21
30.40144947975529
 31
0.0
  0
LINE
  5
2E0
330
1F
100
AcDbEntity
  8
Object
  6
Continuous
370
    15
100
AcDbLine
 10
24.49854813266826
 20
30.39791387355589
 30
0.0
 11
21.90568915361636
 21
29.10148438402995
 31
0.0
  0
LINE
  5
2E1
330
1F
100
AcDbEntity
  8
Object
  6
Continuous
370
    15
100
AcDbLine
 10
21.08327761565704
 20
28.69027861505028
 30
0.0
 11
20.68380863949964
 21
28.49054412697158
 31
0.0
  0
LINE
  5
2E2
330
1F
100
AcDbEntity
  8
Object
  6
Continuous
370
    15
100
AcDbLine
 10
19.86139712746728
 20
28.0793383709554
 30
0.0
 11
17.23878438159013
 21
26.76803199801682
 31
0.0
  0
LINE
  5
2E3
330
1F
100
AcDbEntity
  8
Object
  6
Continuous
370
    15
100
AcDbLine
 10
16.41637305104642
 20
26.35682633274496
 30
0.0
 11
16.27843172570944
 21
26.28785567007647
 31
0.0
  0
LINE
  5
2E4
330
1F
100
AcDbEntity
  8
Object
  6
Continuous
370
    15
100
AcDbLine
 10
16.72564546389204
 20
25.39342846325979
 30
0.0
 11
16.76797317880009
 21
25.41459232071381
 31
0.0
  0
LINE
  5
2E5
330
1F
100
AcDbEntity
  8
Object
  6
Continuous
370
    15
100
AcDbLine
 10
18.23692795111176
 20
26.14906970686965
 30
0.0
 11
20.21299735892875
 21
27.13710441077815
 31
0.0
  0
LINE
  5
2E6
330
1F
100
AcDbEntity
  8
Object
  6
Continuous
370
    15
100
AcDbLine
 10
22.90383272313798
 20
28.48252209288278
 30
0.0
 11
24.87990202724716
 21
29.47055674493737
 31
0.0
  0
SPLINE
  5
2E7
330
1F
100
AcDbEntity
  8
Object
  6
Continuous
370
    15
100
AcDbSpline
210
0.0
220
0.0
230
1.0
 70
     8
 71
     3
 72
    19
 73
    15
 74
     0
 42
0.0000000001
 43
0.0000000001
 40
0.0
 40
0.0
 40
0.0
 40
0.0
 40
0.0329064755585378
 40
0.0923392878637226
 40
0.1746501977314313
 40
0.2707511003374157
 40
0.3756328516886692
 40
0.4846304160438689
 40
0.5951435760392217
 40
0.7054560874822256
 40
0.8137106207344137
 40
0.9032914403191576
 40
0.9753079533421018
 40
1.0
 40
1.0
 40
1.0
 40
1.0
 10
22.71086854576816
 20
27.67032163871775
 30
0.0
 10
22.7107580901989
 20
27.67023107921377
 30
0.0
 10
22.71044813939338
 20
27.66997695901508
 30
0.0
 10
22.70309959523058
 20
27.66505655064572
 30
0.0
 10
22.68720013733165
 20
27.6561096429613
 30
0.0
 10
22.66071418607058
 20
27.64287480554306
 30
0.0
 10
22.62574124960364
 20
27.62716442487587
 30
0.0
 10
22.58522894888507
 20
27.61059097647323
 30
0.0
 10
22.54306839238576
 20
27.59491027455224
 30
0.0
 10
22.50330444376647
 20
27.58161800481568
 30
0.0
 10
22.47092809465607
 20
27.57232569089348
 30
0.0
 10
22.45022427443316
 20
27.5674538039294
 30
0.0
 10
22.44031167388847
 20
27.5661261509411
 30
0.0
 10
22.44073807152996
 20
27.56615159239633
 30
0.0
 10
22.44084694121526
 20
27.56615808821842
 30
0.0
  0
SPLINE
  5
2E8
330
1F
100
AcDbEntity
  8
Object
  6
Continuous
370
    15
100
AcDbSpline
210
0.0
220
0.0
230
1.0
 70
     8
 71
     3
 72
    12
 73
     8
 74
     0
 42
0.0000000001
 43
0.0000000001
 40
0.0
 40
0.0
 40
0.0
 40
0.0
 40
0.1545568124493601
 40
0.3264175050321161
 40
0.5162921081309554
 40
0.7687704636275749
 40
0.9999999999999998
 40
0.9999999999999998
 40
0.9999999999999998
 40
0.9999999999999998
 10
22.81221446853395
 20
27.69022973906579
 30
0.0
 10
22.80627495272629
 20
27.69339973636524
 30
0.0
 10
22.79373094447256
 20
27.70009463769664
 30
0.0
 10
22.7739367700076
 20
27.70364509362347
 30
0.0
 10
22.75419726165678
 20
27.70415439897391
 30
0.0
 10
22.73500592745359
 20
27.70211446425199
 30
0.0
 10
22.71989294361023
 20
27.69910142990635
 30
0.0
 10
22.71266840105872
 20
27.69766109257357
 30
0.0
  0
SPLINE
  5
2E9
330
1F
100
AcDbEntity
  8
Object
  6
Continuous
370
    15
100
AcDbSpline
210
0.0
220
0.0
230
1.0
 70
     8
 71
     3
 72
    19
 73
    15
 74
     0
 42
0.0000000001
 43
0.0000000001
 40
0.0
 40
0.0
 40
0.0
 40
0.0
 40
0.0546053486606842
 40
0.1549413111258302
 40
0.2599743024484942
 40
0.3624135962437369
 40
0.4642973350009376
 40
0.5666621108285522
 40
0.6708685866590296
 40
0.7806276503519472
 40
0.8602366055031803
 40
0.9275007925889038
 40
0.9812093637012168
 40
1.0
 40
1.0
 40
1.0
 40
1.0
 10
22.71266840105872
 20
27.69766109257357
 30
0.0
 10
22.70635768677639
 20
27.69621692156119
 30
0.0
 10
22.68845119283343
 20
27.69211912243279
 30
0.0
 10
22.65384108846943
 20
27.68221598793498
 30
0.0
 10
22.60834696720782
 20
27.66723002040997
 30
0.0
 10
22.56034716912819
 20
27.64950767774248
 30
0.0
 10
22.5135503259191
 20
27.63049627467785
 30
0.0
 10
22.47013751224973
 20
27.61106336786913
 30
0.0
 10
22.43182600356723
 20
27.59188176996101
 30
0.0
 10
22.40361493063544
 20
27.57521741601928
 30
0.0
 10
22.38274712775358
 20
27.56011762600382
 30
0.0
 10
22.36646331514946
 20
27.54278078743928
 30
0.0
 10
22.35495708140657
 20
27.52558216331396
 30
0.0
 10
22.3528298812364
 20
27.51448180240899
 30
0.0
 10
22.35227854493687
 20
27.51160476620406
 30
0.0
  0
SPLINE
  5
2EA
330
1F
100
AcDbEntity
  8
Object
  6
Continuous
370
    15
100
AcDbSpline
210
0.0
220
0.0
230
1.0
 70
     8
 71
     3
 72
    10
 73
     6
 74
     0
 42
0.0000000001
 43
0.0000000001
 40
0.0
 40
0.0
 40
0.0
 40
0.0
 40
0.456649440049621
 40
0.8330872727484191
 40
1.0
 40
1.0
 40
1.0
 40
1.0
 10
23.11144357205733
 20
26.95904197485051
 30
0.0
 10
23.11705212238371
 20
26.96334951934995
 30
0.0
 10
23.12728406725366
 20
26.97120797746806
 30
0.0
 10
23.13670843233444
 20
26.98053943811313
 30
0.0
 10
23.13941098914218
 20
26.99078789411532
 30
0.0
 10
23.14024119188895
 20
26.99393613370046
 30
0.0
  0
SPLINE
  5
2EB
330
1F
100
AcDbEntity
  8
Object
  6
Continuous
370
    15
100
AcDbSpline
210
0.0
220
0.0
230
1.0
 70
     8
 71
     3
 72
    10
 73
     6
 74
     0
 42
0.0000000001
 43
0.0000000001
 40
0.0
 40
0.0
 40
0.0
 40
0.0
 40
0.163735251581442
 40
0.7470843039707518
 40
1.0
 40
1.0
 40
1.0
 40
1.0
 10
22.57488296150341
 20
26.77703963947794
 30
0.0
 10
22.57609626203263
 20
26.77599347404902
 30
0.0
 10
22.58163225854299
 20
26.77122007452908
 30
0.0
 10
22.58894762956745
 20
26.76990967537886
 30
0.0
 10
22.59434616006637
 20
26.76954882952681
 30
0.0
 10
22.59597886442376
 20
26.76943969712585
 30
0.0
  0
LINE
  5
2EC
330
1F
100
AcDbEntity
  8
Object
  6
Continuous
370
    15
100
AcDbLine
 10
22.29853074785371
 20
27.4864597167458
 30
0.0
 11
22.33064531895922
 21
27.40311214265598
 31
0.0
  0
SPLINE
  5
2ED
330
1F
100
AcDbEntity
  8
Object
  6
Continuous
370
    15
100
AcDbSpline
210
0.0
220
0.0
230
1.0
 70
     8
 71
     3
 72
     9
 73
     5
 74
     0
 42
0.0000000001
 43
0.0000000001
 40
0.0
 40
0.0
 40
0.0
 40
0.0
 40
0.2583543546953956
 40
1.0
 40
1.0
 40
1.0
 40
1.0
 10
22.54461629480696
 20
26.78016408495312
 30
0.0
 10
22.54721607866969
 20
26.77955677272119
 30
0.0
 10
22.55727893929301
 20
26.77720607794523
 30
0.0
 10
22.56699812685425
 20
26.7769391498142
 30
0.0
 10
22.57420631998494
 20
26.7767411837282
 30
0.0
  0
SPLINE
  5
2EE
330
1F
100
AcDbEntity
  8
Object
  6
Continuous
370
    15
100
AcDbSpline
210
0.0
220
0.0
230
1.0
 70
     8
 71
     3
 72
    11
 73
     7
 74
     0
 42
0.0000000001
 43
0.0000000001
 40
0.0
 40
0.0
 40
0.0
 40
0.0
 40
0.242996086750279
 40
0.5555834336189235
 40
0.8894050929807061
 40
1.0
 40
1.0
 40
1.0
 40
1.0
 10
23.13904153898909
 20
26.99261133473212
 30
0.0
 10
23.14648655987517
 20
27.000348498175
 30
0.0
 10
23.16350876925547
 20
27.01803865890784
 30
0.0
 10
23.18603241364932
 20
27.05315654737532
 30
0.0
 10
23.20200243949156
 20
27.0855853871803
 30
0.0
 10
23.20624750192839
 20
27.1063427859483
 30
0.0
 10
23.20730390333421
 20
27.11150835078177
 30
0.0
  0
LINE
  5
2EF
330
1F
100
AcDbEntity
  8
Object
  6
Continuous
370
    15
100
AcDbLine
 10
22.30265182345496
 20
27.39232567810255
 30
0.0
 11
22.34190232062429
 21
27.29045672235887
 31
0.0
  0
LINE
  5
2F0
330
1F
100
AcDbEntity
  8
Object
  6
Continuous
370
    15
100
AcDbLine
 10
22.30784355242066
 20
27.2773332352094
 30
0.0
 11
22.31215696709405
 21
27.26613879693696
 31
0.0
  0
LINE
  5
2F1
330
1F
100
AcDbEntity
  8
Object
  6
Continuous
370
    15
100
AcDbLine
 10
13.66503943260643
 20
24.00456910797334
 30
0.0
 11
13.68085570124005
 21
24.01247724229015
 31
0.0
  0
LINE
  5
2F2
330
1F
100
AcDbEntity
  8
Object
  6
Continuous
370
    15
100
AcDbLine
 10
13.56368580305501
 20
24.24681722236829
 30
0.0
 11
13.5478695344214
 21
24.23890908805149
 31
0.0
  0
SPLINE
  5
2F3
330
1F
100
AcDbEntity
  8
Object
  6
Continuous
370
    15
100
AcDbSpline
210
0.0
220
0.0
230
1.0
 70
     8
 71
     3
 72
    17
 73
    13
 74
     0
 42
0.0000000001
 43
0.0000000001
 40
0.0
 40
0.0
 40
0.0
 40
0.0
 40
0.0341466840648754
 40
0.140693963308824
 40
0.2454383129818252
 40
0.3493989994759673
 40
0.4612613747584171
 40
0.5794734119850955
 40
0.6985481352632026
 40
0.7999401790788805
 40
0.9067874717811736
 40
1.0
 40
1.0
 40
1.0
 40
1.0
 10
13.60321382228786
 20
24.15677195044549
 30
0.0
 10
13.60305413866594
 20
24.15674521156095
 30
0.0
 10
13.60239619713343
 20
24.15663503981971
 30
0.0
 10
13.60549071822158
 20
24.15618646956739
 30
0.0
 10
13.61132013702129
 20
24.15239816171753
 30
0.0
 10
13.61843888041426
 20
24.14546693813137
 30
0.0
 10
13.62522767016441
 20
24.13574054516459
 30
0.0
 10
13.63063280031244
 20
24.1240911217559
 30
0.0
 10
13.63344241602111
 20
24.11281448420664
 30
0.0
 10
13.63388763726715
 20
24.10380365647256
 30
0.0
 10
13.6326233366679
 20
24.09837906496355
 30
0.0
 10
13.63238304502317
 20
24.09809617499862
 30
0.0
 10
13.63227108755158
 20
24.09796436997792
 30
0.0
  0
LINE
  5
2F4
330
1F
100
AcDbEntity
  8
Object
  6
Continuous
370
    15
100
AcDbLine
 10
13.60382009806639
 20
24.15467688777418
 30
0.0
 11
13.5896096409543
 21
24.14757165921813
 31
0.0
  0
LINE
  5
2F5
330
1F
100
AcDbEntity
  8
Object
  6
Continuous
370
    15
100
AcDbLine
 10
13.61701359652569
 20
24.09276362541718
 30
0.0
 11
13.63111868651651
 21
24.09981617041258
 31
0.0
  0
LINE
  5
2F6
330
1F
100
AcDbEntity
  8
Object
  6
Continuous
370
    15
100
AcDbLine
 10
18.76877077733013
 20
24.89224144159962
 30
0.0
 11
28.28815131901752
 21
29.65193171244334
 31
0.0
  0
LINE
  5
2F7
330
1F
100
AcDbEntity
  8
Object
  6
Continuous
370
    15
100
AcDbLine
 10
13.67487570227638
 20
23.79090601654275
 30
0.0
 11
18.75652993868978
 21
24.88793675348664
 31
0.0
  0
LINE
  5
2F8
330
1F
100
AcDbEntity
  8
Object
  6
Continuous
370
    15
100
AcDbLine
 10
18.58619937214817
 20
26.04010832951663
 30
0.0
 11
20.82803048306768
 21
26.52407593110329
 31
0.0
  0
LINE
  5
2F9
330
1F
100
AcDbEntity
  8
Object
  6
Continuous
370
    15
100
AcDbLine
 10
13.57636055511606
 20
24.31251826155146
 30
0.0
 11
13.55090485421033
 21
24.29979041109859
 31
0.0
  0
LINE
  5
2FA
330
1F
100
AcDbEntity
  8
Object
  6
Continuous
370
    15
100
AcDbLine
 10
23.25310419602829
 20
28.3735607414567
 30
0.0
 11
25.4949353069478
 21
28.85752834304335
 31
0.0
  0
LINE
  5
2FB
330
1F
100
AcDbEntity
  8
Object
  6
Continuous
370
    15
100
AcDbLine
 10
13.81601786504553
 20
31.08798898064369
 30
0.0
 11
13.83369548121131
 21
31.0791501725608
 31
0.0
  0
ARC
  5
2FC
330
1F
100
AcDbEntity
  8
Object
  6
Continuous
370
    15
100
AcDbCircle
 10
13.79834024887976
 20
31.15894176617172
 30
0.0
 40
0.0872736550408511
100
AcDbArc
 50
246.102121732578
 51
293.8978782674152
  0
LINE
  5
2FD
330
1F
100
AcDbEntity
  8
Object
  6
Continuous
370
    15
100
AcDbLine
 10
13.78066263271397
 20
31.08798898064369
 30
0.0
 11
13.76298501654819
 21
31.0791501725608
 31
0.0
  0
ARC
  5
2FE
330
1F
100
AcDbEntity
  8
Object
  6
Continuous
370
    15
100
AcDbCircle
 10
13.79834024887975
 20
31.12788623875881
 30
0.0
 40
0.0436381635544955
100
AcDbArc
 50
246.1028989972986
 51
293.8971010027115
  0
ARC
  5
2FF
330
1F
100
AcDbEntity
  8
Object
  6
Continuous
370
    15
100
AcDbCircle
 10
13.77900098946816
 20
31.09895259244613
 30
0.0
 40
0.0723824283419644
100
AcDbArc
 50
0.9675539187787162
 51
59.24240973445071
  0
LINE
  5
300
330
1F
100
AcDbEntity
  8
Object
  6
Continuous
370
    15
100
AcDbLine
 10
13.83369548121131
 20
31.10901366461603
 30
0.0
 11
13.85137309737709
 21
31.10017485653314
 31
0.0
  0
ARC
  5
301
330
1F
100
AcDbEntity
  8
Object
  6
Continuous
370
    15
100
AcDbCircle
 10
13.79750836166475
 20
31.1084019147466
 30
0.0
 40
0.0361922900488472
100
AcDbArc
 50
0.9685033696677994
 51
59.2414602835685
  0
LINE
  5
302
330
1F
100
AcDbEntity
  8
Object
  6
Continuous
370
    15
100
AcDbLine
 10
13.81601786504553
 20
31.13950304243639
 30
0.0
 11
13.81601786504553
 21
31.16115361217385
 31
0.0
  0
LINE
  5
303
330
1F
100
AcDbEntity
  8
Object
  6
Continuous
370
    15
100
AcDbLine
 10
23.24882272335623
 20
35.87755604132923
 30
0.0
 11
13.81601786504553
 21
31.16115361217385
 31
0.0
  0
ARC
  5
304
330
1F
100
AcDbEntity
  8
Object
  6
Continuous
370
    15
100
AcDbCircle
 10
23.21180584777879
 20
35.81535502160146
 30
0.0
 40
0.0723824283420375
100
AcDbArc
 50
0.9675539188143201
 51
59.24240973442108
  0
LINE
  5
305
330
1F
100
AcDbEntity
  8
Object
  6
Continuous
370
    15
100
AcDbLine
 10
23.28417795568779
 20
35.81657728568851
 30
0.0
 11
13.85137309737709
 21
31.10017485653314
 31
0.0
  0
SPLINE
  5
306
330
1F
100
AcDbEntity
  8
Object
  6
Continuous
370
    15
100
AcDbSpline
210
0.0
220
0.0
230
1.0
 70
     8
 71
     3
 72
    11
 73
     7
 74
     0
 42
0.0000000001
 43
0.0000000001
 40
0.0
 40
0.0
 40
0.0
 40
0.0
 40
0.3119050693215029
 40
0.6238095887640859
 40
0.9357207017737916
 40
1.0
 40
1.0
 40
1.0
 40
1.0
 10
13.85137309737709
 20
31.10017485653314
 30
0.0
 10
13.85027350755074
 20
31.09672159842295
 30
0.0
 10
13.84807432983658
 20
31.08981508829054
 30
0.0
 10
13.84222824128694
 20
31.08280382308605
 30
0.0
 10
13.83735298596785
 20
31.07926641264261
 30
0.0
 10
13.83522231820309
 20
31.07933680060024
 30
0.0
 10
13.83485825302604
 20
31.0793488277237
 30
0.0
  0
LINE
  5
307
330
1F
100
AcDbEntity
  8
Object
  6
Continuous
370
    15
100
AcDbLine
 10
13.8305915068611
 20
31.07926127863107
 30
0.0
 11
13.83819785148999
 21
31.09238028251979
 31
0.0
  0
LINE
  5
308
330
1F
100
AcDbEntity
  8
Object
  6
Continuous
370
    15
100
AcDbLine
 10
13.85137309737709
 20
31.10017485653314
 30
0.0
 11
14.31099277701212
 21
30.7670681049582
 31
0.0
  0
SPLINE
  5
309
330
1F
100
AcDbEntity
  8
Object
  6
Continuous
370
    15
100
AcDbSpline
210
0.0
220
0.0
230
1.0
 70
     8
 71
     3
 72
    10
 73
     6
 74
     0
 42
0.0000000001
 43
0.0000000001
 40
0.0
 40
0.0
 40
0.0
 40
0.0
 40
0.5
 40
0.5
 40
1.0
 40
1.0
 40
1.0
 40
1.0
 10
14.26900508564505
 20
30.76152317556874
 30
0.0
 10
14.2755853546957
 20
30.75783588407266
 30
0.0
 10
14.28353703559202
 20
30.75657986601884
 30
0.0
 10
14.29869123459309
 20
30.75891642369356
 30
0.0
 10
14.30582219925273
 20
30.76247883824981
 30
0.0
 10
14.31099273716177
 20
30.76706809131394
 30
0.0
  0
LINE
  5
30A
330
1F
100
AcDbEntity
  8
Object
  6
Continuous
370
    15
100
AcDbLine
 10
13.52681125150425
 20
24.28259891972253
 30
0.0
 11
13.52681125150425
 21
31.19723705508277
 31
0.0
  0
LINE
  5
30B
330
1F
100
AcDbEntity
  8
Object
  6
Continuous
370
    15
100
AcDbLine
 10
13.52681125150425
 20
31.19723705508277
 30
0.0
 11
13.76298501654819
 21
31.0791501725608
 31
0.0
  0
LINE
  5
30C
330
1F
100
AcDbEntity
  8
Object
  6
Continuous
370
    15
100
AcDbLine
 10
13.52681125150425
 20
31.19723705508277
 30
0.0
 11
13.54448886767003
 21
31.20607586316566
 31
0.0
  0
LINE
  5
30D
330
1F
100
AcDbEntity
  8
Object
  6
Continuous
370
    15
100
AcDbLine
 10
13.54448886767003
 20
31.20607586316566
 30
0.0
 11
13.78066263271397
 21
31.08798898064369
 31
0.0
  0
LINE
  5
30E
330
1F
100
AcDbEntity
  8
Object
  6
Continuous
370
    15
100
AcDbLine
 10
14.30745717081272
 20
24.81057132511268
 30
0.0
 11
14.30745717081272
 21
24.83048991023863
 31
0.0
  0
LINE
  5
30F
330
1F
100
AcDbEntity
  8
Object
  6
Continuous
370
    15
100
AcDbLine
 10
14.08398636635048
 20
24.42514094717949
 30
0.0
 11
14.30745717081272
 21
24.81057132511268
 31
0.0
  0
LINE
  5
310
330
1F
100
AcDbEntity
  8
Object
  6
Continuous
370
    15
100
AcDbLine
 10
14.30745717081272
 20
30.71587523263441
 30
0.0
 11
14.30745717081272
 21
30.73579381776037
 31
0.0
  0
LINE
  5
311
330
1F
100
AcDbEntity
  8
Object
  6
Continuous
370
    15
100
AcDbLine
 10
14.30745717081272
 20
30.71587523263441
 30
0.0
 11
14.30745717081272
 21
24.83048991023863
 31
0.0
  0
LINE
  5
312
330
1F
100
AcDbEntity
  8
Object
  6
Continuous
370
    15
100
AcDbLine
 10
14.30745717081272
 20
30.73579381776037
 30
0.0
 11
13.83369548121131
 21
31.0791501725608
 31
0.0
  0
LINE
  5
313
330
1F
100
AcDbEntity
  8
Object
  6
Continuous
370
    15
100
AcDbLine
 10
22.78773868963417
 20
35.00544106126926
 30
0.0
 11
14.34781236343072
 21
30.7854778981675
 31
0.0
  0
LINE
  5
314
330
1F
100
AcDbEntity
  8
Object
  6
Continuous
370
    15
100
AcDbLine
 10
14.31099277701212
 20
30.7670681049582
 30
0.0
 11
14.34781236343072
 21
30.7854778981675
 31
0.0
  0
LINE
  5
315
330
1F
100
AcDbEntity
  8
Object
  6
Continuous
370
    15
100
AcDbLine
 10
22.82455827605277
 20
35.02385085447855
 30
0.0
 11
23.28417795568779
 21
35.81657728568851
 31
0.0
  0
LINE
  5
316
330
1F
100
AcDbEntity
  8
Object
  6
Continuous
370
    15
100
AcDbLine
 10
22.78773868963417
 20
35.00544106126926
 30
0.0
 11
22.82455827605277
 21
35.02385085447855
 31
0.0
  0
LINE
  5
317
330
1F
100
AcDbEntity
  8
Object
  6
Continuous
370
    15
100
AcDbLine
 10
13.81601786504553
 20
31.16115361217385
 30
0.0
 11
13.57984410000159
 21
31.27924049469583
 31
0.0
  0
LINE
  5
318
330
1F
100
AcDbEntity
  8
Object
  6
Continuous
370
    15
100
AcDbLine
 10
13.57984410000159
 20
31.27924049469583
 30
0.0
 11
23.01264895831229
 21
35.9956429238512
 31
0.0
  0
LINE
  5
319
330
1F
100
AcDbEntity
  8
Object
  6
Continuous
370
    15
100
AcDbLine
 10
23.01264895831229
 20
35.9956429238512
 30
0.0
 11
23.24882272335623
 21
35.87755604132923
 31
0.0
  0
LINE
  5
31A
330
1F
100
AcDbEntity
  8
Object
  6
Continuous
370
    15
100
AcDbLine
 10
13.57984410000159
 20
31.27924049469583
 30
0.0
 11
13.57984410000159
 21
31.25758992495836
 31
0.0
  0
LINE
  5
31B
330
1F
100
AcDbEntity
  8
Object
  6
Continuous
370
    15
100
AcDbLine
 10
13.81601786504553
 20
31.13950304243639
 30
0.0
 11
13.57984410000159
 21
31.25758992495836
 31
0.0
  0
LINE
  5
31C
330
1F
100
AcDbEntity
  8
Object
  6
Continuous
370
    15
100
AcDbLine
 10
13.83038429868362
 20
31.07925228511482
 30
0.0
 11
13.8352780621864
 21
31.08769252458687
 31
0.0
  0
SPLINE
  5
31D
330
1F
100
AcDbEntity
  8
Object
  6
Continuous
370
    15
100
AcDbSpline
210
0.0
220
0.0
230
1.0
 70
     8
 71
     3
 72
    11
 73
     7
 74
     0
 42
0.0000000001
 43
0.0000000001
 40
0.0
 40
0.0
 40
0.0
 40
0.0
 40
0.1002664841427739
 40
0.4818945925406993
 40
0.8635343558173367
 40
1.0
 40
1.0
 40
1.0
 40
1.0
 10
13.83892193932537
 20
31.10073043439413
 30
0.0
 10
13.83845872000581
 20
31.10075164209253
 30
0.0
 10
13.83623242387934
 20
31.10085356922471
 30
0.0
 10
13.83131467432174
 20
31.09720677184242
 30
0.0
 10
13.82649016537264
 20
31.09197160749769
 30
0.0
 10
13.8249107427231
 20
31.08739905834728
 30
0.0
 10
13.82449473291853
 20
31.08619467820304
 30
0.0
  0
LWPOLYLINE
  5
31E
330
1F
100
AcDbEntity
  8
Object
  6
Continuous
370
    15
100
AcDbPolyline
 90
        9
 70
   128
 43
0.0
 10
14.30745717081272
 20
30.71587523263441
 10
14.31367528287723
 20
30.71966357473396
 10
14.31829567262835
 20
30.72398570086225
 10
14.32114099973403
 20
30.72867557483706
 10
14.32210174876111
 20
30.7335527450924
 10
14.32114120714962
 20
30.73843022647113
 10
14.31829608745954
 20
30.74311999673813
 10
14.31367549029283
 20
30.74744222657422
 10
14.30745717081272
 20
30.75123046496597
  0
ARC
  5
31F
330
1F
100
AcDbEntity
  8
Object
  6
Continuous
370
    15
100
AcDbCircle
 10
14.30019813745748
 20
24.85140826827538
 30
0.0
 40
0.0221420700975754
100
AcDbArc
 50
289.1376618714005
 51
351.5836124785471
  0
LWPOLYLINE
  5
320
330
1F
100
AcDbEntity
  8
Object
  6
Continuous
370
    15
100
AcDbPolyline
 90
        9
 70
   128
 43
0.0
 10
14.31245713109916
 20
30.75985437485834
 10
14.31935452923096
 20
30.75723762791957
 10
14.32598705765041
 20
30.75638546619322
 10
14.33209938776245
 20
30.75733080034526
 10
14.33745713994692
 20
30.76003687728834
 10
14.34185393568872
 20
30.76440035892756
 10
14.3451211461107
 20
30.77025279867357
 10
14.34713307736343
 20
30.77736998821328
 10
14.34781236343072
 20
30.7854778981675
  0
ARC
  5
321
330
1F
100
AcDbEntity
  8
Object
  6
Continuous
370
    15
100
AcDbCircle
 10
22.76007776662051
 20
35.00208839278238
 30
0.0
 40
0.0278633639022689
100
AcDbArc
 50
301.7602683519866
 51
6.910878725837319
  0
LINE
  5
322
330
1F
100
AcDbEntity
  8
Object
  6
Continuous
370
    15
100
AcDbLine
 10
14.29315711016442
 20
30.75838049529012
 30
0.0
 11
14.30745717081272
 21
30.75123046496597
 31
0.0
  0
LWPOLYLINE
  5
323
330
1F
100
AcDbEntity
  8
Object
  6
Continuous
370
    15
100
AcDbPolyline
 90
       18
 70
   128
 43
0.0
 10
19.13699656283585
 20
31.43937439265308
 10
19.13174397035707
 20
31.47116093879677
 10
19.11669638391136
 20
31.49340236043281
 10
19.09388523181721
 20
31.50309445525155
 10
19.06639146529402
 20
31.49892823107339
 10
19.03792865312002
 20
31.48146656445252
 10
19.01234062106591
 20
31.45306766683253
 10
18.99308332774335
 20
31.41756708723608
 10
18.98275734985817
 20
31.37975918593445
 10
18.98275734985817
 20
31.34475025937844
 10
18.99308332774335
 20
31.31726833596198
 10
19.01234062106591
 20
31.30102504968811
 10
19.03792865312002
 20
31.29821418412222
 10
19.06639146529402
 20
31.30921532967534
 10
19.09388523181721
 20
31.33254287202039
 10
19.11669638391136
 20
31.36504611893327
 10
19.13174397035707
 20
31.40233512701501
 10
19.13699656283585
 20
31.43937439265308
  0
SPLINE
  5
324
330
1F
100
AcDbEntity
  8
Object
  6
Continuous
370
    15
100
AcDbSpline
210
0.0
220
0.0
230
1.0
 70
     8
 71
     3
 72
     9
 73
     5
 74
     0
 42
0.0000000001
 43
0.0000000001
 40
0.0
 40
0.0
 40
0.0
 40
0.0
 40
0.5207231552806989
 40
1.0
 40
1.0
 40
1.0
 40
1.0
 10
14.31099277701212
 20
24.78283264411424
 30
0.0
 10
14.30814305028127
 20
24.78267910681758
 30
0.0
 10
14.30267041726705
 20
24.78238425283404
 30
0.0
 10
14.29544196667745
 20
24.78280422495857
 30
0.0
 10
14.29197753768666
 20
24.78300550787329
 30
0.0
  0
LINE
  5
325
330
1F
100
AcDbEntity
  8
Object
  6
Continuous
370
    15
100
AcDbLine
 10
14.34781236343072
 20
24.80124243732354
 30
0.0
 11
14.31099277701212
 21
24.78283264411424
 31
0.0
  0
LINE
  5
326
330
1F
100
AcDbEntity
  8
Object
  6
Continuous
370
    15
100
AcDbLine
 10
14.31099277701212
 20
24.78283264411424
 30
0.0
 11
14.29331516084634
 21
24.79167145219712
 31
0.0
  0
LINE
  5
327
330
1F
100
AcDbEntity
  8
Object
  6
Continuous
370
    15
100
AcDbLine
 10
14.33013474726493
 20
24.81008124540642
 30
0.0
 11
14.34781236343072
 21
24.80124243732354
 31
0.0
  0
LINE
  5
328
330
1F
100
AcDbEntity
  8
Object
  6
Continuous
370
    15
100
AcDbLine
 10
14.33013474726493
 20
24.81008124540642
 30
0.0
 11
14.29779907113722
 21
24.79391340734257
 31
0.0
  0
ARC
  5
329
330
1F
100
AcDbEntity
  8
Object
  6
Continuous
370
    15
100
AcDbCircle
 10
14.27262137818113
 20
24.79909999984456
 30
0.0
 40
0.0752215015880068
100
AcDbArc
 50
1.632102858989368
 51
48.86803358905646
  0
ARC
  5
32A
330
1F
100
AcDbEntity
  8
Object
  6
Continuous
370
    15
100
AcDbCircle
 10
14.29254891448171
 20
24.80901300560582
 30
0.0
 40
0.0376010101231346
100
AcDbArc
 50
1.62798468081533
 51
48.99973812403447
  0
LINE
  5
32B
330
1F
100
AcDbEntity
  8
Object
  6
Continuous
370
    15
100
AcDbLine
 10
19.77244539800507
 20
30.58327708397086
 30
0.0
 11
19.76132169974897
 21
30.57771523484281
 31
0.0
  0
SPLINE
  5
32C
330
1F
100
AcDbEntity
  8
Object
  6
Continuous
370
    15
100
AcDbSpline
210
0.0
220
0.0
230
1.0
 70
     8
 71
     3
 72
    10
 73
     6
 74
     0
 42
0.0000000001
 43
0.0000000001
 40
0.0
 40
0.0
 40
0.0
 40
0.0
 40
0.5
 40
0.5
 40
1.0
 40
1.0
 40
1.0
 40
1.0
 10
19.76132155401597
 20
30.57771525325824
 30
0.0
 10
19.75458060603377
 20
30.57897278232772
 30
0.0
 10
19.74786815652023
 20
30.58254941814585
 30
0.0
 10
19.73709728198203
 20
30.59172490201023
 30
0.0
 10
19.73307915987825
 20
30.59725423780043
 30
0.0
 10
19.73096621495663
 20
30.60186588835285
 30
0.0
  0
SPLINE
  5
32D
330
1F
100
AcDbEntity
  8
Object
  6
Continuous
370
    15
100
AcDbSpline
210
0.0
220
0.0
230
1.0
 70
     8
 71
     3
 72
     9
 73
     5
 74
     0
 42
0.0000000001
 43
0.0000000001
 40
0.0
 40
0.0
 40
0.0
 40
0.0
 40
0.593286547422525
 40
1.0
 40
1.0
 40
1.0
 40
1.0
 10
22.82455827605277
 20
35.02385085447855
 30
0.0
 10
22.82696439218909
 20
35.02422416373653
 30
0.0
 10
22.83101996389685
 20
35.02485338625913
 30
0.0
 10
22.83225743638714
 20
35.02703461828835
 30
0.0
 10
22.83276073309614
 20
35.02792175469784
 30
0.0
  0
SPLINE
  5
32E
330
1F
100
AcDbEntity
  8
Object
  6
Continuous
370
    15
100
AcDbSpline
210
0.0
220
0.0
230
1.0
 70
     8
 71
     3
 72
     9
 73
     5
 74
     0
 42
0.0000000001
 43
0.0000000001
 40
0.0
 40
0.0
 40
0.0
 40
0.0
 40
0.4067304541646159
 40
1.0
 40
1.0
 40
1.0
 40
1.0
 10
23.28344453415071
 20
35.80523607515481
 30
0.0
 10
23.28415250594305
 20
35.8064382507995
 30
0.0
 10
23.28589314715909
 20
35.80939395680181
 30
0.0
 10
23.28481662405867
 20
35.81390250270697
 30
0.0
 10
23.28417795568779
 20
35.81657728568851
 30
0.0
  0
LINE
  5
32F
330
1F
100
AcDbEntity
  8
Object
  6
Continuous
370
    15
100
AcDbLine
 10
22.81041626608638
 20
35.004950981563
 30
0.0
 11
22.82809388225215
 21
34.9961121734801
 31
0.0
  0
LINE
  5
330
330
1F
100
AcDbEntity
  8
Object
  6
Continuous
370
    15
100
AcDbLine
 10
23.28417795568779
 20
35.82206902596484
 30
0.0
 11
23.28394399089881
 21
35.82166575042615
 31
0.0
  0
LINE
  5
331
330
1F
100
AcDbEntity
  8
Object
  6
Continuous
370
    15
100
AcDbLine
 10
22.82007436576188
 20
35.02160899347689
 30
0.0
 11
22.81041626608638
 21
35.004950981563
 31
0.0
  0
LINE
  5
332
330
1F
100
AcDbEntity
  8
Object
  6
Continuous
370
    15
100
AcDbLine
 10
23.28417795568779
 20
35.82206902596484
 30
0.0
 11
23.30185557185357
 21
35.81323021788195
 31
0.0
  0
LINE
  5
333
330
1F
100
AcDbEntity
  8
Object
  6
Continuous
370
    15
100
AcDbLine
 10
23.30185557185357
 20
35.81323021788195
 30
0.0
 11
22.82809388225215
 21
34.9961121734801
 31
0.0
  0
LINE
  5
334
330
1F
100
AcDbEntity
  8
Object
  6
Continuous
370
    15
100
AcDbLine
 10
22.82809388225215
 20
34.9961121734801
 30
0.0
 11
22.82809388225215
 21
34.97619358835415
 31
0.0
  0
ARC
  5
335
330
1F
100
AcDbEntity
  8
Object
  6
Continuous
370
    15
100
AcDbCircle
 10
22.79243493097079
 20
35.0578867208104
 30
0.0
 40
0.0891365732850428
100
AcDbArc
 50
251.7077427409838
 51
293.5812096709309
  0
ARC
  5
336
330
1F
100
AcDbEntity
  8
Object
  6
Continuous
370
    15
100
AcDbCircle
 10
22.79261121932039
 20
35.02534127537364
 30
0.0
 40
0.0440661481350975
100
AcDbArc
 50
254.205672072218
 51
293.8317789625815
  0
LINE
  5
337
330
1F
100
AcDbEntity
  8
Object
  6
Continuous
370
    15
100
AcDbLine
 10
22.81041626608638
 20
34.98503239643704
 30
0.0
 11
22.82809388225215
 21
34.97619358835415
 31
0.0
  0
LINE
  5
338
330
1F
100
AcDbEntity
  8
Object
  6
Continuous
370
    15
100
AcDbLine
 10
22.81041626608638
 20
35.004950981563
 30
0.0
 11
22.81041626608638
 21
34.98503239643704
 31
0.0
  0
LINE
  5
339
330
1F
100
AcDbEntity
  8
Object
  6
Continuous
370
    15
100
AcDbLine
 10
19.76632166003541
 20
30.58633914473519
 30
0.0
 11
22.32086029390423
 21
29.30906982780078
 31
0.0
  0
LWPOLYLINE
  5
33A
330
1F
100
AcDbEntity
  8
Object
  6
Continuous
370
    15
100
AcDbPolyline
 90
       18
 70
   128
 43
0.0
 10
21.24417486917211
 20
32.92433913701153
 10
21.24942725423531
 20
32.95612583449386
 10
21.26447515180441
 20
32.97836713232211
 10
21.28728630389856
 20
32.98805917951
 10
21.31477975929837
 20
32.98389311089354
 10
21.34324257147236
 20
32.96643149190351
 10
21.36883060352647
 20
32.93803262603741
 10
21.38808800055683
 20
32.90253197871012
 10
21.398413978442
 20
32.86472407740848
 10
21.398413978442
 20
32.82971509528316
 10
21.38808800055683
 20
32.8022331718667
 10
21.36883060352647
 20
32.78598992156978
 10
21.34324257147236
 20
32.78317908775779
 10
21.31477975929837
 20
32.79418027300328
 10
21.28728630389856
 20
32.81750766375586
 10
21.26447515180441
 20
32.85001086700714
 10
21.24942725423531
 20
32.88730005446601
 10
21.24417486917211
 20
32.92433913701153
  0
LWPOLYLINE
  5
33B
330
1F
100
AcDbEntity
  8
Object
  6
Continuous
370
    15
100
AcDbPolyline
 90
        9
 70
   128
 43
0.0
 10
23.30185557185357
 20
35.81323021788195
 10
23.30807368391807
 20
35.81701855998149
 10
23.31269407366921
 20
35.82134068610979
 10
23.31553940077487
 20
35.82603056008459
 10
23.31650014980195
 20
35.83090773033993
 10
23.31553919335929
 20
35.83578500430307
 10
23.31269407366921
 20
35.84047477457008
 10
23.30807347650249
 20
35.84479700440617
 10
23.30185557185357
 20
35.84858545021351
  0
LWPOLYLINE
  5
33C
330
1F
100
AcDbEntity
  8
Object
  6
Continuous
370
    15
100
AcDbPolyline
 90
        9
 70
   128
 43
0.0
 10
23.28417795568779
 20
35.82206902596484
 10
23.28728670059665
 20
35.82396314516072
 10
23.28959689547222
 20
35.82612420822486
 10
23.29101976644064
 20
35.82846924892006
 10
23.29149993353859
 20
35.83090773033993
 10
23.29101976644064
 20
35.8333464191754
 10
23.28959710288781
 20
35.8356913561628
 10
23.28728690801224
 20
35.83785241922695
 10
23.28417795568779
 20
35.83974664213062
  0
LINE
  5
33D
330
1F
100
AcDbEntity
  8
Object
  6
Continuous
370
    15
100
AcDbLine
 10
23.28417795568779
 20
35.83974664213062
 30
0.0
 11
23.30185557185357
 21
35.84858545021351
 31
0.0
  0
LINE
  5
33E
330
1F
100
AcDbEntity
  8
Object
  6
Continuous
370
    15
100
AcDbLine
 10
23.30185557185357
 20
35.84858545021351
 30
0.0
 11
23.26055601604036
 21
35.86923522812012
 31
0.0
  0
LINE
  5
33F
330
1F
100
AcDbEntity
  8
Object
  6
Continuous
370
    15
100
AcDbLine
 10
23.28417795568779
 20
35.83974664213062
 30
0.0
 11
23.27869098358884
 21
35.8424901281801
 31
0.0
  0
SPLINE
  5
340
330
1F
100
AcDbEntity
  8
Object
  6
Continuous
370
    15
100
AcDbSpline
210
0.0
220
0.0
230
1.0
 70
     8
 71
     3
 72
    10
 73
     6
 74
     0
 42
0.0000000001
 43
0.0000000001
 40
0.0
 40
0.0
 40
0.0
 40
0.0
 40
0.5
 40
0.5
 40
1.0
 40
1.0
 40
1.0
 40
1.0
 10
19.73096621495663
 20
30.60186588835285
 30
0.0
 10
19.73559421801722
 20
30.60159207142687
 30
0.0
 10
19.74209889979132
 20
30.60035141667547
 30
0.0
 10
19.75518886918127
 20
30.59517577976291
 30
0.0
 10
19.76169355095539
 20
30.59124079760177
 30
0.0
 10
19.76632155401597
 20
30.5863389776152
 30
0.0
  0
LWPOLYLINE
  5
341
330
1F
100
AcDbEntity
  8
Object
  6
Continuous
370
    15
100
AcDbPolyline
 90
        3
 70
   128
 43
0.0
 10
21.2618524853379
 20
32.93317794509443
 10
21.26710487040108
 20
32.96496464257676
 10
21.28213410056681
 20
32.98719017265033
  0
LWPOLYLINE
  5
342
330
1F
100
AcDbEntity
  8
Object
  6
Continuous
370
    15
100
AcDbPolyline
 90
        7
 70
   128
 43
0.0
 10
21.379456608067
 20
32.79254518364496
 10
21.36092018763814
 20
32.79201789584067
 10
21.33245737546415
 20
32.80301908108616
 10
21.30496392006434
 20
32.82634647183875
 10
21.28215276797019
 20
32.85884967509003
 10
21.26710487040108
 20
32.8961388625489
 10
21.2618524853379
 20
32.93317794509443
  0
LWPOLYLINE
  5
343
330
1F
100
AcDbEntity
  8
Object
  6
Continuous
370
    15
100
AcDbPolyline
 90
        3
 70
   128
 43
0.0
 10
19.11931889319575
 20
31.44821322747314
 10
19.11406630071695
 20
31.47999977361683
 10
19.09903738167462
 20
31.50222550688294
  0
LWPOLYLINE
  5
344
330
1F
100
AcDbEntity
  8
Object
  6
Continuous
370
    15
100
AcDbPolyline
 90
        7
 70
   128
 43
0.0
 10
19.00171466675883
 20
31.30758030303113
 10
19.0202509834799
 20
31.30705301894228
 10
19.04871379565389
 20
31.3180541644954
 10
19.07620756217709
 20
31.34138170684044
 10
19.09901871427124
 20
31.37388495375332
 10
19.11406630071695
 20
31.41117396183506
 10
19.11931889319575
 20
31.44821322747314
  0
LWPOLYLINE
  5
345
330
1F
100
AcDbEntity
  8
Object
  6
Continuous
370
    15
100
AcDbPolyline
 90
       17
 70
   128
 43
0.0
 10
14.64048032838908
 20
31.34619034209157
 10
14.63511987980189
 20
31.35128880667875
 10
14.60385944610863
 20
31.36957734156261
 10
14.56687932002099
 20
31.37485799251671
 10
14.52632915674552
 20
31.36682391153532
 10
14.48456519741943
 20
31.34594193187228
 10
14.44401503414394
 20
31.31342584957818
 10
14.40703490805631
 20
31.27116507253646
 10
14.37577405953187
 20
31.22161589654374
 10
14.35204944916586
 20
31.16765782985318
 10
14.33723997582098
 20
31.11242715025902
 10
14.33220599937729
 20
31.0591331388526
 10
14.33723997582098
 20
31.0108728498587
 10
14.35204944916586
 20
30.97045164360941
 10
14.37577405953187
 20
30.94021818728486
 10
14.40703490805631
 20
30.9219298598166
 10
14.42611755744952
 20
30.91746492116025
  0
LWPOLYLINE
  5
346
330
1F
100
AcDbEntity
  8
Object
  6
Continuous
370
    15
100
AcDbPolyline
 90
       25
 70
   128
 43
0.0
 10
14.74339310095357
 20
31.17633840139625
 10
14.73829689983195
 20
31.22119810842856
 10
14.72335592500107
 20
31.25790466000998
 10
14.6995885870229
 20
31.28395673786166
 10
14.66861397201688
 20
31.29757835565405
 10
14.63254357072043
 20
31.29784203730354
 10
14.59383525791137
 20
31.28472917305511
 10
14.55512694510231
 20
31.25913372449448
 10
14.51905654380587
 20
31.22279964154855
 10
14.48808234363103
 20
31.17820361616573
 10
14.46431459082167
 20
31.12838399292028
 10
14.44937403082198
 20
31.07673667392357
 10
14.44427782970036
 20
31.02678076576964
 10
14.44937403082198
 20
30.98192080470616
 10
14.46431459082167
 20
30.94521404570914
 10
14.48808234363103
 20
30.91916217527306
 10
14.51905654380587
 20
30.90554035006507
 10
14.55512694510231
 20
30.90527666841559
 10
14.59383525791137
 20
30.91838953266402
 10
14.63254357072043
 20
30.94398498122465
 10
14.66861397201688
 20
30.98031906417058
 10
14.6995885870229
 20
31.02491529696898
 10
14.72335592500107
 20
31.07473471279885
 10
14.73829689983195
 20
31.12638223921115
 10
14.74339310095357
 20
31.17633840139625
  0
LWPOLYLINE
  5
347
330
1F
100
AcDbEntity
  8
Object
  6
Continuous
370
    15
100
AcDbPolyline
 90
       17
 70
   128
 43
0.0
 10
22.7651374421202
 20
35.40851889895715
 10
22.75977699353302
 20
35.41361736354434
 10
22.72851614500856
 20
35.4319056910126
 10
22.69153601892094
 20
35.43718634196669
 10
22.65098585564545
 20
35.42915226098531
 10
22.60922189631936
 20
35.40827028132226
 10
22.56867173304389
 20
35.37575419902817
 10
22.53169160695625
 20
35.33349342198645
 10
22.500431173263
 20
35.28394445340932
 10
22.47670656289698
 20
35.22998638671877
 10
22.4618970895521
 20
35.1747557071246
 10
22.45686269827723
 20
35.1214614883026
 10
22.4618970895521
 20
35.0732014067243
 10
22.47670656289698
 20
35.03278020047499
 10
22.500431173263
 20
35.00254674415045
 10
22.53169160695625
 20
34.98425820926659
 10
22.55077467118064
 20
34.97979347802584
  0
LWPOLYLINE
  5
348
330
1F
100
AcDbEntity
  8
Object
  6
Continuous
370
    15
100
AcDbPolyline
 90
       25
 70
   128
 43
0.0
 10
22.8680497998535
 20
35.23866675084625
 10
22.86295359873188
 20
35.28352645787855
 10
22.84801303873221
 20
35.32023321687557
 10
22.82424528592283
 20
35.34628508731164
 10
22.79327108574801
 20
35.35990691251964
 10
22.75720068445155
 20
35.36017059416912
 10
22.7184923716425
 20
35.34705772992069
 10
22.67978405883344
 20
35.32146228136006
 10
22.64371365753699
 20
35.28512819841413
 10
22.61273904253098
 20
35.24053196561572
 10
22.5889717045528
 20
35.19071254978586
 10
22.57403072972191
 20
35.13906502337356
 10
22.5689345286003
 20
35.08910911521964
 10
22.57403072972191
 20
35.04424915415615
 10
22.5889717045528
 20
35.00754260257473
 10
22.61273904253098
 20
34.98149052472305
 10
22.64371365753699
 20
34.96786890693066
 10
22.67978405883344
 20
34.96760522528118
 10
22.7184923716425
 20
34.9807180895296
 10
22.75720068445155
 20
35.00631353809023
 10
22.79327108574801
 20
35.04264762103615
 10
22.82424528592283
 20
35.08724364641898
 10
22.84801303873221
 20
35.13706326966443
 10
22.86295359873188
 20
35.18871058866114
 10
22.8680497998535
 20
35.23866675084625
  0
SPLINE
  5
349
330
1F
100
AcDbEntity
  8
Object
  6
Continuous
370
    15
100
AcDbSpline
210
0.0
220
0.0
230
1.0
 70
     8
 71
     3
 72
    11
 73
     7
 74
     0
 42
0.0000000001
 43
0.0000000001
 40
0.0
 40
0.0
 40
0.0
 40
0.0
 40
0.2500020666049884
 40
0.5000052755231389
 40
0.750002706310493
 40
0.9999999999999998
 40
0.9999999999999998
 40
0.9999999999999998
 40
0.9999999999999998
 10
13.44160471845738
 20
31.29533246762291
 30
0.0
 10
13.44532304316747
 20
31.29360076679737
 30
0.0
 10
13.45275970957745
 20
31.29013735723379
 30
0.0
 10
13.4670609672788
 20
31.28810847549193
 30
0.0
 10
13.4813619188874
 20
31.28860691811798
 30
0.0
 10
13.48879846865258
 20
31.29104946191039
 30
0.0
 10
13.49251674251563
 20
31.29227073347172
 30
0.0
  0
LINE
  5
34A
330
1F
100
AcDbEntity
  8
Object
  6
Continuous
370
    15
100
AcDbLine
 10
13.45433298374143
 20
31.30169660026493
 30
0.0
 11
13.44160471845738
 21
31.29533246762291
 31
0.0
  0
SPLINE
  5
34B
330
1F
100
AcDbEntity
  8
Object
  6
Continuous
370
    15
100
AcDbSpline
210
0.0
220
0.0
230
1.0
 70
     8
 71
     3
 72
    11
 73
     7
 74
     0
 42
0.0000000001
 43
0.0000000001
 40
0.0
 40
0.0
 40
0.0
 40
0.0
 40
0.2500029839482989
 40
0.4999983507394731
 40
0.7499937175306474
 40
0.9999999999999998
 40
0.9999999999999998
 40
0.9999999999999998
 40
0.9999999999999998
 10
13.45433298374143
 20
31.30169660026493
 30
0.0
 10
13.45619209920182
 20
31.30070313407051
 30
0.0
 10
13.45991027347855
 20
31.29871623195084
 30
0.0
 10
13.46706084399994
 20
31.29731890248856
 30
0.0
 10
13.47421138713528
 20
31.29718550732422
 30
0.0
 10
13.47792969669511
 20
31.29815160120982
 30
0.0
 10
13.47978889206276
 20
31.29863465869816
 30
0.0
  0
LINE
  5
34C
330
1F
100
AcDbEntity
  8
Object
  6
Continuous
370
    15
100
AcDbLine
 10
13.49251674251563
 20
31.29227073347172
 30
0.0
 11
13.47978889206276
 21
31.29863465869816
 31
0.0
  0
SPLINE
  5
34D
330
1F
100
AcDbEntity
  8
Object
  6
Continuous
370
    15
100
AcDbSpline
210
0.0
220
0.0
230
1.0
 70
     8
 71
     3
 72
    11
 73
     7
 74
     0
 42
0.0000000001
 43
0.0000000001
 40
0.0
 40
0.0
 40
0.0
 40
0.0
 40
0.249997293689507
 40
0.499994724476861
 40
0.7499979333950116
 40
0.9999999999999998
 40
0.9999999999999998
 40
0.9999999999999998
 40
0.9999999999999998
 10
13.49251674251563
 20
23.98221197585522
 30
0.0
 10
13.48879846865258
 20
23.98048022641486
 30
0.0
 10
13.4813619188874
 20
23.97701672658442
 30
0.0
 10
13.4670609672788
 20
23.97498763993458
 30
0.0
 10
13.45275970957745
 20
23.97548571345766
 30
0.0
 10
13.44532304316747
 20
23.97792859587184
 30
0.0
 10
13.44160471845738
 20
23.97915003428844
 30
0.0
  0
LINE
  5
34E
330
1F
100
AcDbEntity
  8
Object
  6
Continuous
370
    15
100
AcDbLine
 10
13.44160471845738
 20
23.97915003428844
 30
0.0
 11
13.44160471845738
 21
31.29533246762291
 31
0.0
  0
SPLINE
  5
34F
330
1F
100
AcDbEntity
  8
Object
  6
Continuous
370
    15
100
AcDbSpline
210
0.0
220
0.0
230
1.0
 70
     8
 71
     3
 72
    11
 73
     7
 74
     0
 42
0.0000000001
 43
0.0000000001
 40
0.0
 40
0.0
 40
0.0
 40
0.0
 40
0.2500019907251781
 40
0.5
 40
0.7499980092748219
 40
1.0
 40
1.0
 40
1.0
 40
1.0
 10
23.07452040747692
 20
36.14296730529587
 30
0.0
 10
23.07764791133761
 20
36.14072672767175
 30
0.0
 10
23.0839028692514
 20
36.13624560810621
 30
0.0
 10
23.09169195568923
 20
36.12451620918353
 30
0.0
 10
23.0969533057295
 20
36.11095484627047
 30
0.0
 10
23.0973021296977
 20
36.10219328641813
 30
0.0
 10
23.09747654307063
 20
36.09781247160824
 30
0.0
  0
LINE
  5
350
330
1F
100
AcDbEntity
  8
Object
  6
Continuous
370
    15
100
AcDbLine
 10
23.09747654307063
 20
36.09781247160824
 30
0.0
 11
13.49501651524326
 21
31.29658245769452
 31
0.0
  0
SPLINE
  5
351
330
1F
100
AcDbEntity
  8
Object
  6
Continuous
370
    15
100
AcDbSpline
210
0.0
220
0.0
230
1.0
 70
     8
 71
     3
 72
    11
 73
     7
 74
     0
 42
0.0000000001
 43
0.0000000001
 40
0.0
 40
0.0
 40
0.0
 40
0.0
 40
0.2500019907251781
 40
0.5
 40
0.7499980092748219
 40
1.0
 40
1.0
 40
1.0
 40
1.0
 10
13.49501651524326
 20
31.29658245769452
 30
0.0
 10
13.4944256821579
 20
31.3007550626482
 30
0.0
 10
13.4932440253966
 20
31.30910020610401
 30
0.0
 10
13.48673215513425
 20
31.32203630890601
 30
0.0
 10
13.4776925484743
 20
31.33314044771764
 30
0.0
 10
13.47060475776742
 20
31.33720515088662
 30
0.0
 10
13.4670608341943
 20
31.33923751865454
 30
0.0
  0
LINE
  5
352
330
1F
100
AcDbEntity
  8
Object
  6
Continuous
370
    15
100
AcDbLine
 10
13.4670608341943
 20
31.33923751865454
 30
0.0
 11
23.07452040747692
 21
36.14296730529587
 31
0.0
  0
LINE
  5
353
330
1F
100
AcDbEntity
  8
Object
  6
Continuous
370
    15
100
AcDbLine
 10
13.4670608341943
 20
31.33923751865454
 30
0.0
 11
10.65984700488579
 21
32.74284443330879
 31
0.0
  0
ARC
  5
354
330
1F
100
AcDbEntity
  8
Object
  6
Continuous
370
    15
100
AcDbCircle
 10
13.49371349390181
 20
31.29445208255414
 30
0.0
 40
0.0521162120283799
100
AcDbArc
 50
120.7576767865315
 51
179.0320718600547
  0
LINE
  5
355
330
1F
100
AcDbEntity
  8
Object
  6
Continuous
370
    15
100
AcDbLine
 10
13.44160471845738
 20
31.29533246762291
 30
0.0
 11
10.63439088914887
 21
32.69893938227716
 31
0.0
  0
ARC
  5
356
330
1F
100
AcDbEntity
  8
Object
  6
Continuous
370
    15
100
AcDbCircle
 10
10.68649966459331
 20
32.69805899720838
 30
0.0
 40
0.0521162120283933
100
AcDbArc
 50
120.7576767865409
 51
179.0320718600471
  0
LINE
  5
357
330
1F
100
AcDbEntity
  8
Object
  6
Continuous
370
    15
100
AcDbLine
 10
13.4670608341943
 20
31.33923751865454
 30
0.0
 11
13.4670608341943
 21
31.32364914908855
 31
0.0
  0
LINE
  5
358
330
1F
100
AcDbEntity
  8
Object
  6
Continuous
370
    15
100
AcDbLine
 10
13.49501651524326
 20
31.29658245769452
 30
0.0
 11
13.48228866479039
 21
31.30294638292096
 31
0.0
  0
SPLINE
  5
359
330
1F
100
AcDbEntity
  8
Object
  6
Continuous
370
    15
100
AcDbSpline
210
0.0
220
0.0
230
1.0
 70
     8
 71
     3
 72
    11
 73
     7
 74
     0
 42
0.0000000001
 43
0.0000000001
 40
0.0
 40
0.0
 40
0.0
 40
0.0
 40
0.2499945291985722
 40
0.4999921042042005
 40
0.7499953897297452
 40
1.0
 40
1.0
 40
1.0
 40
1.0
 10
13.48228866479039
 20
31.30294638292096
 30
0.0
 10
13.48188913756777
 20
31.30498059933814
 30
0.0
 10
13.48109007825488
 20
31.30904905695637
 30
0.0
 10
13.47752147199132
 20
31.31536070444229
 30
0.0
 10
13.47268917471051
 20
31.32075675482581
 30
0.0
 10
13.46893695101348
 20
31.32268501596469
 30
0.0
 10
13.4670608341943
 20
31.32364914908855
 30
0.0
  0
ARC
  5
35A
330
1F
100
AcDbEntity
  8
Object
  6
Continuous
370
    15
100
AcDbCircle
 10
13.48038641449837
 20
31.30125711225677
 30
0.0
 40
0.0260571372931927
100
AcDbArc
 50
120.7570265075094
 51
179.0335852415409
  0
LINE
  5
35B
330
1F
100
AcDbEntity
  8
Object
  6
Continuous
370
    15
100
AcDbLine
 10
13.44160471845738
 20
23.97915003428844
 30
0.0
 11
10.63439088914887
 21
25.3827569489427
 31
0.0
  0
LINE
  5
35C
330
1F
100
AcDbEntity
  8
Object
  6
Continuous
370
    15
100
AcDbLine
 10
10.63439088914887
 20
25.3827569489427
 30
0.0
 11
10.63439088914887
 21
32.69893938227716
 31
0.0
  0
LINE
  5
35D
330
1F
100
AcDbEntity
  8
Object
  6
Continuous
370
    15
100
AcDbLine
 10
13.51720044258398
 20
24.02478480692389
 30
0.0
 11
13.49251674251563
 21
23.98221197585522
 31
0.0
  0
LINE
  5
35E
330
1F
100
AcDbEntity
  8
Object
  6
Continuous
370
    15
100
AcDbLine
 10
13.49251674251563
 20
31.29227073347172
 30
0.0
 11
13.76041472251892
 21
31.09811304640818
 31
0.0
  0
LINE
  5
35F
330
1F
100
AcDbEntity
  8
Object
  6
Continuous
370
    15
100
AcDbLine
 10
13.78539087857349
 20
31.0861356351497
 30
0.0
 11
13.49501651524326
 21
31.29658245769452
 31
0.0
  0
LINE
  5
360
330
1F
100
AcDbEntity
  8
Object
  6
Continuous
370
    15
100
AcDbLine
 10
13.48228866479039
 20
31.30294638292096
 30
0.0
 11
13.77493422886469
 21
31.09085326525379
 31
0.0
  0
LINE
  5
361
330
1F
100
AcDbEntity
  8
Object
  6
Continuous
370
    15
100
AcDbLine
 10
23.09747654307063
 20
36.09781247160824
 30
0.0
 11
23.03248784495781
 21
35.98572354783974
 31
0.0
  0
LINE
  5
362
330
1F
100
AcDbEntity
  8
Object
  6
Continuous
370
    15
100
AcDbLine
 10
23.07452040747692
 20
36.14296730529587
 30
0.0
 11
20.26730657816842
 21
37.54657421995013
 31
0.0
  0
LINE
  5
363
330
1F
100
AcDbEntity
  8
Object
  6
Continuous
370
    15
100
AcDbLine
 10
10.65984700488579
 20
32.74284443330879
 30
0.0
 11
20.26730657816842
 21
37.54657421995013
 31
0.0
  0
SPLINE
  5
364
330
1F
100
AcDbEntity
  8
Object
  6
Continuous
370
    15
100
AcDbSpline
210
0.0
220
0.0
230
1.0
 70
     8
 71
     3
 72
     9
 73
     5
 74
     0
 42
0.0000000001
 43
0.0000000001
 40
0.0
 40
0.0
 40
0.0
 40
0.0
 40
0.4999947502244829
 40
0.9999999999999998
 40
0.9999999999999998
 40
0.9999999999999998
 40
0.9999999999999998
 10
10.63439088914887
 20
25.3827569489427
 30
0.0
 10
10.63136761422447
 20
25.38487122277667
 30
0.0
 10
10.62532100088895
 20
25.38909981484292
 30
0.0
 10
10.6243383814389
 20
25.39437713840638
 30
0.0
 10
10.62384706655535
 20
25.39701582789287
 30
0.0
  0
SPLINE
  5
365
330
1F
100
AcDbEntity
  8
Object
  6
Continuous
370
    15
100
AcDbSpline
210
0.0
220
0.0
230
1.0
 70
     8
 71
     3
 72
    11
 73
     7
 74
     0
 42
0.0000000001
 43
0.0000000001
 40
0.0
 40
0.0
 40
0.0
 40
0.0
 40
0.2499981575410422
 40
0.4999970159195867
 40
0.7500011328632177
 40
1.0
 40
1.0
 40
1.0
 40
1.0
 10
10.63439116138184
 20
32.72133352403861
 30
0.0
 10
10.6314381482134
 20
32.71972962033205
 30
0.0
 10
10.62553211359814
 20
32.71652180842259
 30
0.0
 10
10.62300466636628
 20
32.71013663617309
 30
0.0
 10
10.62553160020602
 20
32.70375143662642
 30
0.0
 10
10.63143781350545
 20
32.7005433891659
 30
0.0
 10
10.63439088914887
 20
32.69893938227716
 30
0.0
  0
LINE
  5
366
330
1F
100
AcDbEntity
  8
Object
  6
Continuous
370
    15
100
AcDbLine
 10
10.63439116138184
 20
32.72133352403861
 30
0.0
 11
10.6389613824864
 21
32.71904841348634
 31
0.0
  0
SPLINE
  5
367
330
1F
100
AcDbEntity
  8
Object
  6
Continuous
370
    15
100
AcDbSpline
210
0.0
220
0.0
230
1.0
 70
     8
 71
     3
 72
    11
 73
     7
 74
     0
 42
0.0000000001
 43
0.0000000001
 40
0.0
 40
0.0
 40
0.0
 40
0.0
 40
0.2499987912495468
 40
0.4999977085416241
 40
0.7499971454108716
 40
1.0
 40
1.0
 40
1.0
 40
1.0
 10
10.65984700488579
 20
32.74284443330879
 30
0.0
 10
10.65671955688914
 20
32.74414774165688
 30
0.0
 10
10.65046465931906
 20
32.74675435901015
 30
0.0
 10
10.64267561011269
 20
32.74406456881
 30
0.0
 10
10.63741420080112
 20
32.73701513389369
 30
0.0
 10
10.63706535713485
 20
32.72943522740943
 30
0.0
 10
10.63689093410946
 20
32.72564524826142
 30
0.0
  0
SPLINE
  5
368
330
1F
100
AcDbEntity
  8
Object
  6
Continuous
370
    15
100
AcDbSpline
210
0.0
220
0.0
230
1.0
 70
     8
 71
     3
 72
     9
 73
     5
 74
     0
 42
0.0000000001
 43
0.0000000001
 40
0.0
 40
0.0
 40
0.0
 40
0.0
 40
0.4268781953641275
 40
1.0
 40
1.0
 40
1.0
 40
1.0
 10
20.25032378479419
 20
37.54656839902128
 30
0.0
 10
20.25245070772407
 20
37.54757043762369
 30
0.0
 10
20.25743321316232
 20
37.54991780184444
 30
0.0
 10
20.26370950084519
 20
37.54779235810292
 30
0.0
 10
20.26730657816842
 20
37.54657421995013
 30
0.0
  0
LINE
  5
369
330
1F
100
AcDbEntity
  8
Object
  6
Continuous
370
    15
100
AcDbLine
 10
10.63689093410946
 20
32.72564524826142
 30
0.0
 11
10.64116683896919
 21
32.72350729583155
 31
0.0
  0
LINE
  5
36A
330
1F
100
AcDbEntity
  8
Object
  6
Continuous
370
    15
100
AcDbLine
 10
10.63689093410946
 20
32.72564524826142
 30
0.0
 11
10.64079408073977
 21
32.72281671678999
 31
0.0
  0
LINE
  5
36B
330
1F
100
AcDbEntity
  8
Object
  6
Continuous
370
    15
100
AcDbLine
 10
13.49501651524326
 20
23.98040002436005
 30
0.0
 11
13.51861792074698
 21
24.02110591939787
 31
0.0
  0
LINE
  5
36C
330
1F
100
AcDbEntity
  8
Object
  6
Continuous
370
    15
100
AcDbLine
 10
13.49501651524326
 20
23.98040002436005
 30
0.0
 11
13.49189200674931
 21
23.98196227860702
 31
0.0
  0
LINE
  5
36D
330
1F
100
AcDbEntity
  8
Object
  6
Continuous
370
    15
100
AcDbLine
 10
13.4670608341943
 20
23.97628946855973
 30
0.0
 11
13.4670608341943
 21
23.96070109899374
 31
0.0
  0
LWPOLYLINE
  5
36E
330
1F
100
AcDbEntity
  8
Object
  6
Continuous
370
    15
100
AcDbPolyline
 90
        9
 70
   128
 43
0.0
 10
13.4670608341943
 20
23.96070109899374
 10
13.46209447523394
 20
23.95881692504508
 10
13.45731935345039
 20
23.95820351794134
 10
13.45291799456554
 20
23.95888380615501
 10
13.4490608941969
 20
23.96083253392984
 10
13.44589490258435
 20
23.96397401008087
 10
13.44354239492779
 20
23.96818778991161
 10
13.44209380442584
 20
23.97331205460648
 10
13.44160471845738
 20
23.97915003428844
  0
ARC
  5
36F
330
1F
100
AcDbEntity
  8
Object
  6
Continuous
370
    15
100
AcDbCircle
 10
10.65487152539046
 20
25.38061422127845
 30
0.0
 40
0.0205924195446641
100
AcDbArc
 50
174.0273224949174
 51
237.3010635460153
  0
SPLINE
  5
370
330
1F
100
AcDbEntity
  8
Object
  6
Continuous
370
    15
100
AcDbSpline
210
0.0
220
0.0
230
1.0
 70
     8
 71
     3
 72
    11
 73
     7
 74
     0
 42
0.0000000001
 43
0.0000000001
 40
0.0
 40
0.0
 40
0.0
 40
0.0
 40
0.2500019907251781
 40
0.5
 40
0.7499980092748219
 40
1.0
 40
1.0
 40
1.0
 40
1.0
 10
13.4670608341943
 20
23.96070109899374
 30
0.0
 10
13.47060475776742
 20
23.95960596290096
 30
0.0
 10
13.4776925484743
 20
23.95741570815618
 30
0.0
 10
13.48673215513424
 20
23.96073076052996
 30
0.0
 10
13.4932440253966
 20
23.96840551329169
 30
0.0
 10
13.4944256821579
 20
23.9764018327793
 30
0.0
 10
13.49501651524326
 20
23.98040002436005
 30
0.0
  0
LINE
  5
371
330
1F
100
AcDbEntity
  8
Object
  6
Continuous
370
    15
100
AcDbLine
 10
23.03524024987779
 20
35.98434732242268
 30
0.0
 11
23.09997631579825
 21
36.09600052011307
 31
0.0
  0
LINE
  5
372
330
1F
100
AcDbEntity
  8
Object
  6
Continuous
370
    15
100
AcDbLine
 10
23.09997631579825
 20
36.09600052011307
 30
0.0
 11
23.09722370346268
 21
36.09737682628085
 31
0.0
  0
LINE
  5
373
330
1F
100
AcDbEntity
  8
Object
  6
Continuous
370
    15
100
AcDbLine
 10
23.09997652321384
 20
36.12451837000117
 30
0.0
 11
23.09253694072177
 21
36.12079857875513
 31
0.0
  0
SPLINE
  5
374
330
1F
100
AcDbEntity
  8
Object
  6
Continuous
370
    15
100
AcDbSpline
210
0.0
220
0.0
230
1.0
 70
     8
 71
     3
 72
    11
 73
     7
 74
     0
 42
0.0000000001
 43
0.0000000001
 40
0.0
 40
0.0
 40
0.0
 40
0.0
 40
0.249997293689507
 40
0.499994724476861
 40
0.7499979333950116
 40
0.9999999999999998
 40
0.9999999999999998
 40
0.9999999999999998
 40
0.9999999999999998
 10
23.09997631579825
 20
36.09600052011307
 30
0.0
 10
23.10292933679996
 20
36.0981148959841
 30
0.0
 10
23.1088353804228
 20
36.10234364888571
 30
0.0
 10
23.11136290969868
 20
36.11025944670191
 30
0.0
 10
23.10883595443375
 20
36.11817547966197
 30
0.0
 10
23.10292966245597
 20
36.12240407644165
 30
0.0
 10
23.09997652321384
 20
36.12451837000117
 30
0.0
  0
LWPOLYLINE
  5
375
330
1F
100
AcDbEntity
  8
Object
  6
Continuous
370
    15
100
AcDbPolyline
 90
        9
 70
   128
 43
0.0
 10
23.07452040747692
 20
36.14296730529587
 10
23.07948676643729
 20
36.14485147924452
 10
23.08426188822083
 20
36.14546488634827
 10
23.08866324710569
 20
36.14478459813461
 10
23.09252034747433
 20
36.14283587035977
 10
23.09568633908687
 20
36.13969439420874
 10
23.09803884674342
 20
36.13548061437801
 10
23.09948743724539
 20
36.13035634968313
 10
23.09997652321384
 20
36.12451837000117
  0
ARC
  5
376
330
1F
100
AcDbEntity
  8
Object
  6
Continuous
370
    15
100
AcDbCircle
 10
20.27634941294413
 20
37.53145648029113
 30
0.0
 40
0.0176158710593091
100
AcDbArc
 50
66.38338274524361
 51
120.8861970558489
  0
LWPOLYLINE
  5
377
330
1F
100
AcDbEntity
  8
Object
  6
Continuous
370
    15
100
AcDbPolyline
 90
       36
 70
   128
 43
0.0
 10
16.70492547580718
 20
25.51687641208649
 10
16.71977062463406
 20
25.57530418219834
 10
16.72477722221946
 20
25.64083951605643
 10
16.71978389923201
 20
25.71137620737247
 10
16.70495119534072
 20
25.78464715886572
 10
16.68075575157844
 20
25.85829746219591
 10
16.64797496158801
 20
25.92996002568178
 10
16.60766332624456
 20
25.99733109530925
 10
16.56111553368002
 20
26.05824587173564
 10
16.5098287096451
 20
26.11074590506466
 10
16.45545014877995
 20
26.15314435001353
 10
16.39972794970292
 20
26.18407840127531
 10
16.34445376830692
 20
26.20255334926528
 10
16.29140308206857
 20
26.20797606791055
 10
16.24228167682526
 20
26.20017180053776
 10
16.19866840007139
 20
26.17939144460537
 10
16.16196455155372
 20
26.1463030702586
 10
16.13335032599678
 20
26.10196994209529
 10
16.11374498930906
 20
26.04781714802204
 10
16.10377908489345
 20
25.98558503667709
 10
16.10377244759447
 20
25.91727403533351
 10
16.11372549224331
 20
25.84507965511332
 10
16.13331879882665
 20
25.77132188721069
 10
16.16192182394155
 20
25.69837194120579
 10
16.19861571651076
 20
25.62857415402146
 10
16.2422206966409
 20
25.56417203159566
 10
16.29133587941642
 20
25.50723537148275
 10
16.3443824173429
 20
25.45959423617458
 10
16.39965493941416
 20
25.42277995548192
 10
16.45537755332238
 20
25.39797553277872
 10
16.50975901800583
 20
25.38597827852767
 10
16.56105123484617
 20
25.38717412111821
 10
16.60760607954088
 20
25.40152405175441
 10
16.64792684117042
 20
25.42856736447652
 10
16.68071800194051
 20
25.46743461693612
 10
16.70492547580718
 20
25.51687641208649
  0
LWPOLYLINE
  5
378
330
1F
100
AcDbEntity
  8
Object
  6
Continuous
370
    15
100
AcDbPolyline
 90
       17
 70
   128
 43
0.0
 10
16.82596201547813
 20
25.51941172653358
 10
16.84220224158397
 20
25.58199103225893
 10
16.84845333272777
 20
25.65190942276888
 10
16.84453566700596
 20
25.72715542657018
 10
16.83056124883876
 20
25.80556464613452
 10
16.80693204964557
 20
25.88488149153722
 10
16.7743288074028
 20
25.96282358889727
 10
16.73368862575993
 20
26.03714918521885
 10
16.68618049899948
 20
26.10572006513248
 10
16.63317212554213
 20
26.16656310766194
 10
16.5761875951657
 20
26.21792840415212
 10
16.51686632071781
 20
26.25833824390524
 10
16.45691533252936
 20
26.28662989229729
 10
16.39805908384112
 20
26.30198957915621
 10
16.34199050072367
 20
26.3039754496148
 10
16.29032286165989
 20
26.29253038343958
 10
16.27136051331067
 20
26.28432006387708
  0
ARC
  5
379
330
1F
100
AcDbEntity
  8
Object
  6
Continuous
370
    15
100
AcDbCircle
 10
16.61585890407296
 20
25.58433561501893
 30
0.0
 40
0.2199054995178406
100
AcDbArc
 50
297.8454752931562
 51
342.8283463796487
  0
LWPOLYLINE
  5
37A
330
1F
100
AcDbEntity
  8
Object
  6
Continuous
370
    15
100
AcDbPolyline
 90
       17
 70
   128
 43
0.0
 10
16.46225420989486
 20
26.29079675067605
 10
16.52219814595315
 20
26.26287049577049
 10
16.58156173318203
 20
26.22279774710391
 10
16.63863752641939
 20
26.17173109494518
 10
16.69178362383055
 20
26.11113958726944
 10
16.73947137249459
 20
26.04276626918075
 10
16.78032851084781
 20
25.96857816019776
 10
16.8131794073087
 20
25.89070980848189
 10
16.83707990609763
 20
25.81140084090021
 10
16.85134138744561
 20
25.73293331720766
 10
16.85555441297196
 20
25.65756414751333
 10
16.84959743713912
 20
25.58746186482624
 10
16.83364178522697
 20
25.52464304156842
 10
16.80814626052737
 20
25.47091516163388
 10
16.77384469940858
 20
25.42782359008274
 10
16.73172398526242
 20
25.39660788595533
 10
16.72564546389204
 20
25.39342846325979
  0
ARC
  5
37B
330
1F
100
AcDbEntity
  8
Object
  6
Continuous
370
    15
100
AcDbCircle
 10
16.37366910848217
 20
26.08143682351713
 30
0.0
 40
0.227329934879442
100
AcDbArc
 50
67.06563695843638
 51
114.7676222279392
  0
LWPOLYLINE
  5
37C
330
1F
100
AcDbEntity
  8
Object
  6
Continuous
370
    15
100
AcDbPolyline
 90
        3
 70
   128
 43
0.0
 10
24.49854813266826
 20
30.39791387355589
 10
24.51609175836092
 20
30.40559388226947
 10
24.53658649311171
 20
30.41205795632388
  0
LINE
  5
37D
330
1F
100
AcDbEntity
  8
Object
  6
Continuous
370
    15
100
AcDbLine
 10
22.72937956426862
 20
27.56506732778628
 30
0.0
 11
22.75855796023869
 21
27.48933955567408
 31
0.0
  0
LWPOLYLINE
  5
37E
330
1F
100
AcDbEntity
  8
Object
  6
Continuous
370
    15
100
AcDbPolyline
 90
       10
 70
   128
 43
0.0
 10
22.72937956426862
 20
27.56506732778628
 10
22.80341696208104
 20
27.59223319466885
 10
22.877218087606
 20
27.62138235245198
 10
22.94787177873225
 20
27.65136603722078
 10
23.01259367233414
 20
27.6810012199281
 10
23.06883090377397
 20
27.70911983564801
 10
23.11436602535493
 20
27.73461316053212
 10
23.14740448384759
 20
27.75647555057278
 10
23.16664203379838
 20
27.77384573052753
 10
23.17132131661447
 20
27.78603820395921
  0
LINE
  5
37F
330
1F
100
AcDbEntity
  8
Object
  6
Continuous
370
    15
100
AcDbLine
 10
23.17132131661447
 20
27.78603820395921
 30
0.0
 11
23.20049971258454
 21
27.71031043184701
 31
0.0
  0
LWPOLYLINE
  5
380
330
1F
100
AcDbEntity
  8
Object
  6
Continuous
370
    15
100
AcDbPolyline
 90
       16
 70
   128
 43
0.0
 10
22.81522023160086
 20
27.68869353656125
 10
22.81759174371112
 20
27.68448727848744
 10
22.81009014395673
 20
27.67380521392177
 10
22.78945392584451
 20
27.65862878396767
 10
22.75688132925561
 20
27.63984053880442
 10
22.71426517703846
 20
27.61853246269584
 10
22.66408216693595
 20
27.59594290451339
 10
22.60924892516385
 20
27.57338460452533
 10
22.552953221972
 20
27.55216801761787
 10
22.49846513271024
 20
27.53352702465328
 10
22.44895211386375
 20
27.51854451920701
 10
22.4072910845257
 20
27.50809159524548
 10
22.37590449029795
 20
27.50277505917671
 10
22.35661526793754
 20
27.50290445197349
 10
22.35054464132317
 20
27.50847217445564
 10
22.35078147104003
 20
27.50967738881165
  0
LINE
  5
381
330
1F
100
AcDbEntity
  8
Object
  6
Continuous
370
    15
100
AcDbLine
 10
22.80503865385889
 20
27.70696537991207
 30
0.0
 11
22.78394396950515
 21
27.70106785708977
 31
0.0
  0
LINE
  5
382
330
1F
100
AcDbEntity
  8
Object
  6
Continuous
370
    15
100
AcDbLine
 10
23.17132131661447
 20
27.78603820395921
 30
0.0
 11
22.80503865385889
 21
27.70696537991207
 31
0.0
  0
LINE
  5
383
330
1F
100
AcDbEntity
  8
Object
  6
Continuous
370
    15
100
AcDbLine
 10
22.36309690151304
 20
27.48599450373915
 30
0.0
 11
22.72937956426862
 21
27.56506732778628
 31
0.0
  0
LINE
  5
384
330
1F
100
AcDbEntity
  8
Object
  6
Continuous
370
    15
100
AcDbLine
 10
22.31390375640147
 20
27.48105004516955
 30
0.0
 11
22.36309690151304
 21
27.48599450373915
 31
0.0
  0
LWPOLYLINE
  5
385
330
1F
100
AcDbEntity
  8
Object
  6
Continuous
370
    15
100
AcDbPolyline
 90
        6
 70
   128
 43
0.0
 10
22.35923419120077
 20
27.53615226870818
 10
22.33796023171639
 20
27.52372263916605
 10
22.31245707153027
 20
27.50615355366033
 10
22.29965124577788
 20
27.49280684644048
 10
22.30014143364167
 20
27.48430638528011
 10
22.31390375640147
 20
27.48105004516955
  0
LINE
  5
386
330
1F
100
AcDbEntity
  8
Object
  6
Continuous
370
    15
100
AcDbLine
 10
22.36309690151304
 20
27.48599450373915
 30
0.0
 11
22.39521147261854
 21
27.40264692964932
 31
0.0
  0
LINE
  5
387
330
1F
100
AcDbEntity
  8
Object
  6
Continuous
370
    15
100
AcDbLine
 10
22.39521147261854
 20
27.40264692964932
 30
0.0
 11
22.72950816193632
 21
27.47481504427315
 31
0.0
  0
LWPOLYLINE
  5
388
330
1F
100
AcDbEntity
  8
Object
  6
Continuous
370
    15
100
AcDbPolyline
 90
        3
 70
   128
 43
0.0
 10
22.54746853792631
 20
27.59681581608619
 10
22.58649912271309
 20
27.61249455745562
 10
22.60538772185551
 20
27.61935055746959
  0
LWPOLYLINE
  5
389
330
1F
100
AcDbEntity
  8
Object
  6
Continuous
370
    15
100
AcDbPolyline
 90
       14
 70
   128
 43
0.0
 10
23.10498893491761
 20
26.95522026695751
 10
23.10141091222944
 20
26.9526480544632
 10
23.07220477766467
 20
26.93445353657062
 10
23.03243391690357
 20
26.91335006849017
 10
22.98409098451238
 20
26.89039663999448
 10
22.9296017188153
 20
26.86674345775613
 10
22.87169673637249
 20
26.84357745403747
 10
22.81328144027163
 20
26.82205933140891
 10
22.75728350809057
 20
26.80326880260571
 10
22.70651189142536
 20
26.78814773150615
 10
22.66351199443408
 20
26.77745455993195
 10
22.63044014851268
 20
26.7717253503849
 10
22.60895480985288
 20
26.77124741828804
 10
22.60792118017179
 20
26.77141190656285
  0
LINE
  5
38A
330
1F
100
AcDbEntity
  8
Object
  6
Continuous
370
    15
100
AcDbLine
 10
22.31390375640147
 20
27.48105004516955
 30
0.0
 11
22.34601832750698
 21
27.39770247107974
 31
0.0
  0
LINE
  5
38B
330
1F
100
AcDbEntity
  8
Object
  6
Continuous
370
    15
100
AcDbLine
 10
22.34601832750698
 20
27.39770247107974
 30
0.0
 11
22.39521147261854
 21
27.40264692964932
 31
0.0
  0
LWPOLYLINE
  5
38C
330
1F
100
AcDbEntity
  8
Object
  6
Continuous
370
    15
100
AcDbPolyline
 90
        3
 70
   128
 43
0.0
 10
22.33064531895922
 20
27.40311214265598
 10
22.33225600474717
 20
27.4009587794364
 10
22.34601832750698
 20
27.39770247107974
  0
LWPOLYLINE
  5
38D
330
1F
100
AcDbEntity
  8
Object
  6
Continuous
370
    15
100
AcDbPolyline
 90
        3
 70
   128
 43
0.0
 10
22.63162651385112
 20
26.78360193048082
 10
22.59549609166743
 20
26.77728128432389
 10
22.57405224908972
 20
26.77624315475637
  0
ARC
  5
38E
330
1F
100
AcDbEntity
  8
Object
  6
Continuous
370
    15
100
AcDbCircle
 10
22.28472274078389
 20
28.34350371670266
 30
0.0
 40
1.598009953168743
100
AcDbArc
 50
282.5378704883193
 51
302.4150237480916
  0
LWPOLYLINE
  5
38F
330
1F
100
AcDbEntity
  8
Object
  6
Continuous
370
    15
100
AcDbPolyline
 90
        5
 70
   128
 43
0.0
 10
22.31984992069652
 20
27.38637738838487
 10
22.30451291171764
 20
27.3898860038654
 10
22.30382067513925
 20
27.39918587141194
 10
22.31780635856584
 20
27.41383970644067
 10
22.32452569041099
 20
27.41899464296121
  0
LINE
  5
390
330
1F
100
AcDbEntity
  8
Object
  6
Continuous
370
    15
100
AcDbLine
 10
22.47057385420292
 20
27.4189160243287
 30
0.0
 11
22.31984992069652
 21
27.38637738838487
 31
0.0
  0
LINE
  5
391
330
1F
100
AcDbEntity
  8
Object
  6
Continuous
370
    15
100
AcDbLine
 10
22.49434119218111
 20
27.35723160574849
 30
0.0
 11
22.47057385420292
 21
27.4189160243287
 31
0.0
  0
LINE
  5
392
330
1F
100
AcDbEntity
  8
Object
  6
Continuous
370
    15
100
AcDbLine
 10
22.31070123371759
 20
27.27405998120989
 30
0.0
 11
22.31349553658737
 21
27.26680842711192
 31
0.0
  0
LINE
  5
393
330
1F
100
AcDbEntity
  8
Object
  6
Continuous
370
    15
100
AcDbLine
 10
22.31070123371759
 20
27.27405998120989
 30
0.0
 11
22.34114071649351
 21
27.2806310665268
 31
0.0
  0
LINE
  5
394
330
1F
100
AcDbEntity
  8
Object
  6
Continuous
370
    15
100
AcDbLine
 10
22.35745187873217
 20
27.28878695473829
 30
0.0
 11
22.31984992069652
 21
27.38637738838487
 31
0.0
  0
LWPOLYLINE
  5
395
330
1F
100
AcDbEntity
  8
Object
  6
Continuous
370
    15
100
AcDbPolyline
 90
        3
 70
   128
 43
0.0
 10
22.35053778364513
 20
27.28532960010261
 10
22.34376340888696
 20
27.28801707987563
 10
22.34190232062429
 20
27.29045672235887
  0
LWPOLYLINE
  5
396
330
1F
100
AcDbEntity
  8
Object
  6
Continuous
370
    15
100
AcDbPolyline
 90
        4
 70
   128
 43
0.0
 10
22.33481130003637
 20
27.30886047586808
 10
22.31927893149576
 20
27.29661204346879
 10
22.30813218418189
 20
27.28279896870546
 10
22.31070123371759
 20
27.27405998120989
  0
LWPOLYLINE
  5
397
330
1F
100
AcDbEntity
  8
Object
  6
Continuous
370
    15
100
AcDbPolyline
 90
       20
 70
   128
 43
0.0
 10
13.53585789001139
 20
24.23048746320072
 10
13.55915584650247
 20
24.24293334274369
 10
13.58757924971377
 20
24.24224575330402
 10
13.61804818550391
 20
24.22849940008398
 10
13.64726080504683
 20
24.2031838976948
 10
13.6720513241456
 20
24.16904255268281
 10
13.68973329603884
 20
24.12977548975251
 10
13.69839103030898
 20
24.08963711678552
 10
13.69708576398182
 20
24.0529776496647
 10
13.68595916190742
 20
24.0237696703184
 10
13.66621713834387
 20
24.0051780121365
 10
13.63999897771802
 20
23.99921747953989
 10
13.61014565140811
 20
24.00653413052015
 10
13.57989222041918
 20
24.02633527382871
 10
13.55251730303081
 20
24.0564745540828
 10
13.53098735705503
 20
24.09368645959049
 10
13.51763539308263
 20
24.13393825120897
 10
13.51390834229084
 20
24.17286797470331
 10
13.52021025025494
 20
24.20625712023794
 10
13.53585789001139
 20
24.23048746320072
  0
LWPOLYLINE
  5
398
330
1F
100
AcDbEntity
  8
Object
  6
Continuous
370
    15
100
AcDbPolyline
 90
       17
 70
   128
 43
0.0
 10
13.56207459872808
 20
24.17400206588492
 10
13.57671419870223
 20
24.18089429450971
 10
13.59468032995797
 20
24.17818021043699
 10
13.61323759565393
 20
24.1662726088673
 10
13.62956099541259
 20
24.14698459716638
 10
13.64116506818222
 20
24.1232525317628
 10
13.6462836701879
 20
24.09868930364576
 10
13.64413712621527
 20
24.07703465964389
 10
13.6350525306546
 20
24.06158521131732
 10
13.62041272326485
 20
24.05469283236914
 10
13.60244659200911
 20
24.05740717047306
 10
13.58388932631314
 20
24.06931451801155
 10
13.56756613397008
 20
24.08860268003587
 10
13.55596185378485
 20
24.11233459511605
 10
13.55084345919478
 20
24.1368977195253
 10
13.55299000316741
 20
24.15855236352717
 10
13.56207459872808
 20
24.17400206588492
  0
LWPOLYLINE
  5
399
330
1F
100
AcDbEntity
  8
Object
  6
Continuous
370
    15
100
AcDbPolyline
 90
       12
 70
   128
 43
0.0
 10
13.56368580305501
 20
24.24681722236829
 10
13.57497211513608
 20
24.25084147706049
 10
13.60339551834739
 20
24.25015388762083
 10
13.63386445413751
 20
24.23640753440079
 10
13.66307707368044
 20
24.2110920320116
 10
13.68786759277921
 20
24.17695068699962
 10
13.70554956467245
 20
24.13768362406931
 10
13.71420729894259
 20
24.09754525110233
 10
13.71290203261543
 20
24.06088578398151
 10
13.70177543054103
 20
24.0316778046352
 10
13.68203340697747
 20
24.0130861464533
 10
13.68085570124005
 20
24.01247724229015
  0
LINE
  5
39A
330
1F
100
AcDbEntity
  8
Object
  6
Continuous
370
    15
100
AcDbLine
 10
13.60368984107395
 20
24.15660088492327
 30
0.0
 11
13.60194008313085
 21
24.15521869682628
 31
0.0
  0
LWPOLYLINE
  5
39B
330
1F
100
AcDbEntity
  8
Object
  6
Continuous
370
    15
100
AcDbPolyline
 90
       17
 70
   128
 43
0.0
 10
13.58680040416181
 20
24.14560198139924
 10
13.59342484337314
 20
24.14872081524402
 10
13.60155449754335
 20
24.14749250035783
 10
13.60995171782859
 20
24.1421045162124
 10
13.61733799451325
 20
24.13337673383728
 10
13.6225889276673
 20
24.12263776527916
 10
13.62490513759506
 20
24.11152290806414
 10
13.62393381037273
 20
24.10172411919699
 10
13.61982304073377
 20
24.09473319952827
 10
13.61319839410684
 20
24.09161472342248
 10
13.60506873993665
 20
24.09284278427748
 10
13.59667172706699
 20
24.0982309187463
 10
13.58928545038233
 20
24.10695870112141
 10
13.58403451722829
 20
24.11769741564835
 10
13.58171830730053
 20
24.12881227286337
 10
13.58268963452285
 20
24.13861106173051
 10
13.58680040416181
 20
24.14560198139924
  0
LINE
  5
39C
330
1F
100
AcDbEntity
  8
Object
  6
Continuous
370
    15
100
AcDbLine
 10
18.58927996039029
 20
25.39845687952981
 30
0.0
 11
28.15002041582849
 21
30.17882710724894
 31
0.0
  0
LINE
  5
39D
330
1F
100
AcDbEntity
  8
Object
  6
Continuous
370
    15
100
AcDbLine
 10
18.56730303381145
 20
25.39371249301743
 30
0.0
 11
18.58927996039029
 21
25.39845687952981
 31
0.0
  0
LINE
  5
39E
330
1F
100
AcDbEntity
  8
Object
  6
Continuous
370
    15
100
AcDbLine
 10
18.56730303381145
 20
25.39371249301743
 30
0.0
 11
28.12804348924965
 21
30.17408272073655
 31
0.0
  0
LINE
  5
39F
330
1F
100
AcDbEntity
  8
Object
  6
Continuous
370
    15
100
AcDbLine
 10
28.12804348924965
 20
30.17408272073655
 30
0.0
 11
28.15002041582849
 21
30.17882710724894
 31
0.0
  0
LINE
  5
3A0
330
1F
100
AcDbEntity
  8
Object
  6
Continuous
370
    15
100
AcDbLine
 10
18.75984443986697
 20
24.95578838404462
 30
0.0
 11
28.32058489530516
 21
29.73615861176375
 31
0.0
  0
LINE
  5
3A1
330
1F
100
AcDbEntity
  8
Object
  6
Continuous
370
    15
100
AcDbLine
 10
18.58927996039029
 20
25.39845687952981
 30
0.0
 11
18.75984443986697
 21
24.95578838404462
 31
0.0
  0
LINE
  5
3A2
330
1F
100
AcDbEntity
  8
Object
  6
Continuous
370
    15
100
AcDbLine
 10
28.15002041582849
 20
30.17882710724894
 30
0.0
 11
28.32058489530516
 21
29.73615861176375
 31
0.0
  0
LINE
  5
3A3
330
1F
100
AcDbEntity
  8
Object
  6
Continuous
370
    15
100
AcDbLine
 10
18.75984443986697
 20
24.95578838404462
 30
0.0
 11
18.73786751328813
 21
24.95104399753224
 31
0.0
  0
LINE
  5
3A4
330
1F
100
AcDbEntity
  8
Object
  6
Continuous
370
    15
100
AcDbLine
 10
18.73786751328813
 20
24.95104399753224
 30
0.0
 11
18.56730303381145
 21
25.39371249301743
 31
0.0
  0
LINE
  5
3A5
330
1F
100
AcDbEntity
  8
Object
  6
Continuous
370
    15
100
AcDbLine
 10
18.70775284333096
 20
24.9366003311244
 30
0.0
 11
18.73320854423669
 21
24.94932818157726
 31
0.0
  0
LINE
  5
3A6
330
1F
100
AcDbEntity
  8
Object
  6
Continuous
370
    15
100
AcDbLine
 10
18.70775284333096
 20
24.9366003311244
 30
0.0
 11
18.53718919351666
 21
25.37926841177839
 31
0.0
  0
LINE
  5
3A7
330
1F
100
AcDbEntity
  8
Object
  6
Continuous
370
    15
100
AcDbLine
 10
18.56264489442239
 20
25.39199626223126
 30
0.0
 11
18.53718919351666
 21
25.37926841177839
 31
0.0
  0
LINE
  5
3A8
330
1F
100
AcDbEntity
  8
Object
  6
Continuous
370
    15
100
AcDbLine
 10
18.73320854423669
 20
24.94932818157726
 30
0.0
 11
18.56264489442239
 21
25.39199626223126
 31
0.0
  0
LINE
  5
3A9
330
1F
100
AcDbEntity
  8
Object
  6
Continuous
370
    15
100
AcDbLine
 10
18.70775284333096
 20
24.9366003311244
 30
0.0
 11
13.59144755052445
 21
23.83208936625901
 31
0.0
  0
LINE
  5
3AA
330
1F
100
AcDbEntity
  8
Object
  6
Continuous
370
    15
100
AcDbLine
 10
13.59144755052445
 20
23.83208936625901
 30
0.0
 11
13.51009065088488
 21
24.04323645812844
 31
0.0
  0
LWPOLYLINE
  5
3AB
330
1F
100
AcDbEntity
  8
Object
  6
Continuous
370
    15
100
AcDbPolyline
 90
        9
 70
   128
 43
0.0
 10
13.57350112375005
 20
24.30770465476357
 10
13.5454409052422
 20
24.29682853062776
 10
13.52188741274047
 20
24.27747273917264
 10
13.50374539306181
 20
24.25038190192805
 10
13.49171238484572
 20
24.21659654611874
 10
13.48625051003353
 20
24.17741538656321
 10
13.48756988062101
 20
24.13434367093802
 10
13.49561967978788
 20
24.08903717979129
 10
13.51009065088488
 20
24.04323645812844
  0
LINE
  5
3AC
330
1F
100
AcDbEntity
  8
Object
  6
Continuous
370
    15
100
AcDbLine
 10
13.57350112375005
 20
24.30770465476357
 30
0.0
 11
18.53718919351666
 21
25.37926841177839
 31
0.0
  0
LINE
  5
3AD
330
1F
100
AcDbEntity
  8
Object
  6
Continuous
370
    15
100
AcDbLine
 10
13.59895682465579
 20
24.32043250521643
 30
0.0
 11
13.57350112375005
 21
24.30770465476357
 31
0.0
  0
LINE
  5
3AE
330
1F
100
AcDbEntity
  8
Object
  6
Continuous
370
    15
100
AcDbLine
 10
13.59895682465579
 20
24.32043250521643
 30
0.0
 11
18.56264489442239
 21
25.39199626223126
 31
0.0
  0
SPLINE
  5
3AF
330
1F
100
AcDbEntity
  8
Object
  6
Continuous
370
    15
100
AcDbSpline
210
0.0
220
0.0
230
1.0
 70
     8
 71
     3
 72
    12
 73
     8
 74
     0
 42
0.0000000001
 43
0.0000000001
 40
0.0
 40
0.0
 40
0.0
 40
0.0
 40
0.1379988714273958
 40
0.3859861591918991
 40
0.6339733289795419
 40
0.8819592503323779
 40
1.0
 40
1.0
 40
1.0
 40
1.0
 10
18.76827049091966
 20
24.8932122553965
 30
0.0
 10
18.76996130510082
 20
24.89387893835282
 30
0.0
 10
18.77469055299207
 20
24.89574366660054
 30
0.0
 10
18.77747572646042
 20
24.90717725846366
 30
0.0
 10
18.7754143936076
 20
24.92474185118979
 30
0.0
 10
18.76850518322651
 20
24.94218161620921
 30
0.0
 10
18.76195637840104
 20
24.95247034815293
 30
0.0
 10
18.75984443986697
 20
24.95578838404462
 30
0.0
  0
LINE
  5
3B0
330
1F
100
AcDbEntity
  8
Object
  6
Continuous
370
    15
100
AcDbLine
 10
18.75169217739713
 20
24.92443862367614
 30
0.0
 11
18.76453783990686
 21
24.89109968018184
 31
0.0
  0
SPLINE
  5
3B1
330
1F
100
AcDbEntity
  8
Object
  6
Continuous
370
    15
100
AcDbSpline
210
0.0
220
0.0
230
1.0
 70
     8
 71
     3
 72
    11
 73
     7
 74
     0
 42
0.0000000001
 43
0.0000000001
 40
0.0
 40
0.0
 40
0.0
 40
0.0
 40
0.2826417016125295
 40
0.5306842425826045
 40
0.7786476612339408
 40
1.0
 40
1.0
 40
1.0
 40
1.0
 10
18.75169217739713
 20
24.92443862367614
 30
0.0
 10
18.75253912453961
 20
24.92469954957359
 30
0.0
 10
18.75412934105844
 20
24.9251894605155
 30
0.0
 10
18.7521410773289
 20
24.93237023074885
 30
0.0
 10
18.74698027656688
 20
24.94145452450314
 30
0.0
 10
18.74078806438282
 20
24.94797066564641
 30
0.0
 10
18.73786751328813
 20
24.95104399753224
 30
0.0
  0
SPLINE
  5
3B2
330
1F
100
AcDbEntity
  8
Object
  6
Continuous
370
    15
100
AcDbSpline
210
0.0
220
0.0
230
1.0
 70
     8
 71
     3
 72
    12
 73
     8
 74
     0
 42
0.0000000001
 43
0.0000000001
 40
0.0
 40
0.0
 40
0.0
 40
0.0
 40
0.2480708706813375
 40
0.4961780201925773
 40
0.7442833345977517
 40
0.9923949628339688
 40
1.0
 40
1.0
 40
1.0
 40
1.0
 10
28.32058489530516
 20
29.73615861176375
 30
0.0
 10
28.3213514498866
 20
29.72739471218891
 30
0.0
 10
28.32288467115333
 20
29.70986563137314
 30
0.0
 10
28.31752561448387
 20
29.68488934573605
 30
0.0
 10
28.30613244468231
 20
29.66490113925074
 30
0.0
 10
28.29509498841
 20
29.65471622801421
 30
0.0
 10
28.28832768924637
 20
29.65206563183816
 30
0.0
 10
28.28812642914636
 20
29.65198680286391
 30
0.0
  0
SPLINE
  5
3B3
330
1F
100
AcDbEntity
  8
Object
  6
Continuous
370
    15
100
AcDbSpline
210
0.0
220
0.0
230
1.0
 70
     8
 71
     3
 72
    12
 73
     8
 74
     0
 42
0.0000000001
 43
0.0000000001
 40
0.0
 40
0.0
 40
0.0
 40
0.0
 40
0.1115699372762552
 40
0.367158831548659
 40
0.6227474482376837
 40
0.8783377198456275
 40
1.0
 40
1.0
 40
1.0
 40
1.0
 10
13.67462763322707
 20
23.79196592475677
 30
0.0
 10
13.67123317988999
 20
23.79097623079766
 30
0.0
 10
13.66006257648718
 20
23.78771930615929
 30
0.0
 10
13.63969247482589
 20
23.79147615941903
 30
0.0
 10
13.61677783605052
 20
23.80262879922751
 30
0.0
 10
13.60074195471149
 20
23.81784197441474
 30
0.0
 10
13.59371402635106
 20
23.82861508554587
 30
0.0
 10
13.59144755052445
 20
23.83208936625901
 30
0.0
  0
SPLINE
  5
3B4
330
1F
100
AcDbEntity
  8
Object
  6
Continuous
370
    15
100
AcDbSpline
210
0.0
220
0.0
230
1.0
 70
     8
 71
     3
 72
    12
 73
     8
 74
     0
 42
0.0000000001
 43
0.0000000001
 40
0.0
 40
0.0
 40
0.0
 40
0.0
 40
0.2233879796254853
 40
0.4468103485292373
 40
0.6702284267654445
 40
0.8936484869284853
 40
1.0
 40
1.0
 40
1.0
 40
1.0
 10
18.70775284333096
 20
24.9366003311244
 30
0.0
 10
18.70989158061785
 20
24.9287864368968
 30
0.0
 10
18.71416938443777
 20
24.91315744553812
 30
0.0
 10
18.72715070212516
 20
24.89637051162669
 30
0.0
 10
18.74240242845134
 20
24.88723472244728
 30
0.0
 10
18.75553491914311
 20
24.8866933681003
 30
0.0
 10
18.76234241784517
 20
24.89002517169639
 30
0.0
 10
18.76453783990686
 20
24.89109968018184
 30
0.0
  0
SPLINE
  5
3B5
330
1F
100
AcDbEntity
  8
Object
  6
Continuous
370
    15
100
AcDbSpline
210
0.0
220
0.0
230
1.0
 70
     8
 71
     3
 72
    11
 73
     7
 74
     0
 42
0.0000000001
 43
0.0000000001
 40
0.0
 40
0.0
 40
0.0
 40
0.0
 40
0.2826406382581416
 40
0.5306818884410589
 40
0.7786455670204045
 40
1.0
 40
1.0
 40
1.0
 40
1.0
 10
18.73320854423669
 20
24.94932818157726
 30
0.0
 10
18.73373282762028
 20
24.94422304107775
 30
0.0
 10
18.73471721435885
 20
24.93463770466707
 30
0.0
 10
18.74038535010076
 20
24.92577212222757
 30
0.0
 10
18.74657201124552
 20
24.92204722163638
 30
0.0
 10
18.75005120949676
 20
24.92367220050395
 30
0.0
 10
18.75169217739713
 20
24.92443862367614
 30
0.0
  0
ARC
  5
3B6
330
1F
100
AcDbEntity
  8
Object
  6
Continuous
370
    15
100
AcDbCircle
 10
23.34320414729875
 20
27.97300823197213
 30
0.0
 40
0.4479993795924255
100
AcDbArc
 50
106.7343994176241
 51
116.0328340156748
  0
LINE
  5
3B7
330
1F
100
AcDbEntity
  8
Object
  6
Continuous
370
    15
100
AcDbLine
 10
23.14658342922243
 20
28.37555479740071
 30
0.0
 11
22.97760277521439
 21
28.2910644703967
 31
0.0
  0
ARC
  5
3B8
330
1F
100
AcDbEntity
  8
Object
  6
Continuous
370
    15
100
AcDbCircle
 10
18.67630238238282
 20
25.63954851029905
 30
0.0
 40
0.4480072902367748
100
AcDbArc
 50
106.7344829702777
 51
116.0327752461742
  0
LINE
  5
3B9
330
1F
100
AcDbEntity
  8
Object
  6
Continuous
370
    15
100
AcDbLine
 10
18.47967860534231
 20
26.04210238546065
 30
0.0
 11
18.31069810689598
 21
25.95761213623748
 31
0.0
  0
LWPOLYLINE
  5
3BA
330
1F
100
AcDbEntity
  8
Object
  6
Continuous
370
    15
100
AcDbPolyline
 90
        3
 70
   128
 43
0.0
 10
18.6747007537448
 20
25.10117577645747
 10
18.67851222268297
 20
25.10266754882617
 10
18.67932155832711
 20
25.10298923909649
  0
LINE
  5
3BB
330
1F
100
AcDbEntity
  8
Object
  6
Continuous
370
    15
100
AcDbLine
 10
17.98470374522963
 20
26.80367184348098
 30
0.0
 11
17.95924804432391
 21
26.79094399302811
 31
0.0
  0
LINE
  5
3BC
330
1F
100
AcDbEntity
  8
Object
  6
Continuous
370
    15
100
AcDbLine
 10
17.95924804432391
 20
26.79094399302811
 30
0.0
 11
17.83833595400878
 21
26.89023080039495
 31
0.0
  0
LINE
  5
3BD
330
1F
100
AcDbEntity
  8
Object
  6
Continuous
370
    15
100
AcDbLine
 10
17.83833595400878
 20
26.89023080039495
 30
0.0
 11
17.86379165491453
 21
26.90295865084781
 31
0.0
  0
LINE
  5
3BE
330
1F
100
AcDbEntity
  8
Object
  6
Continuous
370
    15
100
AcDbLine
 10
17.86379165491453
 20
26.90295865084781
 30
0.0
 11
17.98470374522963
 21
26.80367184348098
 31
0.0
  0
LINE
  5
3BF
330
1F
100
AcDbEntity
  8
Object
  6
Continuous
370
    15
100
AcDbLine
 10
14.99301548563628
 20
24.62138271426379
 30
0.0
 11
14.44904569193816
 21
26.03315942640373
 31
0.0
  0
LINE
  5
3C0
330
1F
100
AcDbEntity
  8
Object
  6
Continuous
370
    15
100
AcDbLine
 10
14.48075103207855
 20
26.16539347286739
 30
0.0
 11
14.44904569193816
 21
26.03315942640373
 31
0.0
  0
LINE
  5
3C1
330
1F
100
AcDbEntity
  8
Object
  6
Continuous
370
    15
100
AcDbLine
 10
17.83833595400878
 20
26.89023080039495
 30
0.0
 11
14.48075103207855
 21
26.16539347286739
 31
0.0
  0
LINE
  5
3C2
330
1F
100
AcDbEntity
  8
Object
  6
Continuous
370
    15
100
AcDbLine
 10
17.95924804432391
 20
26.79094399302811
 30
0.0
 11
18.50321825285321
 21
25.37916710522647
 31
0.0
  0
LWPOLYLINE
  5
3C3
330
1F
100
AcDbEntity
  8
Object
  6
Continuous
370
    15
100
AcDbPolyline
 90
       20
 70
   128
 43
0.0
 10
16.3526707444418
 20
26.35265396172915
 10
16.40697712468056
 20
26.3573249092138
 10
16.4648195259499
 20
26.34884636003737
 10
16.52462034524896
 20
26.32744961251344
 10
16.58474846635388
 20
26.29371813551359
 10
16.6435636467547
 20
26.24857217033312
 10
16.69946131942346
 20
26.19324328143285
 10
16.75091739458232
 20
26.1292403653822
 10
16.79652766866622
 20
26.05830959212938
 10
16.83504806294795
 20
25.98238570718051
 10
16.86542822486424
 20
25.90353953955541
 10
16.88683932170521
 20
25.82392180875066
 10
16.89869685632957
 20
25.74570465760519
 10
16.90067809007453
 20
25.67102118199171
 10
16.89272868005471
 20
25.60190870211072
 10
16.87506516814925
 20
25.54025264726131
 10
16.84817000302765
 20
25.48773442812378
 10
16.81277619139577
 20
25.44578697123596
 10
16.76984946025495
 20
25.41555435581422
 10
16.76239494384018
 20
25.41188143160477
  0
ARC
  5
3C4
330
1F
100
AcDbEntity
  8
Object
  6
Continuous
370
    15
100
AcDbCircle
 10
16.39631928025335
 20
26.15535408343149
 30
0.0
 40
0.2020703755001366
100
AcDbArc
 50
102.4745893073994
 51
146.6398317021953
  0
LINE
  5
3C5
330
1F
100
AcDbEntity
  8
Object
  6
Continuous
370
    15
100
AcDbLine
 10
17.98470374522963
 20
26.80367184348098
 30
0.0
 11
18.53124673677534
 21
25.38521783192638
 31
0.0
  0
LINE
  5
3C6
330
1F
100
AcDbEntity
  8
Object
  6
Continuous
370
    15
100
AcDbLine
 10
14.50620673298428
 20
26.17812132332027
 30
0.0
 11
14.48075103207855
 21
26.16539347286739
 31
0.0
  0
LINE
  5
3C7
330
1F
100
AcDbEntity
  8
Object
  6
Continuous
370
    15
100
AcDbLine
 10
17.86379165491453
 20
26.90295865084781
 30
0.0
 11
14.50620673298428
 21
26.17812132332027
 31
0.0
  0
ARC
  5
3C8
330
1F
100
AcDbEntity
  8
Object
  6
Continuous
370
    15
100
AcDbCircle
 10
16.4332682886459
 20
26.15631753209573
 30
0.0
 40
0.2182012118269951
100
AcDbArc
 50
121.567571046519
 51
147.6356902104301
  0
LINE
  5
3C9
330
1F
100
AcDbEntity
  8
Object
  6
Continuous
370
    15
100
AcDbLine
 10
17.8940699757746
 20
27.75567156832197
 30
0.0
 11
18.10729403510823
 21
27.20228663959848
 31
0.0
  0
LINE
  5
3CA
330
1F
100
AcDbEntity
  8
Object
  6
Continuous
370
    15
100
AcDbLine
 10
18.4684954306649
 20
26.2648533760772
 30
0.0
 11
18.53642403739383
 21
26.08855641652434
 31
0.0
  0
LINE
  5
3CB
330
1F
100
AcDbEntity
  8
Object
  6
Continuous
370
    15
100
AcDbLine
 10
17.92577531591499
 20
27.88790561478563
 30
0.0
 11
17.8940699757746
 21
27.75567156832197
 31
0.0
  0
LINE
  5
3CC
330
1F
100
AcDbEntity
  8
Object
  6
Continuous
370
    15
100
AcDbLine
 10
17.92577531591499
 20
27.88790561478563
 30
0.0
 11
21.28336023784524
 21
28.61274294231318
 31
0.0
  0
LINE
  5
3CD
330
1F
100
AcDbEntity
  8
Object
  6
Continuous
370
    15
100
AcDbLine
 10
21.40427232816035
 20
28.51345613494635
 30
0.0
 11
21.28336023784524
 21
28.61274294231318
 31
0.0
  0
LINE
  5
3CE
330
1F
100
AcDbEntity
  8
Object
  6
Continuous
370
    15
100
AcDbLine
 10
21.95389502643188
 20
27.08700835377185
 30
0.0
 11
21.40427232816035
 21
28.51345613494635
 31
0.0
  0
LWPOLYLINE
  5
3CF
330
1F
100
AcDbEntity
  8
Object
  6
Continuous
370
    15
100
AcDbPolyline
 90
       24
 70
   128
 43
0.0
 10
20.20741922767664
 20
27.134393573523
 10
20.21487374409141
 20
27.13806649773245
 10
20.25780047523223
 20
27.16829911315419
 10
20.2931942868641
 20
27.210246570042
 10
20.32008945198571
 20
27.26276478917955
 10
20.33775296389116
 20
27.32442084402895
 10
20.34570237391098
 20
27.39353332390994
 10
20.34372114016602
 20
27.46821679952343
 10
20.33186360554166
 20
27.54643395066889
 10
20.3104525087007
 20
27.62605168147364
 10
20.28007234678441
 20
27.70489784909874
 10
20.24155195250267
 20
27.78082173404761
 10
20.19594167841876
 20
27.85175250730045
 10
20.14448560325991
 20
27.91575542335109
 10
20.08858793059115
 20
27.97108431225136
 10
20.02977275019033
 20
28.01623027743182
 10
19.96964462908541
 20
28.04996175443168
 10
19.90984380978634
 20
28.07135850195561
 10
19.852001408517
 20
28.07983705113203
 10
19.79769502827824
 20
28.07516610364739
 10
19.74840644606692
 20
28.05747292257406
 10
19.7054797149261
 20
28.02724030715232
 10
19.67008590329423
 20
27.98529285026452
 10
19.66853070117743
 20
27.98290509575651
  0
LINE
  5
3D0
330
1F
100
AcDbEntity
  8
Object
  6
Continuous
370
    15
100
AcDbLine
 10
21.42972818462778
 20
28.52618406318006
 30
0.0
 11
21.40427232816035
 21
28.51345613494635
 31
0.0
  0
LINE
  5
3D1
330
1F
100
AcDbEntity
  8
Object
  6
Continuous
370
    15
100
AcDbLine
 10
21.28336023784524
 20
28.61274294231318
 30
0.0
 11
21.30881609431267
 21
28.62547087054689
 31
0.0
  0
LINE
  5
3D2
330
1F
100
AcDbEntity
  8
Object
  6
Continuous
370
    15
100
AcDbLine
 10
21.30881609431267
 20
28.62547087054689
 30
0.0
 11
21.42972818462778
 21
28.52618406318006
 31
0.0
  0
LINE
  5
3D3
330
1F
100
AcDbEntity
  8
Object
  6
Continuous
370
    15
100
AcDbLine
 10
21.97935088289932
 20
27.09973628200557
 30
0.0
 11
21.42972818462778
 21
28.52618406318006
 31
0.0
  0
LINE
  5
3D4
330
1F
100
AcDbEntity
  8
Object
  6
Continuous
370
    15
100
AcDbLine
 10
17.95123117238242
 20
27.90063354301934
 30
0.0
 11
17.92577531591499
 21
27.88790561478563
 31
0.0
  0
LINE
  5
3D5
330
1F
100
AcDbEntity
  8
Object
  6
Continuous
370
    15
100
AcDbLine
 10
17.95123117238242
 20
27.90063354301934
 30
0.0
 11
21.30881609431267
 21
28.62547087054689
 31
0.0
  0
SPLINE
  5
3D6
330
1F
100
AcDbEntity
  8
Object
  6
Continuous
370
    15
100
AcDbSpline
210
0.0
220
0.0
230
1.0
 70
     8
 71
     3
 72
    12
 73
     8
 74
     0
 42
0.0000000001
 43
0.0000000001
 40
0.0
 40
0.0
 40
0.0
 40
0.0
 40
0.2568638048167688
 40
0.4849603959490616
 40
0.6873031788606252
 40
0.8682362369927551
 40
1.0
 40
1.0
 40
1.0
 40
1.0
 10
18.55103319912969
 20
26.06391499166226
 30
0.0
 10
18.55471118629633
 20
26.0596122103721
 30
0.0
 10
18.56165524800988
 20
26.05148853362581
 30
0.0
 10
18.57202566059333
 20
26.04445880546786
 30
0.0
 10
18.57988823888781
 20
26.04099572331926
 30
0.0
 10
18.58496910595583
 20
26.0400121369652
 30
0.0
 10
18.58582257491407
 20
26.04014526464822
 30
0.0
 10
18.58618220850785
 20
26.04020136181099
 30
0.0
  0
SPLINE
  5
3D7
330
1F
100
AcDbEntity
  8
Object
  6
Continuous
370
    15
100
AcDbSpline
210
0.0
220
0.0
230
1.0
 70
     8
 71
     3
 72
     9
 73
     5
 74
     0
 42
0.0000000001
 43
0.0000000001
 40
0.0
 40
0.0
 40
0.0
 40
0.0
 40
0.3550717845780211
 40
1.0
 40
1.0
 40
1.0
 40
1.0
 10
18.58382472287707
 20
26.04036449842619
 30
0.0
 10
18.5831350621675
 20
26.04034755078255
 30
0.0
 10
18.58119274869872
 20
26.04029982059284
 30
0.0
 10
18.57735077454099
 20
26.03956887190438
 30
0.0
 10
18.57487297700376
 20
26.03909746247116
 30
0.0
  0
ARC
  5
3D8
330
1F
100
AcDbEntity
  8
Object
  6
Continuous
370
    15
100
AcDbCircle
 10
18.61460870337126
 20
26.11825838066383
 30
0.0
 40
0.0836364075492641
100
AcDbArc
 50
200.8015341698839
 51
220.523326246197
  0
LINE
  5
3D9
330
1F
100
AcDbEntity
  8
Object
  6
Continuous
370
    15
100
AcDbLine
 10
22.62615286820402
 20
29.12439640496818
 30
0.0
 11
22.5052407778889
 21
29.22368321233502
 31
0.0
  0
LINE
  5
3DA
330
1F
100
AcDbEntity
  8
Object
  6
Continuous
370
    15
100
AcDbLine
 10
22.62615286820402
 20
29.12439640496818
 30
0.0
 11
23.14409822744023
 21
27.78016157715334
 31
0.0
  0
LINE
  5
3DB
330
1F
100
AcDbEntity
  8
Object
  6
Continuous
370
    15
100
AcDbLine
 10
19.1922659720528
 20
28.16854897391067
 30
0.0
 11
19.11595051581827
 21
28.3666118383438
 31
0.0
  0
LINE
  5
3DC
330
1F
100
AcDbEntity
  8
Object
  6
Continuous
370
    15
100
AcDbLine
 10
19.14765585595866
 20
28.49884588480747
 30
0.0
 11
19.11595051581827
 21
28.3666118383438
 31
0.0
  0
LINE
  5
3DD
330
1F
100
AcDbEntity
  8
Object
  6
Continuous
370
    15
100
AcDbLine
 10
22.5052407778889
 20
29.22368321233502
 30
0.0
 11
19.14765585595866
 21
28.49884588480747
 31
0.0
  0
ARC
  5
3DE
330
1F
100
AcDbEntity
  8
Object
  6
Continuous
370
    15
100
AcDbCircle
 10
21.05964726686492
 20
28.35363210720755
 30
0.0
 40
0.3348803948925034
100
AcDbArc
 50
51.71049564502066
 51
96.87246520140902
  0
ARC
  5
3DF
330
1F
100
AcDbEntity
  8
Object
  6
Continuous
370
    15
100
AcDbCircle
 10
21.06593884360519
 20
28.48465355882071
 30
0.0
 40
0.2067191087088596
100
AcDbArc
 50
102.9606323828534
 51
148.1151780351217
  0
LINE
  5
3E0
330
1F
100
AcDbEntity
  8
Object
  6
Continuous
370
    15
100
AcDbLine
 10
22.65160872467144
 20
29.1371243332019
 30
0.0
 11
22.62615286820402
 21
29.12439640496818
 31
0.0
  0
LINE
  5
3E1
330
1F
100
AcDbEntity
  8
Object
  6
Continuous
370
    15
100
AcDbLine
 10
22.5052407778889
 20
29.22368321233502
 30
0.0
 11
22.53069663435633
 21
29.23641114056873
 31
0.0
  0
LINE
  5
3E2
330
1F
100
AcDbEntity
  8
Object
  6
Continuous
370
    15
100
AcDbLine
 10
22.53069663435633
 20
29.23641114056873
 30
0.0
 11
22.65160872467144
 21
29.1371243332019
 31
0.0
  0
LINE
  5
3E3
330
1F
100
AcDbEntity
  8
Object
  6
Continuous
370
    15
100
AcDbLine
 10
22.65160872467144
 20
29.1371243332019
 30
0.0
 11
23.20123142294297
 21
27.7106765520274
 31
0.0
  0
LINE
  5
3E4
330
1F
100
AcDbEntity
  8
Object
  6
Continuous
370
    15
100
AcDbLine
 10
19.17311171242609
 20
28.51157381304118
 30
0.0
 11
19.14765585595866
 21
28.49884588480747
 31
0.0
  0
LINE
  5
3E5
330
1F
100
AcDbEntity
  8
Object
  6
Continuous
370
    15
100
AcDbLine
 10
22.53069663435633
 20
29.23641114056873
 30
0.0
 11
19.17311171242609
 21
28.51157381304118
 31
0.0
  0
ARC
  5
3E6
330
1F
100
AcDbEntity
  8
Object
  6
Continuous
370
    15
100
AcDbCircle
 10
19.87829272804505
 20
27.87882975179377
 30
0.0
 40
0.2182012118284076
100
AcDbArc
 50
121.5675710466021
 51
147.6356902103429
  0
LINE
  5
3E7
330
1F
100
AcDbEntity
  8
Object
  6
Continuous
370
    15
100
AcDbLine
 10
13.57636055511606
 20
24.31251826155146
 30
0.0
 11
13.59895682465579
 21
24.32043250521643
 31
0.0
  0
LINE
  5
3E8
330
1F
100
AcDbEntity
  8
Object
  6
Continuous
370
    15
100
AcDbLine
 10
18.49252468268322
 20
26.00876321867381
 30
0.0
 11
18.47967860534231
 21
26.04210238546065
 31
0.0
  0
LINE
  5
3E9
330
1F
100
AcDbEntity
  8
Object
  6
Continuous
370
    15
100
AcDbLine
 10
18.49252468268322
 20
26.00876321867381
 30
0.0
 11
18.32354418423689
 21
25.92427296945064
 31
0.0
  0
ARC
  5
3EA
330
1F
100
AcDbEntity
  8
Object
  6
Continuous
370
    15
100
AcDbCircle
 10
21.10017326808801
 20
28.48977002181634
 30
0.0
 40
0.2182012118274063
100
AcDbArc
 50
121.5675710465468
 51
147.6356902104059
  0
LINE
  5
3EB
330
1F
100
AcDbEntity
  8
Object
  6
Continuous
370
    15
100
AcDbLine
 10
28.12838572497821
 20
30.17486667750919
 30
0.0
 11
28.15384142588394
 21
30.18759452796206
 31
0.0
  0
LINE
  5
3EC
330
1F
100
AcDbEntity
  8
Object
  6
Continuous
370
    15
100
AcDbLine
 10
28.12838572497821
 20
30.17486667750919
 30
0.0
 11
26.49624362358841
 21
29.82251891652746
 31
0.0
  0
LINE
  5
3ED
330
1F
100
AcDbEntity
  8
Object
  6
Continuous
370
    15
100
AcDbLine
 10
28.15384142588394
 20
30.18759452796206
 30
0.0
 11
26.49367084057203
 21
29.82919591133015
 31
0.0
  0
LINE
  5
3EE
330
1F
100
AcDbEntity
  8
Object
  6
Continuous
370
    15
100
AcDbLine
 10
28.32440507569824
 20
29.74492644730806
 30
0.0
 11
28.15384142588394
 21
30.18759452796206
 31
0.0
  0
LINE
  5
3EF
330
1F
100
AcDbEntity
  8
Object
  6
Continuous
370
    15
100
AcDbLine
 10
28.32440507569824
 20
29.74492644730806
 30
0.0
 11
28.31836928194004
 21
29.74190855042896
 31
0.0
  0
LINE
  5
3F0
330
1F
100
AcDbEntity
  8
Object
  6
Continuous
370
    15
100
AcDbLine
 10
28.12863794233937
 20
30.17421113608756
 30
0.0
 11
28.12838572497821
 21
30.17486667750919
 31
0.0
  0
SPLINE
  5
3F1
330
1F
100
AcDbEntity
  8
Object
  6
Continuous
370
    15
100
AcDbSpline
210
0.0
220
0.0
230
1.0
 70
     8
 71
     3
 72
    10
 73
     6
 74
     0
 42
0.0000000001
 43
0.0000000001
 40
0.0
 40
0.0
 40
0.0
 40
0.0
 40
0.3442125983801682
 40
0.788512991634674
 40
1.0
 40
1.0
 40
1.0
 40
1.0
 10
28.31703103653359
 20
29.68816872642997
 30
0.0
 10
28.31965435550439
 20
29.69440621088505
 30
0.0
 10
28.3256637842685
 20
29.70869487304064
 30
0.0
 10
28.32674349572992
 20
29.72887528607319
 30
0.0
 10
28.32497530520242
 20
29.74101233197009
 30
0.0
 10
28.32440507569825
 20
29.74492644730806
 30
0.0
  0
LINE
  5
3F2
330
1F
100
AcDbEntity
  8
Object
  6
Continuous
370
    15
100
AcDbLine
 10
26.07117730760216
 20
30.84690862466726
 30
0.0
 11
25.95026521728705
 21
30.9461954320341
 31
0.0
  0
LINE
  5
3F3
330
1F
100
AcDbEntity
  8
Object
  6
Continuous
370
    15
100
AcDbLine
 10
26.62080000587369
 20
29.42046084349277
 30
0.0
 11
26.07117730760216
 21
30.84690862466726
 31
0.0
  0
LINE
  5
3F4
330
1F
100
AcDbEntity
  8
Object
  6
Continuous
370
    15
100
AcDbLine
 10
22.56097495521641
 20
30.08912405804288
 30
0.0
 11
22.77419901455004
 21
29.5357391293194
 31
0.0
  0
LINE
  5
3F5
330
1F
100
AcDbEntity
  8
Object
  6
Continuous
370
    15
100
AcDbLine
 10
23.13540041010671
 20
28.59830586579811
 30
0.0
 11
23.20332901683563
 21
28.42200890624525
 31
0.0
  0
LINE
  5
3F6
330
1F
100
AcDbEntity
  8
Object
  6
Continuous
370
    15
100
AcDbLine
 10
22.5926802953568
 20
30.22135810450655
 30
0.0
 11
22.56097495521641
 21
30.08912405804288
 31
0.0
  0
LINE
  5
3F7
330
1F
100
AcDbEntity
  8
Object
  6
Continuous
370
    15
100
AcDbLine
 10
22.5926802953568
 20
30.22135810450655
 30
0.0
 11
25.95026521728705
 21
30.9461954320341
 31
0.0
  0
LWPOLYLINE
  5
3F8
330
1F
100
AcDbEntity
  8
Object
  6
Continuous
370
    15
100
AcDbPolyline
 90
       24
 70
   128
 43
0.0
 10
24.87432420711844
 20
29.46784606324392
 10
24.88177872353322
 20
29.47151898745337
 10
24.92470545467404
 20
29.50175160287512
 10
24.9600992663059
 20
29.54369905976292
 10
24.98699443142752
 20
29.59621727890047
 10
25.00465794333297
 20
29.65787333374986
 10
25.01260735335279
 20
29.72698581363085
 10
25.01062611960783
 20
29.80166928924435
 10
24.99876858498347
 20
29.8798864403898
 10
24.97735748814251
 20
29.95950417119455
 10
24.94697732622621
 20
30.03835033881966
 10
24.90845693194447
 20
30.11427422376852
 10
24.86284665786057
 20
30.18520499702136
 10
24.81139058270172
 20
30.249207913072
 10
24.75549291003297
 20
30.30453680197228
 10
24.69667772963215
 20
30.34968276715274
 10
24.63654960852722
 20
30.38341424415259
 10
24.57674878922816
 20
30.40481099167653
 10
24.51890638795882
 20
30.41328954085295
 10
24.46460000772005
 20
30.40861859336831
 10
24.41531142550874
 20
30.39092541229498
 10
24.37238469436791
 20
30.36069279687324
 10
24.33699088273605
 20
30.31874533998543
 10
24.33543568061923
 20
30.31635758547743
  0
LINE
  5
3F9
330
1F
100
AcDbEntity
  8
Object
  6
Continuous
370
    15
100
AcDbLine
 10
26.09663300850789
 20
30.85963647512013
 30
0.0
 11
26.07117730760216
 21
30.84690862466726
 31
0.0
  0
LINE
  5
3FA
330
1F
100
AcDbEntity
  8
Object
  6
Continuous
370
    15
100
AcDbLine
 10
25.95026521728705
 20
30.9461954320341
 30
0.0
 11
25.97572091819278
 21
30.95892328248697
 31
0.0
  0
LINE
  5
3FB
330
1F
100
AcDbEntity
  8
Object
  6
Continuous
370
    15
100
AcDbLine
 10
25.97572091819278
 20
30.95892328248697
 30
0.0
 11
26.09663300850789
 21
30.85963647512013
 31
0.0
  0
LINE
  5
3FC
330
1F
100
AcDbEntity
  8
Object
  6
Continuous
370
    15
100
AcDbLine
 10
26.64625570677942
 20
29.43318869394564
 30
0.0
 11
26.09663300850789
 21
30.85963647512013
 31
0.0
  0
LINE
  5
3FD
330
1F
100
AcDbEntity
  8
Object
  6
Continuous
370
    15
100
AcDbLine
 10
22.61813599626253
 20
30.23408595495941
 30
0.0
 11
22.5926802953568
 21
30.22135810450655
 31
0.0
  0
LINE
  5
3FE
330
1F
100
AcDbEntity
  8
Object
  6
Continuous
370
    15
100
AcDbLine
 10
22.61813599626253
 20
30.23408595495941
 30
0.0
 11
25.97572091819278
 21
30.95892328248697
 31
0.0
  0
SPLINE
  5
3FF
330
1F
100
AcDbEntity
  8
Object
  6
Continuous
370
    15
100
AcDbSpline
210
0.0
220
0.0
230
1.0
 70
     8
 71
     3
 72
    12
 73
     8
 74
     0
 42
0.0000000001
 43
0.0000000001
 40
0.0
 40
0.0
 40
0.0
 40
0.0
 40
0.2568644220344518
 40
0.4849606596012074
 40
0.6873012669015648
 40
0.868240504559405
 40
1.0
 40
1.0
 40
1.0
 40
1.0
 10
23.2179381267176
 20
28.39736745545622
 30
0.0
 10
23.22161609099004
 20
28.39306466376874
 30
0.0
 10
23.22856009656863
 20
28.38494098249608
 30
0.0
 10
23.23893047815717
 20
28.37791128122703
 30
0.0
 10
23.24679273628924
 20
28.37444781611261
 30
0.0
 10
23.2518741463032
 20
28.3734647335531
 30
0.0
 10
23.25272729029854
 20
28.37359764164208
 30
0.0
 10
23.25308677311847
 20
28.37365364411632
 30
0.0
  0
SPLINE
  5
400
330
1F
100
AcDbEntity
  8
Object
  6
Continuous
370
    15
100
AcDbSpline
210
0.0
220
0.0
230
1.0
 70
     8
 71
     3
 72
     9
 73
     5
 74
     0
 42
0.0000000001
 43
0.0000000001
 40
0.0
 40
0.0
 40
0.0
 40
0.0
 40
0.3550782680428565
 40
1.0
 40
1.0
 40
1.0
 40
1.0
 10
23.25072928748769
 20
28.37381678073151
 30
0.0
 10
23.25003978528528
 20
28.37379991011515
 30
0.0
 10
23.2480979536823
 20
28.37375239772739
 30
0.0
 10
23.24425563812568
 20
28.3730212984455
 30
0.0
 10
23.24177764532217
 20
28.37254979663038
 30
0.0
  0
ARC
  5
401
330
1F
100
AcDbEntity
  8
Object
  6
Continuous
370
    15
100
AcDbCircle
 10
23.28149444366356
 20
28.45169927315987
 30
0.0
 40
0.0836143040317677
100
AcDbArc
 50
200.7987871593675
 51
220.5258419412951
  0
ARC
  5
402
330
1F
100
AcDbEntity
  8
Object
  6
Continuous
370
    15
100
AcDbCircle
 10
18.67586409470781
 20
25.6379946583973
 30
0.0
 40
0.4136214033280127
100
AcDbArc
 50
104.1323857503387
 51
116.3116950915593
  0
ARC
  5
403
330
1F
100
AcDbEntity
  8
Object
  6
Continuous
370
    15
100
AcDbCircle
 10
24.54519755192592
 20
30.21228216373307
 30
0.0
 40
0.218201211829465
100
AcDbArc
 50
121.5675710466657
 51
147.635690210278
  0
LINE
  5
404
330
1F
100
AcDbEntity
  8
Object
  6
Continuous
370
    15
100
AcDbLine
 10
23.15942950656334
 20
28.34221563061387
 30
0.0
 11
23.14658342922243
 21
28.37555479740071
 31
0.0
  0
LINE
  5
405
330
1F
100
AcDbEntity
  8
Object
  6
Continuous
370
    15
100
AcDbLine
 10
23.15942950656334
 20
28.34221563061387
 30
0.0
 11
22.99044885255531
 21
28.25772530360986
 31
0.0
  0
ARC
  5
406
330
1F
100
AcDbEntity
  8
Object
  6
Continuous
370
    15
100
AcDbCircle
 10
23.34276714143335
 20
27.97145138420643
 30
0.0
 40
0.4136167486620943
100
AcDbArc
 50
104.1323164558953
 51
116.3117392953814
  0
LINE
  5
407
330
1F
100
AcDbEntity
  8
Object
  6
Continuous
370
    15
100
AcDbLine
 10
13.76298501654819
 20
24.35584299022418
 30
0.0
 11
13.76298501654819
 21
31.0791501725608
 31
0.0
  0
LINE
  5
408
330
1F
100
AcDbEntity
  8
Object
  6
Continuous
370
    15
100
AcDbLine
 10
13.83369548121131
 20
31.0791501725608
 30
0.0
 11
13.83369548121131
 21
24.37110797809312
 31
0.0
  0
LINE
  5
409
330
1F
100
AcDbEntity
  8
Object
  6
Continuous
370
    15
100
AcDbLine
 10
14.30745717081272
 20
30.75123046496597
 30
0.0
 11
14.29485335488451
 21
30.74492855700186
 31
0.0
  0
LINE
  5
40A
330
1F
100
AcDbEntity
  8
Object
  6
Continuous
370
    15
100
AcDbLine
 10
14.31245713109916
 20
30.75985437485834
 30
0.0
 11
14.31245713109916
 21
30.7678002162581
 31
0.0
  0
LINE
  5
40B
330
1F
100
AcDbEntity
  8
Object
  6
Continuous
370
    15
100
AcDbLine
 10
19.73096637422951
 20
33.45650854937665
 30
0.0
 11
19.73096637422951
 21
30.60186606549185
 31
0.0
  0
LINE
  5
40C
330
1F
100
AcDbEntity
  8
Object
  6
Continuous
370
    15
100
AcDbLine
 10
19.73096637422951
 20
30.60186606549185
 30
0.0
 11
14.32210190594323
 21
27.89743383134869
 31
0.0
  0
LINE
  5
40D
330
1F
100
AcDbEntity
  8
Object
  6
Continuous
370
    15
100
AcDbLine
 10
14.31099277701212
 20
24.78283264411424
 30
0.0
 11
14.10641131061034
 21
24.42998206318718
 31
0.0
  0
LINE
  5
40E
330
1F
100
AcDbEntity
  8
Object
  6
Continuous
370
    15
100
AcDbLine
 10
14.34781236343072
 20
24.80124243732354
 30
0.0
 11
14.83068623486668
 21
25.04267937304152
 31
0.0
  0
LINE
  5
40F
330
1F
100
AcDbEntity
  8
Object
  6
Continuous
370
    15
100
AcDbLine
 10
14.3221019561767
 20
24.86704360550302
 30
0.0
 11
14.80527492089786
 21
25.10863008786361
 31
0.0
  0
LINE
  5
410
330
1F
100
AcDbEntity
  8
Object
  6
Continuous
370
    15
100
AcDbLine
 10
14.32210185570976
 20
27.85810531282319
 30
0.0
 11
19.76132169974897
 21
30.57771523484281
 31
0.0
  0
LINE
  5
411
330
1F
100
AcDbEntity
  8
Object
  6
Continuous
370
    15
100
AcDbLine
 10
23.30185557185357
 20
30.38168786343625
 30
0.0
 11
23.30185557185357
 21
35.81323021788195
 31
0.0
  0
LINE
  5
412
330
1F
100
AcDbEntity
  8
Object
  6
Continuous
370
    15
100
AcDbLine
 10
22.82809388225215
 20
30.27941191919552
 30
0.0
 11
22.82809388225215
 21
34.97619358835415
 31
0.0
  0
LINE
  5
413
330
1F
100
AcDbEntity
  8
Object
  6
Continuous
370
    15
100
AcDbLine
 10
22.75738341758905
 20
29.52733138779333
 30
0.0
 11
22.75738341758905
 21
29.57938110720899
 31
0.0
  0
LINE
  5
414
330
1F
100
AcDbEntity
  8
Object
  6
Continuous
370
    15
100
AcDbLine
 10
22.75738341758905
 20
30.264146804311
 30
0.0
 11
22.75738341758905
 21
34.96971706332181
 31
0.0
  0
LINE
  5
415
330
1F
100
AcDbEntity
  8
Object
  6
Continuous
370
    15
100
AcDbLine
 10
19.76632166003541
 20
30.58633914473519
 30
0.0
 11
19.76632166003541
 21
33.47418619152326
 31
0.0
  0
LINE
  5
416
330
1F
100
AcDbEntity
  8
Object
  6
Continuous
370
    15
100
AcDbLine
 10
23.28417795568779
 20
35.83974664213062
 30
0.0
 11
23.28417795568779
 21
35.82206886607744
 31
0.0
  0
LINE
  5
417
330
1F
100
AcDbEntity
  8
Object
  6
Continuous
370
    15
100
AcDbLine
 10
13.49251674251563
 20
31.29227073347172
 30
0.0
 11
13.49251674251563
 21
24.21982232995328
 31
0.0
  0
LINE
  5
418
330
1F
100
AcDbEntity
  8
Object
  6
Continuous
370
    15
100
AcDbLine
 10
13.49251674251563
 20
24.10273681700335
 30
0.0
 11
13.49251674251563
 21
23.98221197585522
 31
0.0
  0
LINE
  5
419
330
1F
100
AcDbEntity
  8
Object
  6
Continuous
370
    15
100
AcDbLine
 10
13.52795618557797
 20
23.99686985952741
 30
0.0
 11
13.49501651524326
 21
23.98040002436005
 31
0.0
  0
LINE
  5
41A
330
1F
100
AcDbEntity
  8
Object
  6
Continuous
370
    15
100
AcDbLine
 10
23.09997631579825
 20
35.95197906461441
 30
0.0
 11
23.09997631579825
 21
36.09600052011307
 31
0.0
  0
ARC
  5
41B
330
1F
100
AcDbEntity
  8
Object
  6
Continuous
370
    15
100
AcDbCircle
 10
16.57659756175557
 20
25.56511325647976
 30
0.0
 40
0.2203253677709693
100
AcDbArc
 50
298.4748268496326
 51
342.8013708299815
  0
LWPOLYLINE
  5
41C
330
1F
100
AcDbEntity
  8
Object
  6
Continuous
370
    15
100
AcDbPolyline
 90
       17
 70
   128
 43
0.0
 10
16.2336394987246
 20
26.26545427509373
 10
16.25143202312893
 20
26.2730849641741
 10
16.30309966219272
 20
26.28453003034933
 10
16.35916824531016
 20
26.28254415989073
 10
16.41802449399841
 20
26.26718447303181
 10
16.47797548218686
 20
26.23889282463976
 10
16.53729675663475
 20
26.19848298488665
 10
16.59428128701117
 20
26.14711768839646
 10
16.64728966046853
 20
26.086274645867
 10
16.69479778722898
 20
26.01770376595338
 10
16.73543796887185
 20
25.94337816963179
 10
16.76804121111461
 20
25.86543607227174
 10
16.79167041030781
 20
25.78611922686905
 10
16.805644828475
 20
25.7077100073047
 10
16.80956249419682
 20
25.6324640035034
 10
16.80331140305302
 20
25.56254561299345
 10
16.78707117694719
 20
25.4999663072681
  0
LWPOLYLINE
  5
41D
330
1F
100
AcDbEntity
  8
Object
  6
Continuous
370
    15
100
AcDbPolyline
 90
        3
 70
   128
 43
0.0
 10
24.50561934506705
 20
30.40144947975529
 10
24.5231629707597
 20
30.40912948846886
 10
24.53266011593498
 20
30.41243897555645
  0
LINE
  5
41E
330
1F
100
AcDbEntity
  8
Object
  6
Continuous
370
    15
100
AcDbLine
 10
13.60194008313085
 20
24.15521869682628
 30
0.0
 11
13.59981448813311
 21
24.15267399748324
 31
0.0
  0
LWPOLYLINE
  5
41F
330
1F
100
AcDbEntity
  8
Object
  6
Continuous
370
    15
100
AcDbPolyline
 90
        3
 70
   128
 43
0.0
 10
13.62721844370451
 20
24.09786621771347
 10
13.62994181044146
 20
24.09795124193704
 10
13.63392543432187
 20
24.09913863026276
  0
LINE
  5
420
330
1F
100
AcDbEntity
  8
Object
  6
Continuous
370
    15
100
AcDbLine
 10
18.75329301094441
 20
24.92523904044978
 30
0.0
 11
18.75169217739713
 21
24.92443862367614
 31
0.0
  0
LINE
  5
421
330
1F
100
AcDbEntity
  8
Object
  6
Continuous
370
    15
100
AcDbLine
 10
18.75169217739713
 20
24.92443862367614
 30
0.0
 11
18.74741692719286
 21
24.92351576839843
 31
0.0
  0
LINE
  5
422
330
1F
100
AcDbEntity
  8
Object
  6
Continuous
370
    15
100
AcDbLine
 10
22.10569389124935
 20
27.16290749155995
 30
0.0
 11
21.96658191230511
 21
27.13287601707275
 31
0.0
  0
LINE
  5
423
330
1F
100
AcDbEntity
  8
Object
  6
Continuous
370
    15
100
AcDbLine
 10
18.24973214346634
 20
26.11583874638909
 30
0.0
 11
18.48129952255256
 21
26.2316224359322
 31
0.0
  0
LINE
  5
424
330
1F
100
AcDbEntity
  8
Object
  6
Continuous
370
    15
100
AcDbLine
 10
22.91663710994467
 20
28.44929122962826
 30
0.0
 11
23.14820417466663
 21
28.56507476198924
 31
0.0
  0
LINE
  5
425
330
1F
100
AcDbEntity
  8
Object
  6
Continuous
370
    15
100
AcDbLine
 10
21.03637099411649
 20
26.628246346095
 30
0.0
 11
18.53642403739383
 21
26.08855641652434
 31
0.0
  0
LINE
  5
426
330
1F
100
AcDbEntity
  8
Object
  6
Continuous
370
    15
100
AcDbLine
 10
22.25825153416015
 20
27.23918661611684
 30
0.0
 11
21.95116320750951
 21
27.17289231995091
 31
0.0
  0
LINE
  5
427
330
1F
100
AcDbEntity
  8
Object
  6
Continuous
370
    15
100
AcDbLine
 10
25.70327597355829
 20
28.96169883581592
 30
0.0
 11
23.20332901683563
 21
28.42200890624525
 31
0.0
  0
DIMENSION
  5
448
330
1F
100
AcDbEntity
  8
DIMENSIONS
100
AcDbDimension
  2
*D5
 10
24.74324772476317
 20
21.82715435461596
 30
0.0
 11
18.04739854159942
 21
21.82715435461596
 31
0.0
 70
   160
 71
     5
 42
13.65900019836425
  3
Standard
100
AcDbAlignedDimension
 13
11.08424752639891
 23
17.50995706318647
 33
0.0
 14
24.74324772476317
 24
17.5099571658606
 34
0.0
100
AcDbRotatedDimension
  0
DIMENSION
  5
493
330
1F
100
AcDbEntity
  8
DIMENSIONS
100
AcDbDimension
  2
*D6
 10
28.40156666779643
 20
9.025957165860598
 30
0.0
 11
28.40156666779643
 21
13.2859571658606
 31
0.0
 70
   160
 71
     5
 42
8.520000000000001
  3
Standard
100
AcDbAlignedDimension
 13
24.70724772476317
 23
17.5459571658606
 33
0.0
 14
24.70724772476317
 24
9.025957165860599
 34
0.0
 50
90.0
100
AcDbRotatedDimension
  0
DIMENSION
  5
4A2
330
1F
100
AcDbEntity
  8
DIMENSIONS
100
AcDbDimension
  2
*D7
 10
39.91658480138112
 20
19.4059709231656
 30
0.0
 11
37.61958480985438
 21
19.4059709231656
 31
0.0
 70
    32
 71
     5
 42
4.5939999830535
  3
Standard
100
AcDbAlignedDimension
 13
35.32258481832762
 23
17.44442158025816
 33
0.0
 14
39.91658480138112
 24
17.50642155736247
 34
0.0
100
AcDbRotatedDimension
  0
LINE
  5
4B1
330
1F
100
AcDbEntity
  8
DIMENSIONS
100
AcDbLine
 10
22.82374772476317
 20
15.7159571658606
 30
0.0
 11
23.00374772476317
 21
15.7159571658606
 31
0.0
  0
LINE
  5
4B2
330
1F
100
AcDbEntity
  8
DIMENSIONS
100
AcDbLine
 10
22.91374772476317
 20
15.6259571658606
 30
0.0
 11
22.91374772476317
 21
15.8059571658606
 31
0.0
  0
LINE
  5
4B3
330
1F
100
AcDbEntity
  8
DIMENSIONS
100
AcDbLine
 10
22.82374772476317
 20
11.2159571658606
 30
0.0
 11
23.00374772476317
 21
11.2159571658606
 31
0.0
  0
LINE
  5
4B4
330
1F
100
AcDbEntity
  8
DIMENSIONS
100
AcDbLine
 10
22.91374772476317
 20
11.1259571658606
 30
0.0
 11
22.91374772476317
 21
11.3059571658606
 31
0.0
  0
LINE
  5
4B5
330
1F
100
AcDbEntity
  8
DIMENSIONS
100
AcDbLine
 10
12.82374772476316
 20
15.7159571658606
 30
0.0
 11
13.00374772476317
 21
15.7159571658606
 31
0.0
  0
LINE
  5
4B6
330
1F
100
AcDbEntity
  8
DIMENSIONS
100
AcDbLine
 10
12.91374772476317
 20
15.6259571658606
 30
0.0
 11
12.91374772476317
 21
15.8059571658606
 31
0.0
  0
LINE
  5
4B7
330
1F
100
AcDbEntity
  8
DIMENSIONS
100
AcDbLine
 10
12.82374772476316
 20
11.2159571658606
 30
0.0
 11
13.00374772476317
 21
11.2159571658606
 31
0.0
  0
LINE
  5
4B8
330
1F
100
AcDbEntity
  8
DIMENSIONS
100
AcDbLine
 10
12.91374772476317
 20
11.1259571658606
 30
0.0
 11
12.91374772476317
 21
11.3059571658606
 31
0.0
  0
LINE
  5
4DA
330
1F
100
AcDbEntity
  8
DIMENSIONS
100
AcDbLine
 10
39.31348241510239
 20
15.7159571658606
 30
0.0
 11
40.52833060195442
 21
15.7159571658606
 31
0.0
  0
LINE
  5
4DB
330
1F
100
AcDbEntity
  8
DIMENSIONS
100
AcDbLine
 10
39.23593894279628
 20
11.2159571658606
 30
0.0
 11
40.50248277785238
 21
11.2159571658606
 31
0.0
  0
DIMENSION
  5
4DC
330
1F
100
AcDbEntity
  8
DIMENSIONS
100
AcDbDimension
  2
*D8
 10
43.12443955487907
 20
15.7159571658606
 30
0.0
 11
43.12443955487907
 21
13.46595716586061
 31
0.0
 70
    32
 71
     5
 42
4.500000000000003
  3
Standard
100
AcDbAlignedDimension
 13
40.50248277785238
 23
11.2159571658606
 33
0.0
 14
40.52833060195442
 24
15.7159571658606
 34
0.0
 50
90.0
100
AcDbRotatedDimension
  0
DIMENSION
  5
4EB
330
1F
100
AcDbEntity
  8
DIMENSIONS
100
AcDbDimension
  2
*D9
 10
43.12443955487907
 20
9.025957177743983
 30
0.0
 11
43.12443955487907
 21
10.1209571718023
 31
0.0
 70
    32
 71
     5
 42
2.189999988116618
  3
Standard
100
AcDbAlignedDimension
 13
40.50248277785238
 23
11.2159571658606
 33
0.0
 14
39.8805848022562
 24
9.025957177743983
 34
0.0
 50
90.0
100
AcDbRotatedDimension
  0
DIMENSION
  5
505
330
1F
100
AcDbEntity
  8
DIMENSIONS
100
AcDbDimension
  2
*D10
 10
17.03781266363974
 20
6.364300393023597
 30
0.0
 11
14.61678004828178
 21
6.364300393023597
 31
0.0
 70
    32
 71
     5
 42
4.842065230715935
  3
Standard
100
AcDbAlignedDimension
 13
12.19574743292381
 23
10.34142171471873
 33
0.0
 14
17.03781266363974
 24
10.34142171471873
 34
0.0
100
AcDbRotatedDimension
  0
DIMENSION
  5
514
330
1F
100
AcDbEntity
  8
DIMENSIONS
100
AcDbDimension
  2
*D11
 10
22.91374772476317
 20
19.59737014458611
 30
0.0
 11
17.83047119627411
 21
19.59737014458611
 31
0.0
 70
   160
 71
     5
 42
10.0
  3
Standard
100
AcDbAlignedDimension
 13
12.91374772476317
 23
15.8059571658606
 33
0.0
 14
22.91374772476317
 24
15.8059571658606
 34
0.0
100
AcDbRotatedDimension
  0
LEADER
  5
523
330
1F
100
AcDbEntity
  8
DIMENSIONS
100
AcDbLeader
  3
Standard
 76
     3
 10
19.4139205619666
 20
26.73756601229708
 30
0.0
 10
21.91192820495814
 20
24.45930982823273
 30
0.0
 10
22.33506398489087
 20
24.45930982823273
 30
0.0
1001
ACAD
1000
DSTYLE
1002
{
1070
   147
1040
0.09
1070
    77
1070
     0
1002
}
  0
MTEXT
  5
524
330
1F
100
AcDbEntity
  8
DIMENSIONS
100
AcDbMText
 10
22.52615769108599
 20
24.56843439848801
 30
0.0
 40
0.36
 41
7.193309393996543
 71
     1
 72
     5
  1
Spindle
 73
     1
 44
1.0
  0
MTEXT
  5
525
330
1F
100
AcDbEntity
  8
DIMENSIONS
100
AcDbMText
 10
29.62019074718821
 20
17.34003956169798
 30
0.0
 40
0.36
 41
7.193309393996543
 71
     1
 72
     5
  1
Lock and Key
 73
     1
 44
1.0
  0
LEADER
  5
526
330
1F
100
AcDbEntity
  8
DIMENSIONS
100
AcDbLeader
  3
Standard
 76
     3
 10
35.07064028258364
 20
16.16811424086913
 30
0.0
 10
33.87669003332951
 20
17.09709001539453
 30
0.0
 10
33.52746368777329
 20
17.09580714182986
 30
0.0
1001
ACAD
1000
DSTYLE
1002
{
1070
   147
1040
0.09
1070
    77
1070
     0
1002
}
  0
LINE
  5
537
330
1F
100
AcDbEntity
  8
DIMENSIONS
100
AcDbLine
 10
40.06058480225619
 20
17.54595715397722
 30
0.0
 11
46.93476398675644
 21
17.54595715397721
 31
0.0
  0
LINE
  5
539
330
1F
100
AcDbEntity
  8
DIMENSIONS
100
AcDbLine
 10
46.75476398675645
 20
17.36595715397722
 30
0.0
 11
46.75476398675645
 21
11.10015421865343
 31
0.0
  0
LINE
  5
53A
330
1F
100
AcDbEntity
  8
DIMENSIONS
100
AcDbLine
 10
46.75476398675644
 20
4.682696504140393
 30
0.0
 11
46.75476398675645
 21
11.10015421865343
 31
0.0
  0
SOLID
  5
53B
330
1F
100
AcDbEntity
  8
DIMENSIONS
100
AcDbTrace
 10
46.72476398675645
 20
17.36595715397722
 30
0.0
 11
46.78476398675645
 21
17.36595715397722
 31
0.0
 12
46.75476398675645
 22
17.54595715397721
 32
0.0
 13
46.75476398675645
 23
17.54595715397721
 33
0.0
  0
SOLID
  5
53C
330
1F
100
AcDbEntity
  8
DIMENSIONS
100
AcDbTrace
 10
46.72476398675644
 20
4.862696504140393
 30
0.0
 11
46.78476398675644
 21
4.862696504140393
 31
0.0
 12
46.75476398675644
 22
4.682696504140393
 32
0.0
 13
46.75476398675644
 23
4.682696504140393
 33
0.0
  0
MTEXT
  5
53D
330
1F
100
AcDbEntity
  8
DIMENSIONS
100
AcDbMText
 10
47.2504914211062
 20
11.22119303017269
 30
0.0
 40
0.36
 41
0.0
 71
     5
 72
     1
  1
30" [760mm]
 11
0.0000000000000001
 21
1.0
 31
0.0
 73
     1
 44
1.0
  0
DIMENSION
  5
53F
330
1F
100
AcDbEntity
  8
DIMENSIONS
100
AcDbDimension
  2
*D12
 10
26.38610960191938
 20
10.21642163195472
 30
0.0
 11
24.84610960191938
 21
7.070526495054387
 31
0.0
 70
   160
 71
     5
 42
1.19046446609412
  3
Standard
100
AcDbAlignedDimension
 13
24.70724772476317
 23
9.025957165860599
 33
0.0
 14
23.64124772476321
 24
10.21642163195472
 34
0.0
 50
90.0
100
AcDbRotatedDimension
1001
ACAD
1000
DSTYLE
1002
{
1070
   279
1070
     0
1002
}
  0
LINE
  5
598
330
1F
100
AcDbEntity
  8
DIMENSIONS
100
AcDbLine
 10
39.91658480138112
 20
17.50642155736247
 30
0.0
 11
39.91658480138112
 21
24.02807314894433
 31
0.0
  0
LEADER
  5
599
330
1F
100
AcDbEntity
  8
DIMENSIONS
100
AcDbLeader
  3
Standard
 76
     2
 10
39.91658480138111
 20
22.35503114618348
 30
0.0
 10
37.78665728228592
 20
22.35503114618348
 30
0.0
1001
ACAD
1000
DSTYLE
1002
{
1070
   147
1040
0.09
1070
    77
1070
     0
1002
}
  0
MTEXT
  5
59A
330
1F
100
AcDbEntity
  8
DIMENSIONS
100
AcDbMText
 10
32.19925714400993
 20
22.5349526653623
 30
0.0
 40
0.36
 41
7.193309393996543
 71
     1
 72
     5
  1
Finish Face of Wall
 73
     1
 44
1.0
  0
LINE
  5
59B
330
1F
100
AcDbEntity
  8
DIMENSIONS
100
AcDbLine
 10
39.91658480138112
 20
23.50028498063341
 30
0.0
 11
40.57821502040886
 21
24.01418092673554
 31
0.0
  0
LINE
  5
59D
330
1F
100
AcDbEntity
  8
DIMENSIONS
100
AcDbLine
 10
39.91658480138112
 20
23.19515069883316
 30
0.0
 11
40.57821502040886
 21
23.70904664493528
 31
0.0
  0
LINE
  5
59E
330
1F
100
AcDbEntity
  8
DIMENSIONS
100
AcDbLine
 10
39.91658480138112
 20
22.87475967220925
 30
0.0
 11
40.57821502040886
 21
23.38865561831138
 31
0.0
  0
MTEXT
  5
59F
330
1F
100
AcDbEntity
  8
DIMENSIONS
100
AcDbMText
 10
46.19093669302879
 20
5.751624242313525
 30
0.0
 40
0.36
 41
12.4144
 71
     1
 72
     5
  1
Recommended Mounting Height Off Floor
 11
0.0000000000000001
 21
1.0
 31
0.0
 73
     1
 44
1.0
  0
MTEXT
  5
5A9
330
1F
100
AcDbEntity
  8
DIMENSIONS
100
AcDbMText
 10
28.71164379243712
 20
1.491357789628837
 30
0.0
 40
0.75
 41
21.9699134393428
 71
     5
 72
     5
  1
{\fArial|b1|i0|c0|p34;B-3588 SURMTD\PTOILET TISSUE DISPENSER}
 73
     1
 44
1.0
  0
LINE
  5
5E2
330
1F
100
AcDbEntity
  8
DIMENSIONS
  6
CENTERX2
370
    15
100
AcDbLine
 10
24.2843142415212
 20
13.40175791874442
 30
0.0
 11
11.53716822717175
 21
13.40175791874442
 31
0.0
  0
DIMENSION
  5
5E3
330
1F
100
AcDbEntity
  8
DIMENSIONS
100
AcDbDimension
  2
*D13
 10
8.737029244316346
 20
13.40175791874442
 30
0.0
 11
8.737029244316342
 21
11.2138575482442
 31
0.0
 70
    32
 71
     5
 42
4.375800741000439
  3
Standard
100
AcDbAlignedDimension
 13
11.1202479105196
 23
9.025957177743983
 33
0.0
 14
11.53716822717175
 24
13.40175791874442
 34
0.0
 50
90.0
100
AcDbRotatedDimension
  0
LINE
  5
64E
330
1F
100
AcDbEntity
  8
DIMENSIONS
100
AcDbLine
 10
40.06058480225619
 20
17.54595715397722
 30
0.0
 11
50.30936179139525
 21
17.54595715397721
 31
0.0
  0
LINE
  5
650
330
1F
100
AcDbEntity
  8
DIMENSIONS
100
AcDbLine
 10
50.12936179139524
 20
17.36595715397722
 30
0.0
 11
50.12936179139524
 21
12.2121597283227
 31
0.0
  0
LINE
  5
651
330
1F
100
AcDbEntity
  8
DIMENSIONS
100
AcDbLine
 10
50.12936179139524
 20
4.662897999669402
 30
0.0
 11
50.12936179139524
 21
12.2121597283227
 31
0.0
  0
SOLID
  5
652
330
1F
100
AcDbEntity
  8
DIMENSIONS
100
AcDbTrace
 10
50.09936179139524
 20
17.36595715397722
 30
0.0
 11
50.15936179139524
 21
17.36595715397722
 31
0.0
 12
50.12936179139524
 22
17.54595715397721
 32
0.0
 13
50.12936179139524
 23
17.54595715397721
 33
0.0
  0
SOLID
  5
653
330
1F
100
AcDbEntity
  8
DIMENSIONS
100
AcDbTrace
 10
50.09936179139524
 20
4.842897999669402
 30
0.0
 11
50.15936179139524
 21
4.842897999669402
 31
0.0
 12
50.12936179139524
 22
4.662897999669402
 32
0.0
 13
50.12936179139524
 23
4.662897999669402
 33
0.0
  0
MTEXT
  5
656
330
1F
100
AcDbEntity
  8
DIMENSIONS
100
AcDbMText
 10
48.94083759472724
 20
11.50465171619246
 30
0.0
 40
0.36
 41
12.3184
 71
     2
 72
     5
  1
Recommended Mounting Height Off Floor\Pfor Accessible Design
 11
0.0000000000000001
 21
1.0
 31
0.0
 73
     1
 44
1.0
  0
MTEXT
  5
657
330
1F
100
AcDbEntity
  8
DIMENSIONS
100
AcDbMText
 10
50.62144833546273
 20
11.22119303017269
 30
0.0
 40
0.36
 41
0.0
 71
     5
 72
     1
  1
25" [635mm]
 11
0.0000000000000001
 21
1.0
 31
0.0
 73
     1
 44
1.0
  0
VIEWPORT
  5
5A5
330
1B
100
AcDbEntity
 67
     1
  8
0
100
AcDbViewport
 10
5.249999639556162
 20
3.999999883606676
 30
0.0
 40
18.9722502344644
 41
8.56115083711205
 68
     1
 69
     1
 12
5.249999639556162
 22
3.999999883606676
 13
0.0
 23
0.0
 14
0.5
 24
0.5
 15
0.5
 25
0.5
 16
0.0
 26
0.0
 36
1.0
 17
0.0
 27
0.0
 37
0.0
 42
50.0
 43
0.0
 44
0.0
 45
8.56115083711205
 50
0.0
 51
0.0
 72
  2000
 90
    32800
  1

281
     0
 71
     1
 74
     0
110
0.0
120
0.0
130
0.0
111
1.0
121
0.0
131
0.0
112
0.0
122
1.0
132
0.0
 79
     0
146
0.0
170
     0
  0
VIEWPORT
  5
5A7
330
1B
100
AcDbEntity
 67
     1
  8
Border
100
AcDbViewport
 10
5.266184736527566
 20
3.967650975070567
 30
0.0
 40
10.75770277619532
 41
8.292106488525998
 68
     2
 69
     2
 12
29.64991484685076
 22
18.88808363267978
 13
0.0
 23
0.0
 14
0.5
 24
0.5
 15
0.5
 25
0.5
 16
0.0
 26
0.0
 36
1.0
 17
0.0
 27
0.0
 37
0.0
 42
50.0
 43
0.0
 44
0.0
 45
42.18589971796911
 50
0.0
 51
0.0
 72
  2000
 90
    32864
  1

281
     0
 71
     1
 74
     0
110
0.0
120
0.0
130
0.0
111
1.0
121
0.0
131
0.0
112
0.0
122
1.0
132
0.0
 79
     0
146
0.0
170
     0
  0
ENDSEC
  0
SECTION
  2
OBJECTS
  0
DICTIONARY
  5
C
330
0
100
AcDbDictionary
281
     1
  3
ACAD_COLOR
350
42A
  3
ACAD_GROUP
350
D
  3
ACAD_LAYOUT
350
1A
  3
ACAD_MATERIAL
350
429
  3
ACAD_MLINESTYLE
350
17
  3
ACAD_PLOTSETTINGS
350
19
  3
ACAD_PLOTSTYLENAME
350
E
  3
ACAD_SCALELIST
350
47
  0
DICTIONARY
  5
42A
102
{ACAD_REACTORS
330
C
102
}
330
C
100
AcDbDictionary
281
     1
  0
DICTIONARY
  5
D
102
{ACAD_REACTORS
330
C
102
}
330
C
100
AcDbDictionary
281
     1
  0
DICTIONARY
  5
1A
102
{ACAD_REACTORS
330
C
102
}
330
C
100
AcDbDictionary
281
     1
  3
Layout1
350
1E
  3
Layout2
350
26
  3
Model
350
22
  0
DICTIONARY
  5
429
102
{ACAD_REACTORS
330
C
102
}
330
C
100
AcDbDictionary
281
     1
  0
DICTIONARY
  5
17
102
{ACAD_REACTORS
330
C
102
}
330
C
100
AcDbDictionary
281
     1
  3
Standard
350
18
  0
DICTIONARY
  5
19
102
{ACAD_REACTORS
330
C
102
}
330
C
100
AcDbDictionary
281
     1
  0
ACDBDICTIONARYWDFLT
  5
E
102
{ACAD_REACTORS
330
C
102
}
330
C
100
AcDbDictionary
281
     1
  3
Normal
350
F
100
AcDbDictionaryWithDefault
340
F
  0
DICTIONARY
  5
47
102
{ACAD_REACTORS
330
C
102
}
330
C
100
AcDbDictionary
281
     1
  3
A0
350
48
  3
A1
350
49
  3
A2
350
4A
  3
A3
350
4B
  3
A4
350
4C
  3
A5
350
4D
  3
A6
350
4E
  3
A7
350
4F
  3
A8
350
50
  3
A9
350
51
  3
B0
350
52
  3
B1
350
53
  3
B2
350
54
  3
B3
350
55
  3
B4
350
56
  3
B5
350
57
  3
B6
350
58
  3
B7
350
59
  3
B8
350
5A
  3
B9
350
5B
  3
C0
350
5C
  3
C1
350
5D
  3
C2
350
5E
  3
C3
350
5F
  3
C4
350
60
  3
C5
350
61
  3
C6
350
62
  3
C7
350
63
  3
C8
350
64
  3
C9
350
65
  3
D0
350
66
  3
D1
350
67
  3
D2
350
68
  0
LAYOUT
  5
1E
102
{ACAD_REACTORS
330
1A
102
}
330
1A
100
AcDbPlotSettings
  1

  2
none_device
  4
Letter_(8.50_x_11.00_Inches)
  6

 40
6.349999904632568
 41
6.349999904632568
 42
6.350006103515625
 43
6.350006103515625
 44
215.8999938964844
 45
279.3999938964844
 46
0.0
 47
0.0
 48
0.0
 49
0.0
140
0.0
141
0.0
142
1.0
143
1.0
 70
   688
 72
     0
 73
     1
 74
     5
  7

 75
    16
147
1.0
 76
     1
 77
     2
 78
   300
148
0.0
149
0.0
100
AcDbLayout
  1
Layout1
 70
     1
 71
     1
 10
-0.2500002402958907
 20
-0.2499999962453767
 11
10.74999951940821
 21
8.249999763458731
 12
0.0
 22
0.0
 32
0.0
 14
-0.1126666515700947
 24
-0.1784022691924321
 34
0.0
 15
10.64503612462523
 25
8.113704219333566
 35
0.0
146
0.0
 13
0.0
 23
0.0
 33
0.0
 16
1.0
 26
0.0
 36
0.0
 17
0.0
 27
1.0
 37
0.0
 76
     0
330
1B
331
5A5
  0
LAYOUT
  5
26
102
{ACAD_REACTORS
330
1A
102
}
330
1A
100
AcDbPlotSettings
  1

  2
none_device
  4

  6

 40
0.0
 41
0.0
 42
0.0
 43
0.0
 44
0.0
 45
0.0
 46
0.0
 47
0.0
 48
0.0
 49
0.0
140
0.0
141
0.0
142
1.0
143
1.0
 70
   688
 72
     0
 73
     0
 74
     5
  7

 75
    16
147
1.0
 76
     0
 77
     2
 78
   300
148
0.0
149
0.0
100
AcDbLayout
  1
Layout2
 70
     1
 71
     2
 10
0.0
 20
0.0
 11
0.0
 21
0.0
 12
0.0
 22
0.0
 32
0.0
 14
0.0
 24
0.0
 34
0.0
 15
0.0
 25
0.0
 35
0.0
146
0.0
 13
0.0
 23
0.0
 33
0.0
 16
1.0
 26
0.0
 36
0.0
 17
0.0
 27
1.0
 37
0.0
 76
     0
330
23
  0
LAYOUT
  5
22
102
{ACAD_REACTORS
330
1A
102
}
330
1A
100
AcDbPlotSettings
  1

  2
none_device
  4
Letter_(8.50_x_11.00_Inches)
  6

 40
6.349999999999999
 41
6.349999999999999
 42
6.350005079999999
 43
6.350005079999999
 44
215.9
 45
279.4
 46
0.0
 47
0.0
 48
0.0
 49
0.0
140
0.0
141
0.0
142
1.0
143
1.0
 70
  1712
 72
     0
 73
     0
 74
     0
  7

 75
     0
147
1.0
 76
     0
 77
     2
 78
   300
148
0.0
149
0.0
100
AcDbLayout
  1
Model
 70
     1
 71
     0
 10
0.0
 20
0.0
 11
34.0
 21
22.0
 12
0.0
 22
0.0
 32
0.0
 14
0.0
 24
0.0
 34
0.0
 15
34.0
 25
22.0
 35
0.0
146
0.0
 13
0.0
 23
0.0
 33
0.0
 16
1.0
 26
0.0
 36
0.0
 17
0.0
 27
1.0
 37
0.0
 76
     0
330
1F
  0
MLINESTYLE
  5
18
102
{ACAD_REACTORS
330
17
102
}
330
17
100
AcDbMlineStyle
  2
STANDARD
 70
     0
  3

 62
   256
 51
90.0
 52
90.0
 71
     2
 49
0.5
 62
   256
  6
BYLAYER
 49
-0.5
 62
   256
  6
BYLAYER
  0
ACDBPLACEHOLDER
  5
F
102
{ACAD_REACTORS
330
E
102
}
330
E
  0
ACAD_PROXY_OBJECT
  5
48
102
{ACAD_REACTORS
330
47
102
}
330
47
100
AcDbProxyObject
 90
      499
 91
      503
 95
   393239
 70
     0
 93
       41
310
903313A31580
 94
        0
  0
ACAD_PROXY_OBJECT
  5
49
102
{ACAD_REACTORS
330
47
102
}
330
47
100
AcDbProxyObject
 90
      499
 91
      503
 95
   393239
 70
     0
 93
      105
310
903313A324000000000000004013
 94
        0
  0
ACAD_PROXY_OBJECT
  5
4A
102
{ACAD_REACTORS
330
47
102
}
330
47
100
AcDbProxyObject
 90
      499
 91
      503
 95
   393239
 70
     0
 93
      105
310
903313A34400000000000010400C
 94
        0
  0
ACAD_PROXY_OBJECT
  5
4B
102
{ACAD_REACTORS
330
47
102
}
330
47
100
AcDbProxyObject
 90
      499
 91
      503
 95
   393239
 70
     0
 93
      105
310
903313A354000000000000144013
 94
        0
  0
ACAD_PROXY_OBJECT
  5
4C
102
{ACAD_REACTORS
330
47
102
}
330
47
100
AcDbProxyObject
 90
      499
 91
      503
 95
   393239
 70
     0
 93
      105
310
903313A38400000000000020400C
 94
        0
  0
ACAD_PROXY_OBJECT
  5
4D
102
{ACAD_REACTORS
330
47
102
}
330
47
100
AcDbProxyObject
 90
      499
 91
      503
 95
   393239
 70
     0
 93
      113
310
904313A31304000000000000244023
 94
        0
  0
ACAD_PROXY_OBJECT
  5
4E
102
{ACAD_REACTORS
330
47
102
}
330
47
100
AcDbProxyObject
 90
      499
 91
      503
 95
   393239
 70
     0
 93
      113
310
904313A31364000000000000304057
 94
        0
  0
ACAD_PROXY_OBJECT
  5
4F
102
{ACAD_REACTORS
330
47
102
}
330
47
100
AcDbProxyObject
 90
      499
 91
      503
 95
   393239
 70
     0
 93
      113
310
904313A32304000000000000344023
 94
        0
  0
ACAD_PROXY_OBJECT
  5
50
102
{ACAD_REACTORS
330
47
102
}
330
47
100
AcDbProxyObject
 90
      499
 91
      503
 95
   393239
 70
     0
 93
      113
310
904313A333040000000000003E4057
 94
        0
  0
ACAD_PROXY_OBJECT
  5
51
102
{ACAD_REACTORS
330
47
102
}
330
47
100
AcDbProxyObject
 90
      499
 91
      503
 95
   393239
 70
     0
 93
      113
310
904313A34304000000000000444023
 94
        0
  0
ACAD_PROXY_OBJECT
  5
52
102
{ACAD_REACTORS
330
47
102
}
330
47
100
AcDbProxyObject
 90
      499
 91
      503
 95
   393239
 70
     0
 93
      113
310
904313A35304000000000000494057
 94
        0
  0
ACAD_PROXY_OBJECT
  5
53
102
{ACAD_REACTORS
330
47
102
}
330
47
100
AcDbProxyObject
 90
      499
 91
      503
 95
   393239
 70
     0
 93
      121
310
905313A3130304000000000000594015
 94
        0
  0
ACAD_PROXY_OBJECT
  5
54
102
{ACAD_REACTORS
330
47
102
}
330
47
100
AcDbProxyObject
 90
      499
 91
      503
 95
   393239
 70
     0
 93
      105
310
903323A310000000000000010140
 94
        0
  0
ACAD_PROXY_OBJECT
  5
55
102
{ACAD_REACTORS
330
47
102
}
330
47
100
AcDbProxyObject
 90
      499
 91
      503
 95
   393239
 70
     0
 93
      105
310
903343A310000000000000410159
 94
        0
  0
ACAD_PROXY_OBJECT
  5
56
102
{ACAD_REACTORS
330
47
102
}
330
47
100
AcDbProxyObject
 90
      499
 91
      503
 95
   393239
 70
     0
 93
      105
310
903383A310000000000000810140
 94
        0
  0
ACAD_PROXY_OBJECT
  5
57
102
{ACAD_REACTORS
330
47
102
}
330
47
100
AcDbProxyObject
 90
      499
 91
      503
 95
   393239
 70
     0
 93
      113
310
90431303A310000000000000910140
 94
        0
  0
ACAD_PROXY_OBJECT
  5
58
102
{ACAD_REACTORS
330
47
102
}
330
47
100
AcDbProxyObject
 90
      499
 91
      503
 95
   393239
 70
     0
 93
      121
310
9053130303A310000000000001650100
 94
        0
  0
ACAD_PROXY_OBJECT
  5
59
102
{ACAD_REACTORS
330
47
102
}
330
47
100
AcDbProxyObject
 90
      499
 91
      503
 95
   393239
 70
     0
 93
      257
310
90E312F31323822203D2031272D3022000000000000200FC000000000000284000
 94
        0
  0
ACAD_PROXY_OBJECT
  5
5A
102
{ACAD_REACTORS
330
47
102
}
330
47
100
AcDbProxyObject
 90
      499
 91
      503
 95
   393239
 70
     0
 93
      249
310
90D312F363422203D2031272D3022000000000000240FC000000000000284000
 94
        0
  0
ACAD_PROXY_OBJECT
  5
5B
102
{ACAD_REACTORS
330
47
102
}
330
47
100
AcDbProxyObject
 90
      499
 91
      503
 95
   393239
 70
     0
 93
      249
310
90D312F333222203D2031272D3022000000000000280FC000000000000284040
 94
        0
  0
ACAD_PROXY_OBJECT
  5
5C
102
{ACAD_REACTORS
330
47
102
}
330
47
100
AcDbProxyObject
 90
      499
 91
      503
 95
   393239
 70
     0
 93
      249
310
90D312F313622203D2031272D30220000000000002C0FC000000000000284000
 94
        0
  0
ACAD_PROXY_OBJECT
  5
5D
102
{ACAD_REACTORS
330
47
102
}
330
47
100
AcDbProxyObject
 90
      499
 91
      503
 95
   393239
 70
     0
 93
      249
310
90D332F333222203D2031272D30220000000000002E0FC000000000000284040
 94
        0
  0
ACAD_PROXY_OBJECT
  5
5E
102
{ACAD_REACTORS
330
47
102
}
330
47
100
AcDbProxyObject
 90
      499
 91
      503
 95
   393239
 70
     0
 93
      241
310
90C312F3822203D2031272D3022000000000000300FC000000000000284040
 94
        0
  0
ACAD_PROXY_OBJECT
  5
5F
102
{ACAD_REACTORS
330
47
102
}
330
47
100
AcDbProxyObject
 90
      499
 91
      503
 95
   393239
 70
     0
 93
      249
310
90D332F313622203D2031272D3022000000000000320FC000000000000284040
 94
        0
  0
ACAD_PROXY_OBJECT
  5
60
102
{ACAD_REACTORS
330
47
102
}
330
47
100
AcDbProxyObject
 90
      499
 91
      503
 95
   393239
 70
     0
 93
      241
310
90C312F3422203D2031272D3022000000000000340FC000000000000284040
 94
        0
  0
ACAD_PROXY_OBJECT
  5
61
102
{ACAD_REACTORS
330
47
102
}
330
47
100
AcDbProxyObject
 90
      499
 91
      503
 95
   393239
 70
     0
 93
      241
310
90C332F3822203D2031272D3022000000000000360FC000000000000284040
 94
        0
  0
ACAD_PROXY_OBJECT
  5
62
102
{ACAD_REACTORS
330
47
102
}
330
47
100
AcDbProxyObject
 90
      499
 91
      503
 95
   393239
 70
     0
 93
      241
310
90C312F3222203D2031272D3022000000000000380FC000000000000284040
 94
        0
  0
ACAD_PROXY_OBJECT
  5
63
102
{ACAD_REACTORS
330
47
102
}
330
47
100
AcDbProxyObject
 90
      499
 91
      503
 95
   393239
 70
     0
 93
      241
310
90C332F3422203D2031272D30220000000000003A0FC000000000000284040
 94
        0
  0
ACAD_PROXY_OBJECT
  5
64
102
{ACAD_REACTORS
330
47
102
}
330
47
100
AcDbProxyObject
 90
      499
 91
      503
 95
   393239
 70
     0
 93
      161
310
90A3122203D2031272D30224000000000000284000
 94
        0
  0
ACAD_PROXY_OBJECT
  5
65
102
{ACAD_REACTORS
330
47
102
}
330
47
100
AcDbProxyObject
 90
      499
 91
      503
 95
   393239
 70
     0
 93
      257
310
90E312D312F3222203D2031272D30220000000000003E0FC000000000000284000
 94
        0
  0
ACAD_PROXY_OBJECT
  5
66
102
{ACAD_REACTORS
330
47
102
}
330
47
100
AcDbProxyObject
 90
      499
 91
      503
 95
   393239
 70
     0
 93
      225
310
90A3322203D2031272D302200000000000002100000000000000284028
 94
        0
  0
ACAD_PROXY_OBJECT
  5
67
102
{ACAD_REACTORS
330
47
102
}
330
47
100
AcDbProxyObject
 90
      499
 91
      503
 95
   393239
 70
     0
 93
      225
310
90A3622203D2031272D302200000000000006100000000000000284000
 94
        0
  0
ACAD_PROXY_OBJECT
  5
68
102
{ACAD_REACTORS
330
47
102
}
330
47
100
AcDbProxyObject
 90
      499
 91
      503
 95
   393239
 70
     0
 93
      249
310
90D31272D3022203D2031272D30220000000000000A100000000000000284000
 94
        0
  0
ENDSEC
  0
EOF
