  0
SECTION
  2
HEADER
  9
$ACADVER
  1
AC1018
  9
$ACADMAINTVER
 70
     0
  9
$DWGCODEPAGE
  3
ANSI_1252
  9
$INSBASE
 10
0.0
 20
0.0
 30
0.0
  9
$EXTMIN
 10
6.291568894615352
 20
4.046788166547961
 30
0.0
  9
$EXTMAX
 10
49.09369848847756
 20
36.73291142606824
 30
0.0
  9
$LIMMIN
 10
0.0
 20
0.0
  9
$LIMMAX
 10
34.0
 20
22.0
  9
$ORTHOMODE
 70
     1
  9
$REGENMODE
 70
     1
  9
$FILLMODE
 70
     1
  9
$QTEXTMODE
 70
     0
  9
$MIRRTEXT
 70
     1
  9
$LTSCALE
 40
1.0
  9
$ATTMODE
 70
     1
  9
$TEXTSIZE
 40
0.125
  9
$TRACEWID
 40
0.05
  9
$TEXTSTYLE
  7
Standard
  9
$CLAYER
  8
DIMENSIONS
  9
$CELTYPE
  6
ByLayer
  9
$CECOLOR
 62
   256
  9
$CELTSCALE
 40
1.0
  9
$DISPSILH
 70
     0
  9
$DIMSCALE
 40
1.0
  9
$DIMASZ
 40
0.18
  9
$DIMEXO
 40
0.18
  9
$DIMDLI
 40
0.38
  9
$DIMRND
 40
0.0
  9
$DIMDLE
 40
0.0
  9
$DIMEXE
 40
0.18
  9
$DIMTP
 40
0.0
  9
$DIMTM
 40
0.0
  9
$DIMTXT
 40
0.25
  9
$DIMCEN
 40
0.09
  9
$DIMTSZ
 40
0.0
  9
$DIMTOL
 70
     0
  9
$DIMLIM
 70
     0
  9
$DIMTIH
 70
     1
  9
$DIMTOH
 70
     1
  9
$DIMSE1
 70
     0
  9
$DIMSE2
 70
     0
  9
$DIMTAD
 70
     0
  9
$DIMZIN
 70
     4
  9
$DIMBLK
  1

  9
$DIMASO
 70
     1
  9
$DIMSHO
 70
     1
  9
$DIMPOST
  1
"\X
  9
$DIMAPOST
  1
mm
  9
$DIMALT
 70
     1
  9
$DIMALTD
 70
     0
  9
$DIMALTF
 40
25.4
  9
$DIMLFAC
 40
1.0
  9
$DIMTOFL
 70
     0
  9
$DIMTVP
 40
0.0
  9
$DIMTIX
 70
     0
  9
$DIMSOXD
 70
     0
  9
$DIMSAH
 70
     0
  9
$DIMBLK1
  1

  9
$DIMBLK2
  1

  9
$DIMSTYLE
  2
Standard
  9
$DIMCLRD
 70
     0
  9
$DIMCLRE
 70
     0
  9
$DIMCLRT
 70
     0
  9
$DIMTFAC
 40
1.0
  9
$DIMGAP
 40
0.09
  9
$DIMJUST
 70
     0
  9
$DIMSD1
 70
     0
  9
$DIMSD2
 70
     0
  9
$DIMTOLJ
 70
     1
  9
$DIMTZIN
 70
     0
  9
$DIMALTZ
 70
     4
  9
$DIMALTTZ
 70
     0
  9
$DIMUPT
 70
     0
  9
$DIMDEC
 70
     4
  9
$DIMTDEC
 70
     4
  9
$DIMALTU
 70
     2
  9
$DIMALTTD
 70
     0
  9
$DIMTXSTY
  7
Standard
  9
$DIMAUNIT
 70
     0
  9
$DIMADEC
 70
     0
  9
$DIMALTRND
 40
5.0
  9
$DIMAZIN
 70
     1
  9
$DIMDSEP
 70
    46
  9
$DIMATFIT
 70
     0
  9
$DIMFRAC
 70
     2
  9
$DIMLDRBLK
  1

  9
$DIMLUNIT
 70
     5
  9
$DIMLWD
 70
    -2
  9
$DIMLWE
 70
    -2
  9
$DIMTMOVE
 70
     0
  9
$LUNITS
 70
     2
  9
$LUPREC
 70
     2
  9
$SKETCHINC
 40
0.1
  9
$FILLETRAD
 40
0.5
  9
$AUNITS
 70
     0
  9
$AUPREC
 70
     0
  9
$MENU
  1
.
  9
$ELEVATION
 40
0.0
  9
$PELEVATION
 40
0.0
  9
$THICKNESS
 40
0.0
  9
$LIMCHECK
 70
     0
  9
$CHAMFERA
 40
0.0
  9
$CHAMFERB
 40
0.0
  9
$CHAMFERC
 40
0.0
  9
$CHAMFERD
 40
0.0
  9
$SKPOLY
 70
     0
  9
$TDCREATE
 40
2457611.669413438
  9
$TDUCREATE
 40
2457611.961080104
  9
$TDUPDATE
 40
2457618.423675335
  9
$TDUUPDATE
 40
2457618.715342003
  9
$TDINDWG
 40
0.2491330671
  9
$TDUSRTIMER
 40
0.2491330671
  9
$USRTIMER
 70
     1
  9
$ANGBASE
 50
0.0
  9
$ANGDIR
 70
     0
  9
$PDMODE
 70
     0
  9
$PDSIZE
 40
-1.0
  9
$PLINEWID
 40
0.0
  9
$SPLFRAME
 70
     0
  9
$SPLINETYPE
 70
     6
  9
$SPLINESEGS
 70
     8
  9
$HANDSEED
  5
603
  9
$SURFTAB1
 70
     6
  9
$SURFTAB2
 70
     6
  9
$SURFTYPE
 70
     6
  9
$SURFU
 70
     6
  9
$SURFV
 70
     6
  9
$UCSBASE
  2

  9
$UCSNAME
  2

  9
$UCSORG
 10
0.0
 20
0.0
 30
0.0
  9
$UCSXDIR
 10
1.0
 20
0.0
 30
0.0
  9
$UCSYDIR
 10
0.0
 20
1.0
 30
0.0
  9
$UCSORTHOREF
  2

  9
$UCSORTHOVIEW
 70
     0
  9
$UCSORGTOP
 10
0.0
 20
0.0
 30
0.0
  9
$UCSORGBOTTOM
 10
0.0
 20
0.0
 30
0.0
  9
$UCSORGLEFT
 10
0.0
 20
0.0
 30
0.0
  9
$UCSORGRIGHT
 10
0.0
 20
0.0
 30
0.0
  9
$UCSORGFRONT
 10
0.0
 20
0.0
 30
0.0
  9
$UCSORGBACK
 10
0.0
 20
0.0
 30
0.0
  9
$PUCSBASE
  2

  9
$PUCSNAME
  2

  9
$PUCSORG
 10
0.0
 20
0.0
 30
0.0
  9
$PUCSXDIR
 10
1.0
 20
0.0
 30
0.0
  9
$PUCSYDIR
 10
0.0
 20
1.0
 30
0.0
  9
$PUCSORTHOREF
  2

  9
$PUCSORTHOVIEW
 70
     0
  9
$PUCSORGTOP
 10
0.0
 20
0.0
 30
0.0
  9
$PUCSORGBOTTOM
 10
0.0
 20
0.0
 30
0.0
  9
$PUCSORGLEFT
 10
0.0
 20
0.0
 30
0.0
  9
$PUCSORGRIGHT
 10
0.0
 20
0.0
 30
0.0
  9
$PUCSORGFRONT
 10
0.0
 20
0.0
 30
0.0
  9
$PUCSORGBACK
 10
0.0
 20
0.0
 30
0.0
  9
$USERI1
 70
     0
  9
$USERI2
 70
     0
  9
$USERI3
 70
     0
  9
$USERI4
 70
     0
  9
$USERI5
 70
     0
  9
$USERR1
 40
0.0
  9
$USERR2
 40
0.0
  9
$USERR3
 40
0.0
  9
$USERR4
 40
0.0
  9
$USERR5
 40
0.0
  9
$WORLDVIEW
 70
     1
  9
$SHADEDGE
 70
     3
  9
$SHADEDIF
 70
    70
  9
$TILEMODE
 70
     1
  9
$MAXACTVP
 70
    64
  9
$PINSBASE
 10
0.0
 20
0.0
 30
0.0
  9
$PLIMCHECK
 70
     0
  9
$PEXTMIN
 10
-0.0741419509033143
 20
-0.0539245357822509
 30
-0.0000000000112498
  9
$PEXTMAX
 10
10.78134182057858
 20
8.292900463983933
 30
0.0000000000002956
  9
$PLIMMIN
 10
-0.1249995194082185
 20
-0.1249999981226883
  9
$PLIMMAX
 10
10.87500024029589
 20
8.375000362321149
  9
$UNITMODE
 70
     0
  9
$VISRETAIN
 70
     1
  9
$PLINEGEN
 70
     0
  9
$PSLTSCALE
 70
     1
  9
$TREEDEPTH
 70
  3020
  9
$CMLSTYLE
  2
Standard
  9
$CMLJUST
 70
     0
  9
$CMLSCALE
 40
1.0
  9
$PROXYGRAPHICS
 70
     1
  9
$MEASUREMENT
 70
     0
  9
$CELWEIGHT
370
    -1
  9
$ENDCAPS
280
     0
  9
$JOINSTYLE
280
     0
  9
$LWDISPLAY
290
     1
  9
$INSUNITS
 70
     1
  9
$HYPERLINKBASE
  1

  9
$STYLESHEET
  1
monochrome.ctb
  9
$XEDIT
290
     1
  9
$CEPSNTYPE
380
     0
  9
$PSTYLEMODE
290
     1
  9
$FINGERPRINTGUID
  2
{95F9E7C9-B176-4360-92F1-377CD3E4A59C}
  9
$VERSIONGUID
  2
{83CA8A60-EA1D-4DD5-BDCE-2C2629FD7473}
  9
$EXTNAMES
290
     1
  9
$PSVPSCALE
 40
0.0
  9
$OLESTARTUP
290
     0
  9
$SORTENTS
280
   127
  9
$INDEXCTL
280
     0
  9
$HIDETEXT
280
     0
  9
$XCLIPFRAME
290
     0
  9
$HALOGAP
280
     0
  9
$OBSCOLOR
 70
   257
  9
$OBSLTYPE
280
     0
  9
$INTERSECTIONDISPLAY
280
     0
  9
$INTERSECTIONCOLOR
 70
   257
  9
$DIMASSOC
280
     1
  9
$PROJECTNAME
  1

  0
ENDSEC
  0
SECTION
  2
CLASSES
  0
CLASS
  1
ACDBDICTIONARYWDFLT
  2
AcDbDictionaryWithDefault
  3
ObjectDBX Classes
 90
        0
 91
        1
280
     0
281
     0
  0
CLASS
  1
VISUALSTYLE
  2
AcDbVisualStyle
  3
ObjectDBX Classes
 90
     4095
 91
        0
280
     0
281
     0
  0
CLASS
  1
MATERIAL
  2
AcDbMaterial
  3
ObjectDBX Classes
 90
        0
 91
        0
280
     0
281
     0
  0
CLASS
  1
SCALE
  2
AcDbScale
  3
ObjectDBX Classes
 90
     1153
 91
       34
280
     0
281
     0
  0
CLASS
  1
SUN
  2
AcDbSun
  3
SCENEOE
 90
     1153
 91
        0
280
     0
281
     0
  0
CLASS
  1
ACDBPLACEHOLDER
  2
AcDbPlaceHolder
  3
ObjectDBX Classes
 90
        0
 91
        1
280
     0
281
     0
  0
CLASS
  1
LAYOUT
  2
AcDbLayout
  3
ObjectDBX Classes
 90
        0
 91
        3
280
     0
281
     0
  0
ENDSEC
  0
SECTION
  2
TABLES
  0
TABLE
  2
VPORT
  5
8
330
0
100
AcDbSymbolTable
 70
     5
  0
VPORT
  5
602
330
8
100
AcDbSymbolTableRecord
100
AcDbViewportTableRecord
  2
*Active
 70
     0
 10
0.0
 20
0.0
 11
1.0
 21
1.0
 12
27.69266761876493
 22
20.39048218456956
 13
0.0
 23
0.0
 14
0.5
 24
0.5
 15
0.5
 25
0.5
 16
0.0
 26
0.0
 36
1.0
 17
0.0
 27
0.0
 37
0.0
 40
32.92451802022803
 41
2.216086434573829
 42
50.0
 43
0.0
 44
0.0
 50
0.0
 51
0.0
 71
     0
 72
  2000
 73
     1
 74
     3
 75
     0
 76
     0
 77
     0
 78
     0
281
     0
 65
     1
110
0.0
120
0.0
130
0.0
111
1.0
121
0.0
131
0.0
112
0.0
122
1.0
132
0.0
 79
     0
146
0.0
  0
ENDTAB
  0
TABLE
  2
LTYPE
  5
5
330
0
100
AcDbSymbolTable
 70
     6
  0
LTYPE
  5
14
330
5
100
AcDbSymbolTableRecord
100
AcDbLinetypeTableRecord
  2
ByBlock
 70
     0
  3

 72
    65
 73
     0
 40
0.0
  0
LTYPE
  5
15
330
5
100
AcDbSymbolTableRecord
100
AcDbLinetypeTableRecord
  2
ByLayer
 70
     0
  3

 72
    65
 73
     0
 40
0.0
  0
LTYPE
  5
16
330
5
100
AcDbSymbolTableRecord
100
AcDbLinetypeTableRecord
  2
Continuous
 70
     0
  3
Solid line
 72
    65
 73
     0
 40
0.0
  0
LTYPE
  5
6A
330
5
100
AcDbSymbolTableRecord
100
AcDbLinetypeTableRecord
  2
HIDDEN
 70
     0
  3
Hidden __ __ __ __ __ __ __ __ __ __ __ __ __ __
 72
    65
 73
     2
 40
0.075
 49
0.05
 74
     0
 49
-0.025
 74
     0
  0
LTYPE
  5
6B
330
5
100
AcDbSymbolTableRecord
100
AcDbLinetypeTableRecord
  2
PHANTOM
 70
     0
  3
Phantom ______  __  __  ______  __  __  ______
 72
    65
 73
     6
 40
0.5
 49
0.25
 74
     0
 49
-0.05
 74
     0
 49
0.05
 74
     0
 49
-0.05
 74
     0
 49
0.05
 74
     0
 49
-0.05
 74
     0
  0
LTYPE
  5
6C
330
5
100
AcDbSymbolTableRecord
100
AcDbLinetypeTableRecord
  2
CENTER
 70
     0
  3
Center ____ _ ____ _ ____ _ ____ _ ____ _ ____
 72
    65
 73
     4
 40
0.4
 49
0.25
 74
     0
 49
-0.05
 74
     0
 49
0.05
 74
     0
 49
-0.05
 74
     0
  0
LTYPE
  5
6D
330
5
100
AcDbSymbolTableRecord
100
AcDbLinetypeTableRecord
  2
CENTERX2
 70
     0
  3
Center (2x) ________  __  ________  __  _____
 72
    65
 73
     4
 40
0.8
 49
0.5
 74
     0
 49
-0.1
 74
     0
 49
0.1
 74
     0
 49
-0.1
 74
     0
  0
LTYPE
  5
6E
330
5
100
AcDbSymbolTableRecord
100
AcDbLinetypeTableRecord
  2
DOT2
 70
     0
  3
Dot (.5x) ........................................
 72
    65
 73
     2
 40
0.025
 49
0.0
 74
     0
 49
-0.025
 74
     0
  0
ENDTAB
  0
TABLE
  2
LAYER
  5
2
330
0
100
AcDbSymbolTable
 70
     8
  0
LAYER
  5
10
330
2
100
AcDbSymbolTableRecord
100
AcDbLayerTableRecord
  2
0
 70
     0
 62
     7
  6
Continuous
370
    -3
390
F
  0
LAYER
  5
6F
330
2
100
AcDbSymbolTableRecord
100
AcDbLayerTableRecord
  2
FORMAT
 70
     0
 62
     8
  6
Continuous
370
    30
390
F
  0
LAYER
  5
70
330
2
100
AcDbSymbolTableRecord
100
AcDbLayerTableRecord
  2
TITLE_BLOCK_TEXT
 70
     0
 62
     7
  6
Continuous
370
    30
390
F
  0
LAYER
  5
71
330
2
100
AcDbSymbolTableRecord
100
AcDbLayerTableRecord
  2
DIMENSIONS
 70
     0
 62
     1
  6
Continuous
370
    -3
390
F
  0
LAYER
  5
72
330
2
100
AcDbSymbolTableRecord
100
AcDbLayerTableRecord
  2
SLD-0
 70
     0
 62
   179
  6
Continuous
370
    -3
390
F
  0
LAYER
  5
2C0
330
2
100
AcDbSymbolTableRecord
100
AcDbLayerTableRecord
  2
Object
 70
     0
 62
     4
  6
Continuous
370
    -3
390
F
  0
LAYER
  5
2C1
330
2
100
AcDbSymbolTableRecord
100
AcDbLayerTableRecord
  2
Border
 70
     0
 62
    -2
  6
Continuous
370
    -3
390
F
  0
LAYER
  5
2C2
330
2
100
AcDbSymbolTableRecord
100
AcDbLayerTableRecord
  2
Defpoints
 70
     0
 62
     7
  6
Continuous
290
     0
370
    -3
390
F
  0
ENDTAB
  0
TABLE
  2
STYLE
  5
3
330
0
100
AcDbSymbolTable
 70
     7
  0
STYLE
  5
11
330
3
100
AcDbSymbolTableRecord
100
AcDbTextStyleTableRecord
  2
Standard
 70
     0
 40
0.0
 41
1.0
 50
0.0
 71
     0
 42
0.125
  3
romans.shx
  4

  0
STYLE
  5
99
330
3
100
AcDbSymbolTableRecord
100
AcDbTextStyleTableRecord
  2
SLDTEXTSTYLE0
 70
     0
 40
0.0
 41
0.7
 50
0.0
 71
     0
 42
0.125
  3
TXT
  4

  0
STYLE
  5
9B
330
3
100
AcDbSymbolTableRecord
100
AcDbTextStyleTableRecord
  2
SLDTEXTSTYLE1
 70
     0
 40
0.0
 41
0.605
 50
0.0
 71
     0
 42
0.125
  3
TXT
  4

  0
STYLE
  5
A1
330
3
100
AcDbSymbolTableRecord
100
AcDbTextStyleTableRecord
  2
SLDTEXTSTYLE2
 70
     0
 40
0.0
 41
0.8764128766729262
 50
0.0
 71
     0
 42
0.125
  3
TXT
  4

  0
STYLE
  5
A3
330
3
100
AcDbSymbolTableRecord
100
AcDbTextStyleTableRecord
  2
SLDTEXTSTYLE3
 70
     0
 40
0.0
 41
0.6163697320172487
 50
0.0
 71
     0
 42
0.125
  3
TXT
  4

  0
STYLE
  5
C2
330
3
100
AcDbSymbolTableRecord
100
AcDbTextStyleTableRecord
  2
SLDTEXTSTYLE4
 70
     0
 40
0.0
 41
0.565625
 50
0.0
 71
     0
 42
0.125
  3
TXT
  4

  0
STYLE
  5
C5
330
3
100
AcDbSymbolTableRecord
100
AcDbTextStyleTableRecord
  2
SLDTEXTSTYLE5
 70
     0
 40
0.0
 41
0.5735
 50
0.0
 71
     0
 42
0.125
  3
TXT
  4

  0
ENDTAB
  0
TABLE
  2
VIEW
  5
6
330
0
100
AcDbSymbolTable
 70
     0
  0
ENDTAB
  0
TABLE
  2
UCS
  5
7
330
0
100
AcDbSymbolTable
 70
     0
  0
ENDTAB
  0
TABLE
  2
APPID
  5
9
330
0
100
AcDbSymbolTable
 70
     1
  0
APPID
  5
12
330
9
100
AcDbSymbolTableRecord
100
AcDbRegAppTableRecord
  2
ACAD
 70
     0
  0
ENDTAB
  0
TABLE
  2
DIMSTYLE
  5
A
330
0
100
AcDbSymbolTable
 70
     1
100
AcDbDimStyleTable
 71
     1
340
27
  0
DIMSTYLE
105
27
102
{ACAD_REACTORS
330
2E3
330
2FC
330
30B
330
338
330
351
330
36A
330
37A
330
3BC
330
420
330
42F
330
469
330
44D
330
44F
102
}
330
A
100
AcDbSymbolTableRecord
100
AcDbDimStyleTableRecord
  2
Standard
 70
     0
  3
"\X
  4
mm
 42
0.18
 78
     4
 79
     1
140
0.25
148
5.0
170
     1
171
     0
274
     0
276
     2
277
     5
285
     4
289
     0
340
11
  0
ENDTAB
  0
TABLE
  2
BLOCK_RECORD
  5
1
330
0
100
AcDbSymbolTable
 70
    17
  0
BLOCK_RECORD
  5
1F
330
1
100
AcDbSymbolTableRecord
100
AcDbBlockTableRecord
  2
*Model_Space
340
22
  0
BLOCK_RECORD
  5
1B
330
1
100
AcDbSymbolTableRecord
100
AcDbBlockTableRecord
  2
*Paper_Space
340
1E
  0
BLOCK_RECORD
  5
23
330
1
100
AcDbSymbolTableRecord
100
AcDbBlockTableRecord
  2
*Paper_Space0
340
26
  0
BLOCK_RECORD
  5
73
330
1
100
AcDbSymbolTableRecord
100
AcDbBlockTableRecord
  2
D
340
0
  0
BLOCK_RECORD
  5
A5
330
1
100
AcDbSymbolTableRecord
100
AcDbBlockTableRecord
  2
SW_NOTE_0
340
0
102
{BLKREFS
331
AD
102
}
  0
BLOCK_RECORD
  5
AE
330
1
100
AcDbSymbolTableRecord
100
AcDbBlockTableRecord
  2
SW_NOTE_1
340
0
102
{BLKREFS
331
B5
102
}
  0
BLOCK_RECORD
  5
2B1
330
1
100
AcDbSymbolTableRecord
100
AcDbBlockTableRecord
  2
_D
340
0
  0
BLOCK_RECORD
  5
2E4
330
1
100
AcDbSymbolTableRecord
100
AcDbBlockTableRecord
  2
*D5
340
0
  0
BLOCK_RECORD
  5
2FD
330
1
100
AcDbSymbolTableRecord
100
AcDbBlockTableRecord
  2
*D6
340
0
  0
BLOCK_RECORD
  5
30C
330
1
100
AcDbSymbolTableRecord
100
AcDbBlockTableRecord
  2
*D7
340
0
  0
BLOCK_RECORD
  5
339
330
1
100
AcDbSymbolTableRecord
100
AcDbBlockTableRecord
  2
*D8
340
0
  0
BLOCK_RECORD
  5
352
330
1
100
AcDbSymbolTableRecord
100
AcDbBlockTableRecord
  2
*D9
340
0
  0
BLOCK_RECORD
  5
36B
330
1
100
AcDbSymbolTableRecord
100
AcDbBlockTableRecord
  2
*D10
340
0
  0
BLOCK_RECORD
  5
37B
330
1
100
AcDbSymbolTableRecord
100
AcDbBlockTableRecord
  2
*D11
340
0
  0
BLOCK_RECORD
  5
3BD
330
1
100
AcDbSymbolTableRecord
100
AcDbBlockTableRecord
  2
*D12
340
0
  0
BLOCK_RECORD
  5
421
330
1
100
AcDbSymbolTableRecord
100
AcDbBlockTableRecord
  2
*D13
340
0
  0
BLOCK_RECORD
  5
430
330
1
100
AcDbSymbolTableRecord
100
AcDbBlockTableRecord
  2
*D14
340
0
  0
BLOCK_RECORD
  5
46A
330
1
100
AcDbSymbolTableRecord
100
AcDbBlockTableRecord
  2
*D15
340
0
  0
ENDTAB
  0
ENDSEC
  0
SECTION
  2
BLOCKS
  0
BLOCK
  5
20
330
1F
100
AcDbEntity
  8
0
100
AcDbBlockBegin
  2
*Model_Space
 70
     0
 10
0.0
 20
0.0
 30
0.0
  3
*Model_Space
  1

  0
ENDBLK
  5
21
330
1F
100
AcDbEntity
  8
0
100
AcDbBlockEnd
  0
BLOCK
  5
1C
330
1B
100
AcDbEntity
 67
     1
  8
0
100
AcDbBlockBegin
  2
*Paper_Space
 70
     0
 10
0.0
 20
0.0
 30
0.0
  3
*Paper_Space
  1

  0
ENDBLK
  5
1D
330
1B
100
AcDbEntity
 67
     1
  8
0
100
AcDbBlockEnd
  0
BLOCK
  5
24
330
23
100
AcDbEntity
  8
0
100
AcDbBlockBegin
  2
*Paper_Space0
 70
     0
 10
0.0
 20
0.0
 30
0.0
  3
*Paper_Space0
  1

  0
ENDBLK
  5
25
330
23
100
AcDbEntity
  8
0
100
AcDbBlockEnd
  0
BLOCK
  5
74
330
73
100
AcDbEntity
  8
0
100
AcDbBlockBegin
  2
D
 70
     0
 10
0.0
 20
0.0
 30
0.0
  3
D
  1

  0
CIRCLE
  5
76
330
73
100
AcDbEntity
  8
FORMAT
100
AcDbCircle
 10
31.60339110637787
 20
0.6244098795826005
 30
0.0
 40
0.0174532499999967
  0
CIRCLE
  5
77
330
73
100
AcDbEntity
  8
FORMAT
100
AcDbCircle
 10
32.43436632794418
 20
0.6273875012279925
 30
0.0
 40
0.0174532499999964
  0
CIRCLE
  5
78
330
73
100
AcDbEntity
  8
FORMAT
100
AcDbCircle
 10
30.77339110637787
 20
0.6244098795826005
 30
0.0
 40
0.0174532472800571
  0
CIRCLE
  5
79
330
73
100
AcDbEntity
  8
FORMAT
100
AcDbCircle
 10
30.77339110637787
 20
0.6244098795826005
 30
0.0
 40
0.0174532500000001
  0
LINE
  5
7A
330
73
100
AcDbEntity
  8
FORMAT
  6
Continuous
370
    30
100
AcDbLine
 10
33.075
 20
21.10500000000001
 30
0.0
 11
0.2000000000000022
 21
21.105
 31
0.0
  0
LINE
  5
7B
330
73
100
AcDbEntity
  8
FORMAT
  6
Continuous
370
    30
100
AcDbLine
 10
0.2000000000000022
 20
21.105
 30
0.0
 11
0.2000000000000022
 21
0.0000000000000044
 31
0.0
  0
LINE
  5
7C
330
73
100
AcDbEntity
  8
FORMAT
  6
Continuous
370
    30
100
AcDbLine
 10
28.275
 20
20.23000000000005
 30
0.0
 11
28.275
 21
20.48000000000005
 31
0.0
  0
LINE
  5
7D
330
73
100
AcDbEntity
  8
FORMAT
  6
Continuous
370
    30
100
AcDbLine
 10
28.9
 20
20.23000000000005
 30
0.0
 11
28.9
 21
20.48000000000006
 31
0.0
  0
LINE
  5
7E
330
73
100
AcDbEntity
  8
FORMAT
  6
Continuous
370
    30
100
AcDbLine
 10
33.075
 20
0.0000000000000044
 30
0.0
 11
33.075
 21
21.10500000000001
 31
0.0
  0
LINE
  5
7F
330
73
100
AcDbEntity
  8
FORMAT
  6
Continuous
370
    30
100
AcDbLine
 10
32.02499999999999
 20
20.23000000000005
 30
0.0
 11
32.02499999999999
 21
20.48000000000005
 31
0.0
  0
LINE
  5
80
330
73
100
AcDbEntity
  8
FORMAT
  6
Continuous
370
    30
100
AcDbLine
 10
32.4625
 20
20.23000000000005
 30
0.0
 11
32.4625
 21
20.48000000000005
 31
0.0
  0
LINE
  5
81
330
73
100
AcDbEntity
  8
FORMAT
  6
Continuous
370
    40
100
AcDbLine
 10
27.825
 20
20.23000000000005
 30
0.0
 11
33.075
 21
20.23000000000005
 31
0.0
  0
LINE
  5
82
330
73
100
AcDbEntity
  8
FORMAT
  6
Continuous
370
    40
100
AcDbLine
 10
27.825
 20
20.23000000000005
 30
0.0
 11
27.825
 21
21.10500000000001
 31
0.0
  0
LINE
  5
83
330
73
100
AcDbEntity
  8
FORMAT
  6
Continuous
370
    30
100
AcDbLine
 10
33.075
 20
0.0000000000000044
 30
0.0
 11
0.2000000000000022
 21
0.0000000000000044
 31
0.0
  0
LINE
  5
84
330
73
100
AcDbEntity
  8
FORMAT
  6
Continuous
370
    30
100
AcDbLine
 10
25.8875
 20
0.0000000000000076
 30
0.0
 11
25.8875
 21
1.500000000000005
 31
0.0
  0
LINE
  5
85
330
73
100
AcDbEntity
  8
FORMAT
  6
Continuous
370
    30
100
AcDbLine
 10
30.075
 20
0.5000000000000072
 30
0.0
 11
33.075
 21
0.5000000000000072
 31
0.0
  0
LINE
  5
86
330
73
100
AcDbEntity
  8
FORMAT
  6
Continuous
370
    30
100
AcDbLine
 10
22.7625
 20
1.125000000000005
 30
0.0
 11
30.075
 21
1.125000000000005
 31
0.0
  0
LINE
  5
87
330
73
100
AcDbEntity
  8
FORMAT
  6
Continuous
370
    30
100
AcDbLine
 10
22.7625
 20
0.0000000000000076
 30
0.0
 11
22.7625
 21
1.500000000000005
 31
0.0
  0
LINE
  5
88
330
73
100
AcDbEntity
  8
FORMAT
  6
Continuous
370
    30
100
AcDbLine
 10
28.725
 20
0.9062000000000079
 30
0.0
 11
28.725
 21
1.500000000000005
 31
0.0
  0
LINE
  5
89
330
73
100
AcDbEntity
  8
FORMAT
  6
Continuous
370
    15
100
AcDbLine
 10
25.10385570751344
 20
0.0529622366790725
 30
0.0
 11
25.10385570751344
 21
0.887531843849992
 31
0.0
  0
LINE
  5
8A
330
73
100
AcDbEntity
  8
FORMAT
  6
Continuous
370
    30
100
AcDbLine
 10
22.7625
 20
1.500000000000005
 30
0.0
 11
33.075
 21
1.500000000000005
 31
0.0
  0
LINE
  5
8B
330
73
100
AcDbEntity
  8
FORMAT
  6
Continuous
370
    30
100
AcDbLine
 10
25.8875
 20
0.9062000000000079
 30
0.0
 11
30.075
 21
0.9062000000000079
 31
0.0
  0
LINE
  5
8C
330
73
100
AcDbEntity
  8
FORMAT
  6
Continuous
370
    30
100
AcDbLine
 10
27.325
 20
0.9062000000000079
 30
0.0
 11
27.325
 21
1.500000000000005
 31
0.0
  0
LINE
  5
8D
330
73
100
AcDbEntity
  8
FORMAT
100
AcDbLine
 10
24.325
 20
1.125000000000005
 30
0.0
 11
24.325
 21
1.500000000000005
 31
0.0
  0
LINE
  5
8E
330
73
100
AcDbEntity
  8
FORMAT
  6
Continuous
370
    30
100
AcDbLine
 10
27.325
 20
1.312500000000005
 30
0.0
 11
30.075
 21
1.312500000000005
 31
0.0
  0
LINE
  5
8F
330
73
100
AcDbEntity
  8
FORMAT
  6
Continuous
370
    30
100
AcDbLine
 10
30.075
 20
0.0000000000000055
 30
0.0
 11
30.075
 21
1.500000000000003
 31
0.0
  0
LINE
  5
90
330
73
100
AcDbEntity
  8
FORMAT
  6
Continuous
370
    30
100
AcDbLine
 10
33.075
 20
7.550000000000004
 30
0.0
 11
32.575
 21
7.550000000000004
 31
0.0
  0
LINE
  5
91
330
73
100
AcDbEntity
  8
FORMAT
  6
Continuous
370
    30
100
AcDbLine
 10
33.075
 20
9.550000000000009
 30
0.0
 11
32.575
 21
9.550000000000009
 31
0.0
  0
LINE
  5
92
330
73
100
AcDbEntity
  8
FORMAT
  6
Continuous
370
    30
100
AcDbLine
 10
33.075
 20
10.0
 30
0.0
 11
32.625
 21
10.0
 31
0.0
  0
LINE
  5
93
330
73
100
AcDbEntity
  8
FORMAT
  6
Continuous
100
AcDbLine
 10
32.575
 20
7.550000000000004
 30
0.0
 11
32.575
 21
9.550000000000009
 31
0.0
  0
LINE
  5
94
330
73
100
AcDbEntity
  8
FORMAT
  6
Continuous
100
AcDbLine
 10
32.625
 20
9.550000000000009
 30
0.0
 11
32.625
 21
10.0
 31
0.0
  0
LINE
  5
95
330
73
100
AcDbEntity
  8
FORMAT
  6
Continuous
370
    40
100
AcDbLine
 10
27.825
 20
20.48000000000005
 30
0.0
 11
33.075
 21
20.48000000000005
 31
0.0
  0
HATCH
  5
96
330
73
100
AcDbEntity
  8
FORMAT
  6
Continuous
100
AcDbHatch
 10
0.0
 20
0.0
 30
0.0
210
0.0
220
0.0
230
1.0
  2
SOLID
 70
     1
 71
     0
 91
        1
 92
        0
 93
        1
 72
     2
 10
30.77339110637787
 20
0.6244098795826005
 40
0.0174532472800566
 50
0.0
 51
360.0
 73
     1
 97
        0
 75
     0
 76
     1
 98
        1
 10
0.0
 20
0.0
450
        0
451
        0
460
0.0
461
0.0
452
        0
462
0.0
453
        0
470

  0
HATCH
  5
97
330
73
100
AcDbEntity
  8
FORMAT
  6
Continuous
100
AcDbHatch
 10
0.0
 20
0.0
 30
0.0
210
0.0
220
0.0
230
1.0
  2
SOLID
 70
     1
 71
     0
 91
        1
 92
        0
 93
        1
 72
     2
 10
31.60339110637787
 20
0.6244098795826005
 40
0.0174532499999962
 50
0.0
 51
360.0
 73
     1
 97
        0
 75
     0
 76
     1
 98
        1
 10
0.0
 20
0.0
450
        0
451
        0
460
0.0
461
0.0
452
        0
462
0.0
453
        0
470

  0
HATCH
  5
98
330
73
100
AcDbEntity
  8
FORMAT
  6
Continuous
100
AcDbHatch
 10
0.0
 20
0.0
 30
0.0
210
0.0
220
0.0
230
1.0
  2
SOLID
 70
     1
 71
     0
 91
        1
 92
        0
 93
        1
 72
     2
 10
32.43436632794418
 20
0.6273875012279925
 40
0.0174532499999959
 50
0.0
 51
360.0
 73
     1
 97
        0
 75
     0
 76
     1
 98
        1
 10
0.0
 20
0.0
450
        0
451
        0
460
0.0
461
0.0
452
        0
462
0.0
453
        0
470

  0
MTEXT
  5
9A
330
73
100
AcDbEntity
  8
FORMAT
100
AcDbMText
 10
30.44161720785566
 20
20.36319306818741
 30
0.0
 40
0.07
 41
0.0
 71
     2
 72
     1
  1
DESCRIPTION OF CHANGE
  7
SLDTEXTSTYLE0
 73
     1
 44
1.0
  0
MTEXT
  5
9C
330
73
100
AcDbEntity
  8
FORMAT
100
AcDbMText
 10
0.3406435258590261
 20
0.3651649014509443
 30
0.0
 40
0.17
 41
0.0
 71
     1
 72
     1
  1
NOTE:
  7
SLDTEXTSTYLE1
 73
     1
 44
1.0
  0
MTEXT
  5
9D
330
73
100
AcDbEntity
  8
FORMAT
100
AcDbMText
 10
28.07175603500805
 20
20.35913829976436
 30
0.0
 40
0.07
 41
0.0
 71
     2
 72
     1
  1
REV.
  7
SLDTEXTSTYLE0
 73
     1
 44
1.0
  0
MTEXT
  5
9E
330
73
100
AcDbEntity
  8
FORMAT
100
AcDbMText
 10
28.55857705076207
 20
20.3564104212415
 30
0.0
 40
0.07
 41
0.0
 71
     2
 72
     1
  1
DATE
  7
SLDTEXTSTYLE0
 73
     1
 44
1.0
  0
MTEXT
  5
9F
330
73
100
AcDbEntity
  8
FORMAT
100
AcDbMText
 10
32.25229754695327
 20
20.36759061973484
 30
0.0
 40
0.07
 41
0.0
 71
     2
 72
     1
  1
BY
  7
SLDTEXTSTYLE0
 73
     1
 44
1.0
  0
MTEXT
  5
A0
330
73
100
AcDbEntity
  8
FORMAT
100
AcDbMText
 10
32.74202674224478
 20
20.36759061973485
 30
0.0
 40
0.07
 41
0.0
 71
     2
 72
     1
  1
CHECK
  7
SLDTEXTSTYLE0
 73
     1
 44
1.0
  0
MTEXT
  5
A2
330
73
100
AcDbEntity
  8
FORMAT
100
AcDbMText
 10
31.11933798915107
 20
20.78173440267642
 30
0.0
 40
0.07
 41
0.0
 71
     1
 72
     1
  1
DO NOT DESTROY
  7
SLDTEXTSTYLE2
 73
     1
 44
1.0
  0
MTEXT
  5
A4
330
73
100
AcDbEntity
  8
FORMAT
100
AcDbMText
 10
27.97225845239749
 20
21.00209464394158
 30
0.0
 40
0.12
 41
0.0
 71
     1
 72
     1
  1
PROPERTY OF BOBRICK WASHROOM EQUIPMENT, INC.
  7
SLDTEXTSTYLE3
 73
     1
 44
1.0
  0
INSERT
  5
AD
330
73
100
AcDbEntity
  8
FORMAT
 62
     8
100
AcDbBlockReference
  2
SW_NOTE_0
 10
27.97281922236897
 20
20.98506755538077
 30
0.0
  0
INSERT
  5
B5
330
73
100
AcDbEntity
  8
FORMAT
 62
     8
100
AcDbBlockReference
  2
SW_NOTE_1
 10
30.60506208147322
 20
20.98202961599092
 30
0.0
  0
MTEXT
  5
B6
330
73
100
AcDbEntity
  8
FORMAT
100
AcDbMText
 10
28.0611725877304
 20
0.1724440845690909
 30
0.0
 40
0.07
 41
0.0
 71
     2
 72
     1
  1
PART NAME
  7
SLDTEXTSTYLE0
 73
     1
 44
1.0
  0
MTEXT
  5
B7
330
73
100
AcDbEntity
  8
FORMAT
100
AcDbMText
 10
30.37025885106279
 20
0.4692356211129586
 30
0.0
 40
0.07
 41
0.0
 71
     2
 72
     1
  1
DWG. NO.
  7
SLDTEXTSTYLE0
 73
     1
 44
1.0
  0
MTEXT
  5
B8
330
73
100
AcDbEntity
  8
FORMAT
100
AcDbMText
 10
22.97373483058121
 20
0.39799715317596
 30
0.0
 40
0.07
 41
0.0
 71
     1
 72
     1
  1
3.  ALL DIA's CONCENTRIC WITHIN .010 TIR
  7
SLDTEXTSTYLE1
 73
     1
 44
1.0
  0
MTEXT
  5
B9
330
73
100
AcDbEntity
  8
FORMAT
100
AcDbMText
 10
23.35604788375365
 20
1.016658214471895
 30
0.0
 40
0.07
 41
0.0
 71
     1
 72
     1
  1
TOLERANCES UNLESS OTHERWISE SPECIFIED
  7
SLDTEXTSTYLE1
 73
     1
 44
1.0
  0
MTEXT
  5
BA
330
73
100
AcDbEntity
  8
FORMAT
100
AcDbMText
 10
28.91120397397544
 20
1.230090288894468
 30
0.0
 40
0.06
 41
0.0
 71
     2
 72
     1
  1
PROD.
  7
SLDTEXTSTYLE0
 73
     1
 44
1.0
  0
MTEXT
  5
BB
330
73
100
AcDbEntity
  8
FORMAT
100
AcDbMText
 10
31.65312089127594
 20
0.6529667658515692
 30
0.0
 40
0.07
 41
0.0
 71
     1
 72
     1
  1
JACKSON, TN
  7
SLDTEXTSTYLE0
 73
     1
 44
1.0
  0
MTEXT
  5
BC
330
73
100
AcDbEntity
  8
FORMAT
100
AcDbMText
 10
22.97373483058121
 20
0.5972973626647788
 30
0.0
 40
0.07
 41
0.0
 71
     1
 72
     1
  1
2.  ALL MACH SURFACES 125 RMS.
  7
SLDTEXTSTYLE1
 73
     1
 44
1.0
  0
MTEXT
  5
BD
330
73
100
AcDbEntity
  8
FORMAT
100
AcDbMText
 10
30.18058231123797
 20
0.9912827556420925
 30
0.0
 40
0.1666666666666666
 41
0.0
 71
     1
 72
     1
  1
BOBRICK WASHROOM EQUIPMENT, INC.
  7
SLDTEXTSTYLE0
 73
     1
 44
1.0
  0
MTEXT
  5
BE
330
73
100
AcDbEntity
  8
FORMAT
100
AcDbMText
 10
30.8292227888737
 20
0.6520623907430573
 30
0.0
 40
0.07
 41
0.0
 71
     1
 72
     1
  1
LOS ANGELES
  7
SLDTEXTSTYLE0
 73
     1
 44
1.0
  0
MTEXT
  5
BF
330
73
100
AcDbEntity
  8
FORMAT
100
AcDbMText
 10
25.43552890673779
 20
0.8901757080132696
 30
0.0
 40
0.06
 41
0.0
 71
     1
 72
     1
  1
DEC
  7
SLDTEXTSTYLE1
 73
     1
 44
1.0
  0
MTEXT
  5
C0
330
73
100
AcDbEntity
  8
FORMAT
100
AcDbMText
 10
27.53571539410476
 20
1.234518794589696
 30
0.0
 40
0.06
 41
0.0
 71
     2
 72
     1
  1
DFTMN
  7
SLDTEXTSTYLE0
 73
     1
 44
1.0
  0
MTEXT
  5
C1
330
73
100
AcDbEntity
  8
FORMAT
100
AcDbMText
 10
28.93632776913067
 20
1.420874845871628
 30
0.0
 40
0.06
 41
0.0
 71
     2
 72
     1
  1
APPVD.
  7
SLDTEXTSTYLE0
 73
     1
 44
1.0
  0
MTEXT
  5
C3
330
73
100
AcDbEntity
  8
FORMAT
100
AcDbMText
 10
25.39863550404208
 20
0.7764046651472981
 30
0.0
 40
0.06
 41
0.0
 71
     1
 72
     1
  1
X = ± .1
  7
SLDTEXTSTYLE4
 73
     1
 44
1.0
  0
MTEXT
  5
C4
330
73
100
AcDbEntity
  8
FORMAT
100
AcDbMText
 10
25.43552890673779
 20
0.4394570642572756
 30
0.0
 40
0.06
 41
0.0
 71
     1
 72
     1
  1
FRAC
  7
SLDTEXTSTYLE1
 73
     1
 44
1.0
  0
MTEXT
  5
C6
330
73
100
AcDbEntity
  8
FORMAT
100
AcDbMText
 10
25.34403326586704
 20
0.6745105466752276
 30
0.0
 40
0.06
 41
0.0
 71
     1
 72
     1
  1
XX = ± .02
  7
SLDTEXTSTYLE5
 73
     1
 44
1.0
  0
MTEXT
  5
C7
330
73
100
AcDbEntity
  8
FORMAT
100
AcDbMText
 10
32.5003094452076
 20
0.6529667658515682
 30
0.0
 40
0.07
 41
0.0
 71
     1
 72
     1
  1
TORONTO
  7
SLDTEXTSTYLE0
 73
     1
 44
1.0
  0
MTEXT
  5
C8
330
73
100
AcDbEntity
  8
FORMAT
100
AcDbMText
 10
28.99535232586629
 20
1.02054003778839
 30
0.0
 40
0.06
 41
0.0
 71
     2
 72
     1
  1
REL.DATE
  7
SLDTEXTSTYLE0
 73
     1
 44
1.0
  0
MTEXT
  5
C9
330
73
100
AcDbEntity
  8
FORMAT
100
AcDbMText
 10
25.44952307514425
 20
0.3451894045223454
 30
0.0
 40
0.06
 41
0.0
 71
     1
 72
     1
  1
± 1/32
  7
SLDTEXTSTYLE1
 73
     1
 44
1.0
  0
MTEXT
  5
CA
330
73
100
AcDbEntity
  8
FORMAT
100
AcDbMText
 10
30.16994701697175
 20
0.655275435501623
 30
0.0
 40
0.07
 41
0.0
 71
     1
 72
     1
  1
NEW YORK
  7
SLDTEXTSTYLE0
 73
     1
 44
1.0
  0
MTEXT
  5
CB
330
73
100
AcDbEntity
  8
FORMAT
100
AcDbMText
 10
22.97373483058121
 20
0.7965975721535953
 30
0.0
 40
0.07
 41
0.0
 71
     1
 72
     1
  1
1.  DEBURR ALL CORNERS AND EDGES.
  7
SLDTEXTSTYLE1
 73
     1
 44
1.0
  0
MTEXT
  5
CC
330
73
100
AcDbEntity
  8
FORMAT
100
AcDbMText
 10
27.53506956824832
 20
1.420874845871627
 30
0.0
 40
0.06
 41
0.0
 71
     2
 72
     1
  1
SCALE
  7
SLDTEXTSTYLE0
 73
     1
 44
1.0
  0
MTEXT
  5
CD
330
73
100
AcDbEntity
  8
FORMAT
100
AcDbMText
 10
25.40881119275927
 20
0.2190078936720642
 30
0.0
 40
0.06
 41
0.0
 71
     1
 72
     1
  1
ANGLE
  7
SLDTEXTSTYLE1
 73
     1
 44
1.0
  0
MTEXT
  5
CE
330
73
100
AcDbEntity
  8
FORMAT
100
AcDbMText
 10
27.55631956540009
 20
1.026795269164697
 30
0.0
 40
0.06
 41
0.0
 71
     2
 72
     1
  1
CHECK
  7
SLDTEXTSTYLE0
 73
     1
 44
1.0
  0
MTEXT
  5
CF
330
73
100
AcDbEntity
  8
FORMAT
100
AcDbMText
 10
25.28500383248081
 20
0.5620235188609052
 30
0.0
 40
0.06
 41
0.0
 71
     1
 72
     1
  1
XXX = ± .010
  7
SLDTEXTSTYLE1
 73
     1
 44
1.0
  0
MTEXT
  5
D0
330
73
100
AcDbEntity
  8
FORMAT
100
AcDbMText
 10
25.45422755851495
 20
0.1247402339371439
 30
0.0
 40
0.06
 41
0.0
 71
     1
 72
     1
  1
± 1°
  7
SLDTEXTSTYLE1
 73
     1
 44
1.0
  0
MTEXT
  5
D1
330
73
100
AcDbEntity
  8
FORMAT
100
AcDbMText
 10
26.2343020645711
 20
1.025630599088518
 30
0.0
 40
0.06
 41
0.0
 71
     3
 72
     1
  1
FINISH
  7
SLDTEXTSTYLE0
 73
     1
 44
1.0
  0
MTEXT
  5
D2
330
73
100
AcDbEntity
  8
FORMAT
100
AcDbMText
 10
26.19822982127122
 20
1.443076586783654
 30
0.0
 40
0.06
 41
0.0
 71
     3
 72
     1
  1
MAT'L
  7
SLDTEXTSTYLE0
 73
     1
 44
1.0
  0
MTEXT
  5
D3
330
73
100
AcDbEntity
  8
FORMAT
100
AcDbMText
 10
23.66799991478947
 20
1.463251144221145
 30
0.0
 40
0.2916666666666666
 41
0.0
 71
     1
 72
     1
  1
D
  7
SLDTEXTSTYLE1
 73
     1
 44
1.0
  0
MTEXT
  5
D4
330
73
100
AcDbEntity
  8
FORMAT
100
AcDbMText
 10
22.90119417862591
 20
1.452644275012908
 30
0.0
 40
0.07
 41
0.0
 71
     1
 72
     1
  1
DRAWING SIZE
  7
SLDTEXTSTYLE1
 73
     1
 44
1.0
  0
MTEXT
  5
D5
330
73
100
AcDbEntity
  8
FORMAT
100
AcDbMText
 10
25.51453209472147
 20
1.449047053026664
 30
0.0
 40
0.07
 41
0.0
 71
     3
 72
     1
  1
3D MODEL REVISION
  7
SLDTEXTSTYLE0
 73
     1
 44
1.0
  0
ENDBLK
  5
75
330
73
100
AcDbEntity
  8
0
100
AcDbBlockEnd
  0
BLOCK
  5
A6
330
A5
100
AcDbEntity
  8
0
100
AcDbBlockBegin
  2
SW_NOTE_0
 70
     0
 10
0.0
 20
0.0
 30
0.0
  3
SW_NOTE_0
  1

  0
MTEXT
  5
A8
330
A5
100
AcDbEntity
  8
FORMAT
 62
     0
100
AcDbMText
 10
0.0
 20
0.0725100603621735
 30
0.0
 40
0.05625
 41
0.0
 71
     1
 72
     1
  1
NOTICE IS HEREBY GIVEN THAT THIS DRAWING IS THE
  7
SLDTEXTSTYLE1
 73
     1
 44
1.0
  0
MTEXT
  5
A9
330
A5
100
AcDbEntity
  8
FORMAT
 62
     0
100
AcDbMText
 10
0.0
 20
-0.1142399339526228
 30
0.0
 40
0.05625
 41
0.0
 71
     1
 72
     1
  1
THE PERSONS, PARTNERSHIP OR CORPORATION ACCEPTING
  7
SLDTEXTSTYLE1
 73
     1
 44
1.0
  0
MTEXT
  5
AA
330
A5
100
AcDbEntity
  8
FORMAT
 62
     0
100
AcDbMText
 10
0.0
 20
-0.207614931110021
 30
0.0
 40
0.05625
 41
0.0
 71
     1
 72
     1
  1
THIS DRAWING AGREES THAT ALL INFORMATION SET FORTH IN
  7
SLDTEXTSTYLE1
 73
     1
 44
1.0
  0
MTEXT
  5
AB
330
A5
100
AcDbEntity
  8
FORMAT
 62
     0
100
AcDbMText
 10
0.0
 20
-0.3009899282674191
 30
0.0
 40
0.05625
 41
0.0
 71
     1
 72
     1
  1
THIS DRAWING WILL BE HELD CONFIDENTIAL AND THAT IT WILL
  7
SLDTEXTSTYLE1
 73
     1
 44
1.0
  0
MTEXT
  5
AC
330
A5
100
AcDbEntity
  8
FORMAT
 62
     0
100
AcDbMText
 10
0.0
 20
-0.3943649254248173
 30
0.0
 40
0.05625
 41
0.0
 71
     1
 72
     1
  1
NOT BE DISCLOSED TO ANYONE OTHER THAN AN OFFICIAL OF
  7
SLDTEXTSTYLE1
 73
     1
 44
1.0
  0
ENDBLK
  5
A7
330
A5
100
AcDbEntity
  8
0
100
AcDbBlockEnd
  0
BLOCK
  5
AF
330
AE
100
AcDbEntity
  8
0
100
AcDbBlockBegin
  2
SW_NOTE_1
 70
     0
 10
0.0
 20
0.0
 30
0.0
  3
SW_NOTE_1
  1

  0
MTEXT
  5
B1
330
AE
100
AcDbEntity
  8
FORMAT
 62
     0
100
AcDbMText
 10
0.0
 20
0.0725100603621735
 30
0.0
 40
0.05625
 41
0.0
 71
     1
 72
     1
  1
THE UNITED STATES GOVERNMENT OR AN EMPLOYEE OF
  7
SLDTEXTSTYLE1
 73
     1
 44
1.0
  0
MTEXT
  5
B2
330
AE
100
AcDbEntity
  8
FORMAT
 62
     0
100
AcDbMText
 10
0.0
 20
-0.0208649367952247
 30
0.0
 40
0.05625
 41
0.0
 71
     1
 72
     1
  1
BOBRICK WASHROOM EQUIPMENT, INC.
  7
SLDTEXTSTYLE1
 73
     1
 44
1.0
  0
MTEXT
  5
B3
330
AE
100
AcDbEntity
  8
FORMAT
 62
     0
100
AcDbMText
 10
0.0
 20
-0.3009899282674191
 30
0.0
 40
0.05625
 41
0.0
 71
     1
 72
     1
  1
WHEN FINISHED WITH THIS DRAWING, RETURN TO BOBRICK
  7
SLDTEXTSTYLE1
 73
     1
 44
1.0
  0
MTEXT
  5
B4
330
AE
100
AcDbEntity
  8
FORMAT
 62
     0
100
AcDbMText
 10
0.0
 20
-0.3943649254248173
 30
0.0
 40
0.05625
 41
0.0
 71
     1
 72
     1
  1
WASHROOM EQUIPMENT, INC.
  7
SLDTEXTSTYLE1
 73
     1
 44
1.0
  0
ENDBLK
  5
B0
330
AE
100
AcDbEntity
  8
0
100
AcDbBlockEnd
  0
BLOCK
  5
2B2
330
2B1
100
AcDbEntity
  8
0
100
AcDbBlockBegin
  2
_D
 70
     0
 10
0.0
 20
0.0
 30
0.0
  3
_D
  1

  0
LINE
  5
2CD
330
2B1
100
AcDbEntity
  8
Object
 62
     0
370
    -2
100
AcDbLine
 10
22.47513030305175
 20
20.19055698236991
 30
0.0
 11
22.47513030305175
 21
21.00066365648446
 31
0.0
  0
LINE
  5
2CE
330
2B1
100
AcDbEntity
  8
Object
 62
     0
370
    -2
100
AcDbLine
 10
26.97713030305216
 20
20.26102144846399
 30
0.0
 11
26.97713030305216
 21
21.00066365648446
 31
0.0
  0
LINE
  5
2CF
330
2B1
100
AcDbEntity
  8
Object
 62
     0
370
    -2
100
AcDbLine
 10
22.65513030305175
 20
21.00066365648446
 30
0.0
 11
24.73907864066868
 21
21.00066365648446
 31
0.0
  0
LINE
  5
2D0
330
2B1
100
AcDbEntity
  8
Object
 62
     0
370
    -2
100
AcDbLine
 10
26.79713030305216
 20
21.00066365648446
 30
0.0
 11
25.04949530733535
 21
21.00066365648446
 31
0.0
  0
SOLID
  5
2D1
330
2B1
100
AcDbEntity
  8
Object
 62
     0
100
AcDbTrace
 10
22.65513030305175
 20
21.03066365648446
 30
0.0
 11
22.65513030305175
 21
20.97066365648446
 31
0.0
 12
22.47513030305175
 22
21.00066365648446
 32
0.0
 13
22.47513030305175
 23
21.00066365648446
 33
0.0
  0
SOLID
  5
2D2
330
2B1
100
AcDbEntity
  8
Object
 62
     0
100
AcDbTrace
 10
26.79713030305216
 20
21.03066365648446
 30
0.0
 11
26.79713030305216
 21
20.97066365648446
 31
0.0
 12
26.97713030305216
 22
21.00066365648446
 32
0.0
 13
26.97713030305216
 23
21.00066365648446
 33
0.0
  0
MTEXT
  5
2D3
330
2B1
100
AcDbEntity
  8
Object
 62
     0
100
AcDbMText
 10
24.89428697400202
 20
21.06316365648446
 30
0.0
 40
0.125
 41
0.0
 71
     2
 72
     1
  1
\A1;4.50
  7
SLDTEXTSTYLE0
 73
     1
 44
1.0
  0
POINT
  5
2D4
330
2B1
100
AcDbEntity
  8
Defpoints
 62
     0
100
AcDbPoint
 10
22.47513030305175
 20
20.12805698236991
 30
0.0
  0
POINT
  5
2D5
330
2B1
100
AcDbEntity
  8
Defpoints
 62
     0
100
AcDbPoint
 10
26.97713030305216
 20
20.19852144846399
 30
0.0
  0
POINT
  5
2D6
330
2B1
100
AcDbEntity
  8
Defpoints
 62
     0
100
AcDbPoint
 10
26.97713030305216
 20
21.00066365648446
 30
0.0
  0
ENDBLK
  5
2B3
330
2B1
100
AcDbEntity
  8
0
100
AcDbBlockEnd
  0
BLOCK
  5
2F0
330
2E4
100
AcDbEntity
  8
0
100
AcDbBlockBegin
  2
*D5
 70
     1
 10
0.0
 20
0.0
 30
0.0
  3
*D5
  1

  0
LINE
  5
56E
330
2E4
100
AcDbEntity
  8
DIMENSIONS
 62
     0
370
    -2
100
AcDbLine
 10
10.34634732570467
 20
29.74076734221121
 30
0.0
 11
10.34634732570467
 21
33.90866018249047
 31
0.0
  0
LINE
  5
56F
330
2E4
100
AcDbEntity
  8
DIMENSIONS
 62
     0
370
    -2
100
AcDbLine
 10
23.15634754339752
 20
29.74076707537781
 30
0.0
 11
23.15634754339752
 21
33.90866018249047
 31
0.0
  0
LINE
  5
570
330
2E4
100
AcDbEntity
  8
DIMENSIONS
 62
     0
370
    -2
100
AcDbLine
 10
10.52634732570467
 20
33.72866018249047
 30
0.0
 11
15.71931118695895
 21
33.72866018249047
 31
0.0
  0
LINE
  5
571
330
2E4
100
AcDbEntity
  8
DIMENSIONS
 62
     0
370
    -2
100
AcDbLine
 10
22.97634754339751
 20
33.72866018249047
 30
0.0
 11
17.91121594886371
 21
33.72866018249047
 31
0.0
  0
SOLID
  5
572
330
2E4
100
AcDbEntity
  8
DIMENSIONS
 62
     0
100
AcDbTrace
 10
10.52634732570467
 20
33.75866018249047
 30
0.0
 11
10.52634732570467
 21
33.69866018249047
 31
0.0
 12
10.34634732570467
 22
33.72866018249047
 32
0.0
 13
10.34634732570467
 23
33.72866018249047
 33
0.0
  0
SOLID
  5
573
330
2E4
100
AcDbEntity
  8
DIMENSIONS
 62
     0
100
AcDbTrace
 10
22.97634754339751
 20
33.75866018249047
 30
0.0
 11
22.97634754339751
 21
33.69866018249047
 31
0.0
 12
23.15634754339752
 22
33.72866018249047
 32
0.0
 13
23.15634754339752
 23
33.72866018249047
 33
0.0
  0
MTEXT
  5
574
330
2E4
100
AcDbEntity
  8
DIMENSIONS
 62
     0
100
AcDbMText
 10
16.81526356791133
 20
33.72866018249047
 30
0.0
 40
0.25
 41
0.0
 71
     5
 72
     1
  1
\A1;12 13/16"\P [325mm]
 73
     1
 44
1.0
  0
POINT
  5
575
330
2E4
100
AcDbEntity
  8
Defpoints
 62
     0
100
AcDbPoint
 10
10.34634732570467
 20
29.56076734221122
 30
0.0
  0
POINT
  5
576
330
2E4
100
AcDbEntity
  8
Defpoints
 62
     0
100
AcDbPoint
 10
23.15634754339752
 20
29.56076707537781
 30
0.0
  0
POINT
  5
577
330
2E4
100
AcDbEntity
  8
Defpoints
 62
     0
100
AcDbPoint
 10
23.15634754339752
 20
33.72866018249047
 30
0.0
  0
ENDBLK
  5
2F1
330
2E4
100
AcDbEntity
  8
0
100
AcDbBlockEnd
  0
BLOCK
  5
309
330
2FD
100
AcDbEntity
  8
0
100
AcDbBlockBegin
  2
*D6
 70
     1
 10
0.0
 20
0.0
 30
0.0
  3
*D6
  1

  0
LINE
  5
578
330
2FD
100
AcDbEntity
  8
DIMENSIONS
 62
     0
370
    -2
100
AcDbLine
 10
12.25134754339772
 20
27.91676707537784
 30
0.0
 11
12.25134754339772
 21
32.2536935071354
 31
0.0
  0
LINE
  5
579
330
2FD
100
AcDbEntity
  8
DIMENSIONS
 62
     0
370
    -2
100
AcDbLine
 10
21.20134754339773
 20
27.91676707537784
 30
0.0
 11
21.20134754339773
 21
32.2536935071354
 31
0.0
  0
LINE
  5
57A
330
2FD
100
AcDbEntity
  8
DIMENSIONS
 62
     0
370
    -2
100
AcDbLine
 10
12.43134754339772
 20
32.0736935071354
 30
0.0
 11
15.73158563863582
 21
32.0736935071354
 31
0.0
  0
LINE
  5
57B
330
2FD
100
AcDbEntity
  8
DIMENSIONS
 62
     0
370
    -2
100
AcDbLine
 10
21.02134754339772
 20
32.0736935071354
 30
0.0
 11
17.72110944815963
 21
32.0736935071354
 31
0.0
  0
SOLID
  5
57C
330
2FD
100
AcDbEntity
  8
DIMENSIONS
 62
     0
100
AcDbTrace
 10
12.43134754339772
 20
32.1036935071354
 30
0.0
 11
12.43134754339772
 21
32.0436935071354
 31
0.0
 12
12.25134754339772
 22
32.0736935071354
 32
0.0
 13
12.25134754339772
 23
32.0736935071354
 33
0.0
  0
SOLID
  5
57D
330
2FD
100
AcDbEntity
  8
DIMENSIONS
 62
     0
100
AcDbTrace
 10
21.02134754339772
 20
32.1036935071354
 30
0.0
 11
21.02134754339772
 21
32.0436935071354
 31
0.0
 12
21.20134754339773
 22
32.0736935071354
 32
0.0
 13
21.20134754339773
 23
32.0736935071354
 33
0.0
  0
MTEXT
  5
57E
330
2FD
100
AcDbEntity
  8
DIMENSIONS
 62
     0
100
AcDbMText
 10
16.72634754339772
 20
32.35416969761159
 30
0.0
 40
0.25
 41
0.0
 71
     5
 72
     1
  1
\A1;8 15/16"
 73
     1
 44
1.0
  0
MTEXT
  5
57F
330
2FD
100
AcDbEntity
  8
DIMENSIONS
 62
     0
100
AcDbMText
 10
16.72634754339772
 20
31.79321731665921
 30
0.0
 40
0.25
 41
0.0
 71
     5
 72
     1
  1
\A1;[225mm]
 73
     1
 44
1.0
  0
POINT
  5
580
330
2FD
100
AcDbEntity
  8
Defpoints
 62
     0
100
AcDbPoint
 10
12.25134754339772
 20
27.73676707537783
 30
0.0
  0
POINT
  5
581
330
2FD
100
AcDbEntity
  8
Defpoints
 62
     0
100
AcDbPoint
 10
21.20134754339773
 20
27.73676707537783
 30
0.0
  0
POINT
  5
582
330
2FD
100
AcDbEntity
  8
Defpoints
 62
     0
100
AcDbPoint
 10
21.20134754339773
 20
32.0736935071354
 30
0.0
  0
ENDBLK
  5
30A
330
2FD
100
AcDbEntity
  8
0
100
AcDbBlockEnd
  0
BLOCK
  5
318
330
30C
100
AcDbEntity
  8
0
100
AcDbBlockBegin
  2
*D7
 70
     1
 10
0.0
 20
0.0
 30
0.0
  3
*D7
  1

  0
LINE
  5
5EB
330
30C
100
AcDbEntity
  8
DIMENSIONS
 62
     0
370
    -2
100
AcDbLine
 10
21.20134754339773
 20
27.91676707537784
 30
0.0
 11
21.20134754339773
 21
32.2536935071354
 31
0.0
  0
LINE
  5
5EC
330
30C
100
AcDbEntity
  8
DIMENSIONS
 62
     0
370
    -2
100
AcDbLine
 10
23.15634754339752
 20
29.74076707537781
 30
0.0
 11
23.15634754339752
 21
32.2536935071354
 31
0.0
  0
LINE
  5
5ED
330
30C
100
AcDbEntity
  8
DIMENSIONS
 62
     0
370
    -2
100
AcDbLine
 10
21.02134754339772
 20
32.0736935071354
 30
0.0
 11
20.84134754339773
 21
32.0736935071354
 31
0.0
  0
LINE
  5
5EE
330
30C
100
AcDbEntity
  8
DIMENSIONS
 62
     0
370
    -2
100
AcDbLine
 10
23.33634754339751
 20
32.0736935071354
 30
0.0
 11
24.17387959170981
 21
32.0736935071354
 31
0.0
  0
SOLID
  5
5EF
330
30C
100
AcDbEntity
  8
DIMENSIONS
 62
     0
100
AcDbTrace
 10
21.02134754339772
 20
32.1036935071354
 30
0.0
 11
21.02134754339772
 21
32.0436935071354
 31
0.0
 12
21.20134754339773
 22
32.0736935071354
 32
0.0
 13
21.20134754339773
 23
32.0736935071354
 33
0.0
  0
SOLID
  5
5F0
330
30C
100
AcDbEntity
  8
DIMENSIONS
 62
     0
100
AcDbTrace
 10
23.33634754339751
 20
32.1036935071354
 30
0.0
 11
23.33634754339751
 21
32.0436935071354
 31
0.0
 12
23.15634754339752
 22
32.0736935071354
 32
0.0
 13
23.15634754339752
 23
32.0736935071354
 33
0.0
  0
MTEXT
  5
5F1
330
30C
100
AcDbEntity
  8
DIMENSIONS
 62
     0
100
AcDbMText
 10
25.15078435361457
 20
32.0736935071354
 30
0.0
 40
0.25
 41
0.0
 71
     5
 72
     1
  1
\A1;1 15/16"\P [50mm]
 73
     1
 44
1.0
  0
POINT
  5
5F2
330
30C
100
AcDbEntity
  8
Defpoints
 62
     0
100
AcDbPoint
 10
21.20134754339773
 20
27.73676707537783
 30
0.0
  0
POINT
  5
5F3
330
30C
100
AcDbEntity
  8
Defpoints
 62
     0
100
AcDbPoint
 10
23.15634754339752
 20
29.56076707537781
 30
0.0
  0
POINT
  5
5F4
330
30C
100
AcDbEntity
  8
Defpoints
 62
     0
100
AcDbPoint
 10
23.15634754339752
 20
32.0736935071354
 30
0.0
  0
ENDBLK
  5
319
330
30C
100
AcDbEntity
  8
0
100
AcDbBlockEnd
  0
BLOCK
  5
345
330
339
100
AcDbEntity
  8
0
100
AcDbBlockBegin
  2
*D8
 70
     1
 10
0.0
 20
0.0
 30
0.0
  3
*D8
  1

  0
LINE
  5
58D
330
339
100
AcDbEntity
  8
DIMENSIONS
 62
     0
370
    -2
100
AcDbLine
 10
33.87139150902428
 20
29.66676707537779
 30
0.0
 11
33.87139150902428
 21
31.72637546114736
 31
0.0
  0
LINE
  5
58E
330
339
100
AcDbEntity
  8
DIMENSIONS
 62
     0
370
    -2
100
AcDbLine
 10
38.37339150727446
 20
29.73723154305726
 30
0.0
 11
38.37339150727446
 21
31.72637546114736
 31
0.0
  0
LINE
  5
58F
330
339
100
AcDbEntity
  8
DIMENSIONS
 62
     0
370
    -2
100
AcDbLine
 10
34.05139150902428
 20
31.54637546114736
 30
0.0
 11
35.07517758188579
 21
31.54637546114736
 31
0.0
  0
LINE
  5
590
330
339
100
AcDbEntity
  8
DIMENSIONS
 62
     0
370
    -2
100
AcDbLine
 10
38.19339150727446
 20
31.54637546114736
 30
0.0
 11
37.15993948664769
 21
31.54637546114736
 31
0.0
  0
SOLID
  5
591
330
339
100
AcDbEntity
  8
DIMENSIONS
 62
     0
100
AcDbTrace
 10
34.05139150902428
 20
31.57637546114736
 30
0.0
 11
34.05139150902428
 21
31.51637546114736
 31
0.0
 12
33.87139150902428
 22
31.54637546114736
 32
0.0
 13
33.87139150902428
 23
31.54637546114736
 33
0.0
  0
SOLID
  5
592
330
339
100
AcDbEntity
  8
DIMENSIONS
 62
     0
100
AcDbTrace
 10
38.19339150727446
 20
31.57637546114736
 30
0.0
 11
38.19339150727446
 21
31.51637546114736
 31
0.0
 12
38.37339150727446
 22
31.54637546114736
 32
0.0
 13
38.37339150727446
 23
31.54637546114736
 33
0.0
  0
MTEXT
  5
593
330
339
100
AcDbEntity
  8
DIMENSIONS
 62
     0
100
AcDbMText
 10
36.11755853426674
 20
31.54637546114736
 30
0.0
 40
0.25
 41
0.0
 71
     5
 72
     1
  1
\A1;4 1/2"\P [115mm]
 73
     1
 44
1.0
  0
POINT
  5
594
330
339
100
AcDbEntity
  8
Defpoints
 62
     0
100
AcDbPoint
 10
33.87139150902428
 20
29.48676707537779
 30
0.0
  0
POINT
  5
595
330
339
100
AcDbEntity
  8
Defpoints
 62
     0
100
AcDbPoint
 10
38.37339150727446
 20
29.55723154305726
 30
0.0
  0
POINT
  5
596
330
339
100
AcDbEntity
  8
Defpoints
 62
     0
100
AcDbPoint
 10
38.37339150727446
 20
31.54637546114736
 30
0.0
  0
ENDBLK
  5
346
330
339
100
AcDbEntity
  8
0
100
AcDbBlockEnd
  0
BLOCK
  5
35E
330
352
100
AcDbEntity
  8
0
100
AcDbBlockBegin
  2
*D9
 70
     1
 10
0.0
 20
0.0
 30
0.0
  3
*D9
  1

  0
LINE
  5
597
330
352
100
AcDbEntity
  8
DIMENSIONS
 62
     0
370
    -2
100
AcDbLine
 10
23.30034781269433
 20
29.596767139672
 30
0.0
 11
27.1874816575599
 21
29.596767139672
 31
0.0
  0
LINE
  5
598
330
352
100
AcDbEntity
  8
DIMENSIONS
 62
     0
370
    -2
100
AcDbLine
 10
23.30034781269433
 20
12.28676694627136
 30
0.0
 11
27.1874816575599
 21
12.28676694627136
 31
0.0
  0
LINE
  5
599
330
352
100
AcDbEntity
  8
DIMENSIONS
 62
     0
370
    -2
100
AcDbLine
 10
27.0074816575599
 20
29.416767139672
 30
0.0
 11
27.0074816575599
 21
21.45438609059072
 31
0.0
  0
LINE
  5
59A
330
352
100
AcDbEntity
  8
DIMENSIONS
 62
     0
370
    -2
100
AcDbLine
 10
27.0074816575599
 20
12.46676694627136
 30
0.0
 11
27.0074816575599
 21
20.42914799535263
 31
0.0
  0
SOLID
  5
59B
330
352
100
AcDbEntity
  8
DIMENSIONS
 62
     0
100
AcDbTrace
 10
26.9774816575599
 20
29.416767139672
 30
0.0
 11
27.0374816575599
 21
29.416767139672
 31
0.0
 12
27.0074816575599
 22
29.596767139672
 32
0.0
 13
27.0074816575599
 23
29.596767139672
 33
0.0
  0
SOLID
  5
59C
330
352
100
AcDbEntity
  8
DIMENSIONS
 62
     0
100
AcDbTrace
 10
26.9774816575599
 20
12.46676694627136
 30
0.0
 11
27.0374816575599
 21
12.46676694627136
 31
0.0
 12
27.0074816575599
 22
12.28676694627136
 32
0.0
 13
27.0074816575599
 23
12.28676694627136
 33
0.0
  0
MTEXT
  5
59D
330
352
100
AcDbEntity
  8
DIMENSIONS
 62
     0
100
AcDbMText
 10
27.00748165755989
 20
20.94176704297169
 30
0.0
 40
0.25
 41
0.0
 71
     5
 72
     1
  1
\A1;17 5/16"\P [440mm]
 73
     1
 44
1.0
  0
POINT
  5
59E
330
352
100
AcDbEntity
  8
Defpoints
 62
     0
100
AcDbPoint
 10
23.12034781269433
 20
29.596767139672
 30
0.0
  0
POINT
  5
59F
330
352
100
AcDbEntity
  8
Defpoints
 62
     0
100
AcDbPoint
 10
23.12034781269433
 20
12.28676694627136
 30
0.0
  0
POINT
  5
5A0
330
352
100
AcDbEntity
  8
Defpoints
 62
     0
100
AcDbPoint
 10
27.0074816575599
 20
12.28676694627136
 30
0.0
  0
ENDBLK
  5
35F
330
352
100
AcDbEntity
  8
0
100
AcDbBlockEnd
  0
BLOCK
  5
378
330
36B
100
AcDbEntity
  8
0
100
AcDbBlockBegin
  2
*D10
 70
     1
 10
0.0
 20
0.0
 30
0.0
  3
*D10
  1

  0
LINE
  5
5F5
330
36B
100
AcDbEntity
  8
DIMENSIONS
 62
     0
370
    -2
100
AcDbLine
 10
23.30034781269414
 20
12.28676694627136
 30
0.0
 11
25.05249016312154
 21
12.28676694627136
 31
0.0
  0
LINE
  5
5F6
330
36B
100
AcDbEntity
  8
DIMENSIONS
 62
     0
370
    -2
100
AcDbLine
 10
21.65134754339753
 20
13.67176707537779
 30
0.0
 11
25.05249016312154
 21
13.67176707537779
 31
0.0
  0
LINE
  5
5F7
330
36B
100
AcDbEntity
  8
DIMENSIONS
 62
     0
370
    -2
100
AcDbLine
 10
24.87249016312155
 20
12.10676694627136
 30
0.0
 11
24.87249016312155
 21
11.92676694627136
 31
0.0
  0
LINE
  5
5F8
330
36B
100
AcDbEntity
  8
DIMENSIONS
 62
     0
370
    -2
100
AcDbLine
 10
24.87249016312155
 20
13.85176707537779
 30
0.0
 11
24.87249016312155
 21
14.03176707537779
 31
0.0
  0
SOLID
  5
5F9
330
36B
100
AcDbEntity
  8
DIMENSIONS
 62
     0
100
AcDbTrace
 10
24.84249016312154
 20
12.10676694627136
 30
0.0
 11
24.90249016312155
 21
12.10676694627136
 31
0.0
 12
24.87249016312155
 22
12.28676694627136
 32
0.0
 13
24.87249016312155
 23
12.28676694627136
 33
0.0
  0
SOLID
  5
5FA
330
36B
100
AcDbEntity
  8
DIMENSIONS
 62
     0
100
AcDbTrace
 10
24.84249016312154
 20
13.85176707537779
 30
0.0
 11
24.90249016312155
 21
13.85176707537779
 31
0.0
 12
24.87249016312155
 22
13.67176707537779
 32
0.0
 13
24.87249016312155
 23
13.67176707537779
 33
0.0
  0
MTEXT
  5
5FB
330
36B
100
AcDbEntity
  8
DIMENSIONS
 62
     0
100
AcDbMText
 10
24.87249016312154
 20
12.90700282048437
 30
0.0
 40
0.25
 41
0.0
 71
     5
 72
     1
  1
\A1;1 3/8"\P [35mm]
 73
     1
 44
1.0
  0
POINT
  5
5FC
330
36B
100
AcDbEntity
  8
Defpoints
 62
     0
100
AcDbPoint
 10
23.12034781269414
 20
12.28676694627136
 30
0.0
  0
POINT
  5
5FD
330
36B
100
AcDbEntity
  8
Defpoints
 62
     0
100
AcDbPoint
 10
21.47134754339754
 20
13.67176707537779
 30
0.0
  0
POINT
  5
5FE
330
36B
100
AcDbEntity
  8
Defpoints
 62
     0
100
AcDbPoint
 10
24.87249016312155
 20
13.67176707537779
 30
0.0
  0
ENDBLK
  5
379
330
36B
100
AcDbEntity
  8
0
100
AcDbBlockEnd
  0
BLOCK
  5
387
330
37B
100
AcDbEntity
  8
0
100
AcDbBlockBegin
  2
*D11
 70
     1
 10
0.0
 20
0.0
 30
0.0
  3
*D11
  1

  0
LINE
  5
5AB
330
37B
100
AcDbEntity
  8
DIMENSIONS
 62
     0
370
    -2
100
AcDbLine
 10
21.65134747542027
 20
18.67176711953783
 30
0.0
 11
25.05249016312154
 21
18.67176711953783
 31
0.0
  0
LINE
  5
5AC
330
37B
100
AcDbEntity
  8
DIMENSIONS
 62
     0
370
    -2
100
AcDbLine
 10
21.65134747542027
 20
13.67176710663132
 30
0.0
 11
25.05249016312154
 21
13.67176710663132
 31
0.0
  0
LINE
  5
5AD
330
37B
100
AcDbEntity
  8
DIMENSIONS
 62
     0
370
    -2
100
AcDbLine
 10
24.87249016312154
 20
18.49176711953783
 30
0.0
 11
24.87249016312154
 21
16.69105282737029
 31
0.0
  0
LINE
  5
5AE
330
37B
100
AcDbEntity
  8
DIMENSIONS
 62
     0
370
    -2
100
AcDbLine
 10
24.87249016312154
 20
13.85176710663132
 30
0.0
 11
24.87249016312154
 21
15.65248139879886
 31
0.0
  0
SOLID
  5
5AF
330
37B
100
AcDbEntity
  8
DIMENSIONS
 62
     0
100
AcDbTrace
 10
24.84249016312154
 20
18.49176711953783
 30
0.0
 11
24.90249016312154
 21
18.49176711953783
 31
0.0
 12
24.87249016312154
 22
18.67176711953783
 32
0.0
 13
24.87249016312154
 23
18.67176711953783
 33
0.0
  0
SOLID
  5
5B0
330
37B
100
AcDbEntity
  8
DIMENSIONS
 62
     0
100
AcDbTrace
 10
24.84249016312154
 20
13.85176710663132
 30
0.0
 11
24.90249016312154
 21
13.85176710663132
 31
0.0
 12
24.87249016312154
 22
13.67176710663132
 32
0.0
 13
24.87249016312154
 23
13.67176710663132
 33
0.0
  0
MTEXT
  5
5B1
330
37B
100
AcDbEntity
  8
DIMENSIONS
 62
     0
100
AcDbMText
 10
24.87249016312154
 20
16.4105766368941
 30
0.0
 40
0.25
 41
0.0
 71
     5
 72
     1
  1
\A1;5"
 73
     1
 44
1.0
  0
MTEXT
  5
5B2
330
37B
100
AcDbEntity
  8
DIMENSIONS
 62
     0
100
AcDbMText
 10
24.87249016312154
 20
15.89129092260839
 30
0.0
 40
0.25
 41
0.0
 71
     5
 72
     1
  1
\A1;[125mm]
 73
     1
 44
1.0
  0
POINT
  5
5B3
330
37B
100
AcDbEntity
  8
Defpoints
 62
     0
100
AcDbPoint
 10
21.47134747542027
 20
18.67176711953783
 30
0.0
  0
POINT
  5
5B4
330
37B
100
AcDbEntity
  8
Defpoints
 62
     0
100
AcDbPoint
 10
21.47134747542027
 20
13.67176710663132
 30
0.0
  0
POINT
  5
5B5
330
37B
100
AcDbEntity
  8
Defpoints
 62
     0
100
AcDbPoint
 10
24.87249016312154
 20
13.67176710663132
 30
0.0
  0
ENDBLK
  5
388
330
37B
100
AcDbEntity
  8
0
100
AcDbBlockEnd
  0
BLOCK
  5
3C9
330
3BD
100
AcDbEntity
  8
0
100
AcDbBlockBegin
  2
*D12
 70
     1
 10
0.0
 20
0.0
 30
0.0
  3
*D12
  1

  0
LINE
  5
5B6
330
3BD
100
AcDbEntity
  8
DIMENSIONS
 62
     0
370
    -2
100
AcDbLine
 10
11.90634754339753
 20
13.61676707537779
 30
0.0
 11
11.90634754339753
 21
10.52394299682107
 31
0.0
  0
LINE
  5
5B7
330
3BD
100
AcDbEntity
  8
DIMENSIONS
 62
     0
370
    -2
100
AcDbLine
 10
21.59634768474052
 20
13.61676731595157
 30
0.0
 11
21.59634768474052
 21
10.52394299682107
 31
0.0
  0
LINE
  5
5B8
330
3BD
100
AcDbEntity
  8
DIMENSIONS
 62
     0
370
    -2
100
AcDbLine
 10
12.08634754339753
 20
10.70394299682107
 30
0.0
 11
15.75658570930712
 21
10.70394299682107
 31
0.0
  0
LINE
  5
5B9
330
3BD
100
AcDbEntity
  8
DIMENSIONS
 62
     0
370
    -2
100
AcDbLine
 10
21.41634768474052
 20
10.70394299682107
 30
0.0
 11
17.74610951883093
 21
10.70394299682107
 31
0.0
  0
SOLID
  5
5BA
330
3BD
100
AcDbEntity
  8
DIMENSIONS
 62
     0
100
AcDbTrace
 10
12.08634754339753
 20
10.73394299682107
 30
0.0
 11
12.08634754339753
 21
10.67394299682107
 31
0.0
 12
11.90634754339753
 22
10.70394299682107
 32
0.0
 13
11.90634754339753
 23
10.70394299682107
 33
0.0
  0
SOLID
  5
5BB
330
3BD
100
AcDbEntity
  8
DIMENSIONS
 62
     0
100
AcDbTrace
 10
21.41634768474052
 20
10.73394299682107
 30
0.0
 11
21.41634768474052
 21
10.67394299682107
 31
0.0
 12
21.59634768474052
 22
10.70394299682107
 32
0.0
 13
21.59634768474052
 23
10.70394299682107
 33
0.0
  0
MTEXT
  5
5BC
330
3BD
100
AcDbEntity
  8
DIMENSIONS
 62
     0
100
AcDbMText
 10
16.75134761406902
 20
10.98441918729726
 30
0.0
 40
0.25
 41
0.0
 71
     5
 72
     1
  1
\A1;9 11/16"
 73
     1
 44
1.0
  0
MTEXT
  5
5BD
330
3BD
100
AcDbEntity
  8
DIMENSIONS
 62
     0
100
AcDbMText
 10
16.75134761406902
 20
10.42346680634488
 30
0.0
 40
0.25
 41
0.0
 71
     5
 72
     1
  1
\A1;[245mm]
 73
     1
 44
1.0
  0
POINT
  5
5BE
330
3BD
100
AcDbEntity
  8
Defpoints
 62
     0
100
AcDbPoint
 10
11.90634754339753
 20
13.79676707537779
 30
0.0
  0
POINT
  5
5BF
330
3BD
100
AcDbEntity
  8
Defpoints
 62
     0
100
AcDbPoint
 10
21.59634768474052
 20
13.79676731595157
 30
0.0
  0
POINT
  5
5C0
330
3BD
100
AcDbEntity
  8
Defpoints
 62
     0
100
AcDbPoint
 10
21.59634768474052
 20
10.70394299682107
 30
0.0
  0
ENDBLK
  5
3CA
330
3BD
100
AcDbEntity
  8
0
100
AcDbBlockEnd
  0
BLOCK
  5
42D
330
421
100
AcDbEntity
  8
0
100
AcDbBlockBegin
  2
*D13
 70
     1
 10
0.0
 20
0.0
 30
0.0
  3
*D13
  1

  0
LINE
  5
5C1
330
421
100
AcDbEntity
  8
DIMENSIONS
 62
     0
370
    -2
100
AcDbLine
 10
39.04270198613247
 20
19.52176707537784
 30
0.0
 11
41.52299803014934
 21
19.52176707537783
 31
0.0
  0
LINE
  5
5C2
330
421
100
AcDbEntity
  8
DIMENSIONS
 62
     0
370
    -2
100
AcDbLine
 10
39.1729181218379
 20
27.64676707537784
 30
0.0
 11
41.52299803014934
 21
27.64676707537784
 31
0.0
  0
LINE
  5
5C3
330
421
100
AcDbEntity
  8
DIMENSIONS
 62
     0
370
    -2
100
AcDbLine
 10
41.34299803014934
 20
19.70176707537783
 30
0.0
 11
41.34299803014934
 21
23.02331469442545
 31
0.0
  0
LINE
  5
5C4
330
421
100
AcDbEntity
  8
DIMENSIONS
 62
     0
370
    -2
100
AcDbLine
 10
41.34299803014934
 20
27.46676707537784
 30
0.0
 11
41.34299803014934
 21
24.14521945633021
 31
0.0
  0
SOLID
  5
5C5
330
421
100
AcDbEntity
  8
DIMENSIONS
 62
     0
100
AcDbTrace
 10
41.31299803014934
 20
19.70176707537783
 30
0.0
 11
41.37299803014935
 21
19.70176707537783
 31
0.0
 12
41.34299803014934
 22
19.52176707537783
 32
0.0
 13
41.34299803014934
 23
19.52176707537783
 33
0.0
  0
SOLID
  5
5C6
330
421
100
AcDbEntity
  8
DIMENSIONS
 62
     0
100
AcDbTrace
 10
41.31299803014934
 20
27.46676707537784
 30
0.0
 11
41.37299803014935
 21
27.46676707537784
 31
0.0
 12
41.34299803014934
 22
27.64676707537784
 32
0.0
 13
41.34299803014934
 23
27.64676707537784
 33
0.0
  0
MTEXT
  5
5C7
330
421
100
AcDbEntity
  8
DIMENSIONS
 62
     0
100
AcDbMText
 10
41.34299803014934
 20
23.86474326585403
 30
0.0
 40
0.25
 41
0.0
 71
     5
 72
     1
  1
\A1;8 1/8"
 73
     1
 44
1.0
  0
MTEXT
  5
5C8
330
421
100
AcDbEntity
  8
DIMENSIONS
 62
     0
100
AcDbMText
 10
41.34299803014934
 20
23.30379088490165
 30
0.0
 40
0.25
 41
0.0
 71
     5
 72
     1
  1
\A1;[205mm]
 73
     1
 44
1.0
  0
POINT
  5
5C9
330
421
100
AcDbEntity
  8
Defpoints
 62
     0
100
AcDbPoint
 10
38.86270198613246
 20
19.52176707537784
 30
0.0
  0
POINT
  5
5CA
330
421
100
AcDbEntity
  8
Defpoints
 62
     0
100
AcDbPoint
 10
38.9929181218379
 20
27.64676707537784
 30
0.0
  0
POINT
  5
5CB
330
421
100
AcDbEntity
  8
Defpoints
 62
     0
100
AcDbPoint
 10
41.34299803014934
 20
27.64676707537784
 30
0.0
  0
ENDBLK
  5
42E
330
421
100
AcDbEntity
  8
0
100
AcDbBlockEnd
  0
BLOCK
  5
43C
330
430
100
AcDbEntity
  8
0
100
AcDbBlockBegin
  2
*D14
 70
     1
 10
0.0
 20
0.0
 30
0.0
  3
*D14
  1

  0
LINE
  5
5CC
330
430
100
AcDbEntity
  8
DIMENSIONS
 62
     0
370
    -2
100
AcDbLine
 10
39.04270198613247
 20
19.52176707537784
 30
0.0
 11
41.52299803014935
 21
19.52176707537783
 31
0.0
  0
LINE
  5
5CD
330
430
100
AcDbEntity
  8
DIMENSIONS
 62
     0
370
    -2
100
AcDbLine
 10
38.51739150814952
 20
12.28676694627136
 30
0.0
 11
41.52299803014934
 21
12.28676694627136
 31
0.0
  0
LINE
  5
5CE
330
430
100
AcDbEntity
  8
DIMENSIONS
 62
     0
370
    -2
100
AcDbLine
 10
41.34299803014935
 20
19.34176707537783
 30
0.0
 11
41.34299803014935
 21
16.46521939177698
 31
0.0
  0
LINE
  5
5CF
330
430
100
AcDbEntity
  8
DIMENSIONS
 62
     0
370
    -2
100
AcDbLine
 10
41.34299803014934
 20
12.46676694627136
 30
0.0
 11
41.34299803014934
 21
15.34331462987221
 31
0.0
  0
SOLID
  5
5D0
330
430
100
AcDbEntity
  8
DIMENSIONS
 62
     0
100
AcDbTrace
 10
41.31299803014935
 20
19.34176707537783
 30
0.0
 11
41.37299803014935
 21
19.34176707537783
 31
0.0
 12
41.34299803014935
 22
19.52176707537783
 32
0.0
 13
41.34299803014935
 23
19.52176707537783
 33
0.0
  0
SOLID
  5
5D1
330
430
100
AcDbEntity
  8
DIMENSIONS
 62
     0
100
AcDbTrace
 10
41.31299803014934
 20
12.46676694627136
 30
0.0
 11
41.37299803014935
 21
12.46676694627136
 31
0.0
 12
41.34299803014934
 22
12.28676694627136
 32
0.0
 13
41.34299803014934
 23
12.28676694627136
 33
0.0
  0
MTEXT
  5
5D2
330
430
100
AcDbEntity
  8
DIMENSIONS
 62
     0
100
AcDbMText
 10
41.34299803014934
 20
16.18474320130079
 30
0.0
 40
0.25
 41
0.0
 71
     5
 72
     1
  1
\A1;7 1/4"
 73
     1
 44
1.0
  0
MTEXT
  5
5D3
330
430
100
AcDbEntity
  8
DIMENSIONS
 62
     0
100
AcDbMText
 10
41.34299803014934
 20
15.62379082034841
 30
0.0
 40
0.25
 41
0.0
 71
     5
 72
     1
  1
\A1;[185mm]
 73
     1
 44
1.0
  0
POINT
  5
5D4
330
430
100
AcDbEntity
  8
Defpoints
 62
     0
100
AcDbPoint
 10
38.86270198613246
 20
19.52176707537784
 30
0.0
  0
POINT
  5
5D5
330
430
100
AcDbEntity
  8
Defpoints
 62
     0
100
AcDbPoint
 10
38.33739150814952
 20
12.28676694627136
 30
0.0
  0
POINT
  5
5D6
330
430
100
AcDbEntity
  8
Defpoints
 62
     0
100
AcDbPoint
 10
41.34299803014934
 20
12.28676694627136
 30
0.0
  0
ENDBLK
  5
43D
330
430
100
AcDbEntity
  8
0
100
AcDbBlockEnd
  0
BLOCK
  5
476
330
46A
100
AcDbEntity
  8
0
100
AcDbBlockBegin
  2
*D15
 70
     1
 10
0.0
 20
0.0
 30
0.0
  3
*D15
  1

  0
LINE
  5
5D7
330
46A
100
AcDbEntity
  8
DIMENSIONS
 62
     0
370
    -2
100
AcDbLine
 10
11.72344896587393
 20
16.80888759968101
 30
0.0
 11
7.941841396515522
 21
16.80888759968102
 31
0.0
  0
LINE
  5
5D8
330
46A
100
AcDbEntity
  8
DIMENSIONS
 62
     0
370
    -2
100
AcDbLine
 10
10.20234770982535
 20
12.28676694627136
 30
0.0
 11
7.941841396515521
 21
12.28676694627136
 31
0.0
  0
LINE
  5
5D9
330
46A
100
AcDbEntity
  8
DIMENSIONS
 62
     0
370
    -2
100
AcDbLine
 10
8.121841396515522
 20
16.62888759968101
 30
0.0
 11
8.121841396515522
 21
15.06066683138121
 31
0.0
  0
LINE
  5
5DA
330
46A
100
AcDbEntity
  8
DIMENSIONS
 62
     0
370
    -2
100
AcDbLine
 10
8.121841396515522
 20
12.46676694627136
 30
0.0
 11
8.121841396515522
 21
14.03542873614311
 31
0.0
  0
SOLID
  5
5DB
330
46A
100
AcDbEntity
  8
DIMENSIONS
 62
     0
100
AcDbTrace
 10
8.091841396515523
 20
16.62888759968101
 30
0.0
 11
8.151841396515521
 21
16.62888759968101
 31
0.0
 12
8.121841396515522
 22
16.80888759968101
 32
0.0
 13
8.121841396515522
 23
16.80888759968101
 33
0.0
  0
SOLID
  5
5DC
330
46A
100
AcDbEntity
  8
DIMENSIONS
 62
     0
100
AcDbTrace
 10
8.091841396515523
 20
12.46676694627136
 30
0.0
 11
8.151841396515521
 21
12.46676694627136
 31
0.0
 12
8.121841396515522
 22
12.28676694627136
 32
0.0
 13
8.121841396515522
 23
12.28676694627136
 33
0.0
  0
MTEXT
  5
5DD
330
46A
100
AcDbEntity
  8
DIMENSIONS
 62
     0
100
AcDbMText
 10
8.12184139651552
 20
14.54804778376216
 30
0.0
 40
0.25
 41
0.0
 71
     5
 72
     1
  1
\A1;4 1/2"\P [115mm]
 73
     1
 44
1.0
  0
POINT
  5
5DE
330
46A
100
AcDbEntity
  8
Defpoints
 62
     0
100
AcDbPoint
 10
11.90344896587393
 20
16.80888759968101
 30
0.0
  0
POINT
  5
5DF
330
46A
100
AcDbEntity
  8
Defpoints
 62
     0
100
AcDbPoint
 10
10.38234770982535
 20
12.28676694627136
 30
0.0
  0
POINT
  5
5E0
330
46A
100
AcDbEntity
  8
Defpoints
 62
     0
100
AcDbPoint
 10
8.121841396515522
 20
12.28676694627136
 30
0.0
  0
ENDBLK
  5
477
330
46A
100
AcDbEntity
  8
0
100
AcDbBlockEnd
  0
ENDSEC
  0
SECTION
  2
ENTITIES
  0
CIRCLE
  5
167
330
1F
100
AcDbEntity
  8
Object
  6
Continuous
370
    15
100
AcDbCircle
 10
12.24634754339753
 20
20.42940132775861
 30
0.0
 40
0.4550000000000001
  0
LINE
  5
168
330
1F
100
AcDbEntity
  8
Object
  6
Continuous
370
    15
100
AcDbLine
 10
11.90634754444902
 20
16.73499910658052
 30
0.0
 11
21.59634768474052
 21
16.73499910658052
 31
0.0
  0
SPLINE
  5
169
330
1F
100
AcDbEntity
  8
Object
  6
Continuous
370
    15
100
AcDbSpline
210
0.0
220
0.0
230
1.0
 70
     8
 71
     3
 72
    43
 73
    39
 74
     0
 42
0.0000000001
 43
0.0000000001
 40
0.0
 40
0.0
 40
0.0
 40
0.0
 40
0.0320369762440685
 40
0.0590602850464761
 40
0.0804300696222444
 40
0.0978891968943768
 40
0.1123389560517761
 40
0.1389465427247601
 40
0.166714983404825
 40
0.1869491749773648
 40
0.2079332884032151
 40
0.2297913146723016
 40
0.2517540587579037
 40
0.270185398945579
 40
0.2990784832778924
 40
0.3389058795476853
 40
0.3792043888372587
 40
0.4170008991116238
 40
0.4546841692802736
 40
0.4924551258537408
 40
0.530274691244453
 40
0.5680529356054109
 40
0.6061119957118378
 40
0.6455860341974259
 40
0.6852969844362507
 40
0.7231152213279437
 40
0.7449907793666241
 40
0.7673284947682775
 40
0.7926181666393813
 40
0.8185270727901752
 40
0.842113419824866
 40
0.8543457472173706
 40
0.8685194281050033
 40
0.8866605349864189
 40
0.9088027414930321
 40
0.9350213482885273
 40
0.965426851799928
 40
1.0
 40
1.0
 40
1.0
 40
1.0
 10
12.83890005152288
 20
17.3279371369098
 30
0.0
 10
12.91296444909294
 20
17.35507677573719
 30
0.0
 10
13.0495024419097
 20
17.40510880101303
 30
0.0
 10
13.23828466970597
 20
17.4707083595666
 30
0.0
 10
13.39601286632721
 20
17.5246812130047
 30
0.0
 10
13.52570386188029
 20
17.56766819647257
 30
0.0
 10
13.66954094524243
 20
17.61393792373926
 30
0.0
 10
13.8404409200246
 20
17.66684373154322
 30
0.0
 10
14.02831373504645
 20
17.72187521917684
 30
0.0
 10
14.20427986391385
 20
17.77040275941553
 30
0.0
 10
14.36675243257514
 20
17.81274876791013
 30
0.0
 10
14.53518981253359
 20
17.85394356446859
 30
0.0
 10
14.69837988450266
 20
17.8910862797638
 30
0.0
 10
14.8813444685593
 20
17.92974945724487
 30
0.0
 10
15.11330198656134
 20
17.97426877463862
 30
0.0
 10
15.40634385358669
 20
18.02208214243657
 30
0.0
 10
15.72627216305389
 20
18.06308016519233
 30
0.0
 10
16.0425171131141
 20
18.09245775000233
 30
0.0
 10
16.35324657134701
 20
18.11058502137823
 30
0.0
 10
16.66478172371929
 20
18.11803148611071
 30
0.0
 10
16.97669859319521
 20
18.11480714510575
 30
0.0
 10
17.28891697267438
 20
18.10090801712419
 30
0.0
 10
17.60452315443513
 20
18.0758688857201
 30
0.0
 10
17.92353502430955
 20
18.0393221871367
 30
0.0
 10
18.23923924649919
 20
17.99198983483168
 30
0.0
 10
18.50467666546148
 20
17.94331190504088
 30
0.0
 10
18.72164237260921
 20
17.89826812546817
 30
0.0
 10
18.90405405409417
 20
17.85715634594648
 30
0.0
 10
19.09526804831115
 20
17.81050666135596
 30
0.0
 10
19.28757876201376
 20
17.75992575106146
 30
0.0
 10
19.44444592617253
 20
17.71590234827535
 30
0.0
 10
19.57032287022066
 20
17.67899043508516
 30
0.0
 10
19.68170970552781
 20
17.64530556584792
 30
0.0
 10
19.81666729161416
 20
17.60295351860099
 30
0.0
 10
19.97955350444964
 20
17.54991608570092
 30
0.0
 10
20.16949514766829
 20
17.4860115607945
 30
0.0
 10
20.38535142048205
 20
17.41268971062165
 30
0.0
 10
20.53506891148967
 20
17.35714017323805
 30
0.0
 10
20.61472899781669
 20
17.32758396765631
 30
0.0
  0
SPLINE
  5
16A
330
1F
100
AcDbEntity
  8
Object
  6
Continuous
370
    15
100
AcDbSpline
210
0.0
220
0.0
230
1.0
 70
     8
 71
     3
 72
    16
 73
    12
 74
     0
 42
0.0000000001
 43
0.0000000001
 40
0.0
 40
0.0
 40
0.0
 40
0.0
 40
0.0841185990061635
 40
0.1894546534764522
 40
0.2815634939617044
 40
0.3692143319763166
 40
0.4417361818728786
 40
0.5420803827692261
 40
0.6670558752519935
 40
0.8190306224814316
 40
1.0
 40
1.0
 40
1.0
 40
1.0
 10
11.90634754444902
 20
17.13443587891951
 30
0.0
 10
11.93424811798287
 20
17.136962587645
 30
0.0
 10
11.99708670009315
 20
17.14265332348321
 30
0.0
 10
12.08979703387867
 20
17.1527147913493
 30
0.0
 10
12.18220303564268
 20
17.16593889219965
 30
0.0
 10
12.2631715181648
 20
17.17880616748527
 30
0.0
 10
12.34590573234152
 20
17.19362980306163
 30
0.0
 10
12.43921289334524
 20
17.21253346909852
 30
0.0
 10
12.55505304402559
 20
17.23970120615065
 30
0.0
 10
12.69220710789803
 20
17.27738697282703
 30
0.0
 10
12.78726966855544
 20
17.31014572604865
 30
0.0
 10
12.83894023772531
 20
17.3279515100771
 30
0.0
  0
SPLINE
  5
16B
330
1F
100
AcDbEntity
  8
Object
  6
Continuous
370
    15
100
AcDbSpline
210
0.0
220
0.0
230
1.0
 70
     8
 71
     3
 72
    13
 73
     9
 74
     0
 42
0.0000000001
 43
0.0000000001
 40
0.0
 40
0.0
 40
0.0
 40
0.0
 40
0.1308857169931109
 40
0.2558140338481827
 40
0.4099547875420916
 40
0.5900412763648363
 40
0.7887981551939422
 40
1.0
 40
1.0
 40
1.0
 40
1.0
 10
20.61484222317537
 20
17.32754348812393
 30
0.0
 10
20.65412442864305
 20
17.31401513492363
 30
0.0
 10
20.7309008689606
 20
17.28757418565126
 30
0.0
 10
20.85692255487913
 20
17.24969901583554
 30
0.0
 10
21.0041777069833
 20
17.21384816075493
 30
0.0
 10
21.17979047176522
 20
17.17928103029561
 30
0.0
 10
21.37999424341032
 20
17.14935304853478
 30
0.0
 10
21.52278498894071
 20
17.1365067912887
 30
0.0
 10
21.59634768474052
 20
17.12988867811583
 30
0.0
  0
SPLINE
  5
16C
330
1F
100
AcDbEntity
  8
Object
  6
Continuous
370
    15
100
AcDbSpline
210
0.0
220
0.0
230
1.0
 70
     8
 71
     3
 72
    25
 73
    21
 74
     0
 42
0.0000000001
 43
0.0000000001
 40
0.0
 40
0.0
 40
0.0
 40
0.0
 40
0.0365100014126283
 40
0.096231082887321
 40
0.1460263087433559
 40
0.185891440109392
 40
0.2181584529007916
 40
0.2503650267931823
 40
0.2830848897189478
 40
0.3750769955335737
 40
0.4674277505089594
 40
0.5457821164247119
 40
0.622979235739042
 40
0.6934120717562538
 40
0.7220032129580557
 40
0.7594011193573838
 40
0.8058966458303025
 40
0.8614908244420327
 40
0.9261884790446737
 40
1.0
 40
1.0
 40
1.0
 40
1.0
 10
21.59634768474052
 20
17.05944695853125
 30
0.0
 10
21.53824796449053
 20
17.05756232087091
 30
0.0
 10
21.38511187085091
 20
17.05259489507283
 30
0.0
 10
21.15272720596034
 20
17.04494550048193
 30
0.0
 10
20.91500091695593
 20
17.03709606154446
 30
0.0
 10
20.72096347160851
 20
17.0306697922175
 30
0.0
 10
20.5549173552598
 20
17.0251696345005
 30
0.0
 10
20.40024158585012
 20
17.02004741588079
 30
0.0
 10
20.15051729384958
 20
17.01178900068834
 30
0.0
 10
19.80507625502859
 20
17.00041481893292
 30
0.0
 10
19.38700901691196
 20
16.98684103772962
 30
0.0
 10
18.99248686991434
 20
16.97428867918544
 30
0.0
 10
18.63284724641973
 20
16.96312396454493
 30
0.0
 10
18.35240344427003
 20
16.95470709806673
 30
0.0
 10
18.13529727584513
 20
16.948380430737
 30
0.0
 10
17.95628456313069
 20
16.94327549230855
 30
0.0
 10
17.73429908029671
 20
16.93713919183997
 30
0.0
 10
17.46887063442131
 20
16.93013590302506
 30
0.0
 10
17.15997594896926
 20
16.92242905336476
 30
0.0
 10
16.93956284862102
 20
16.91754026343758
 30
0.0
 10
16.82210473720245
 20
16.91493502794541
 30
0.0
  0
SPLINE
  5
16D
330
1F
100
AcDbEntity
  8
Object
  6
Continuous
370
    15
100
AcDbSpline
210
0.0
220
0.0
230
1.0
 70
     8
 71
     3
 72
     9
 73
     5
 74
     0
 42
0.0000000001
 43
0.0000000001
 40
0.0
 40
0.0
 40
0.0
 40
0.0
 40
0.5054376690219327
 40
1.0
 40
1.0
 40
1.0
 40
1.0
 10
16.63151569556999
 20
16.91491566816905
 30
0.0
 10
15.83542420653633
 20
16.93550910319434
 30
0.0
 10
14.26037047028795
 20
16.97625287099688
 30
0.0
 10
12.68531208895004
 20
17.03074058254805
 30
0.0
 10
11.90634754444902
 20
17.05768815218247
 30
0.0
  0
SPLINE
  5
16E
330
1F
100
AcDbEntity
  8
Object
  6
Continuous
370
    15
100
AcDbSpline
210
0.0
220
0.0
230
1.0
 70
     8
 71
     3
 72
     9
 73
     5
 74
     0
 42
0.0000000001
 43
0.0000000001
 40
0.0
 40
0.0
 40
0.0
 40
0.0
 40
0.5012569460825983
 40
1.0
 40
1.0
 40
1.0
 40
1.0
 10
16.8301123696976
 20
16.80933654116147
 30
0.0
 10
17.62647569423023
 20
16.82894481014509
 30
0.0
 10
19.21520844049209
 20
16.86806300917828
 30
0.0
 10
20.8039659249886
 20
16.9195871188647
 30
0.0
 10
21.59634768474052
 20
16.94528441068008
 30
0.0
  0
SPLINE
  5
16F
330
1F
100
AcDbEntity
  8
Object
  6
Continuous
370
    15
100
AcDbSpline
210
0.0
220
0.0
230
1.0
 70
     8
 71
     3
 72
     9
 73
     5
 74
     0
 42
0.0000000001
 43
0.0000000001
 40
0.0
 40
0.0
 40
0.0
 40
0.0
 40
0.4607881382474571
 40
1.0
 40
1.0
 40
1.0
 40
1.0
 10
11.90634754444902
 20
16.9436593627861
 30
0.0
 10
12.6307992377425
 20
16.91996055394264
 30
0.0
 10
14.20300050153551
 20
16.86852952333146
 30
0.0
 10
15.77518845261593
 20
16.83006807634702
 30
0.0
 10
16.62293084474292
 20
16.80932920791285
 30
0.0
  0
LINE
  5
170
330
1F
100
AcDbEntity
  8
Object
  6
Continuous
370
    15
100
AcDbLine
 10
16.82210558052604
 20
16.91493678792508
 30
0.0
 11
16.72217457345319
 21
16.91404125160372
 31
0.0
  0
LINE
  5
171
330
1F
100
AcDbEntity
  8
Object
  6
Continuous
370
    15
100
AcDbLine
 10
16.72217457860938
 20
16.91404183826361
 30
0.0
 11
16.6315151089101
 21
16.91491684148883
 31
0.0
  0
LINE
  5
172
330
1F
100
AcDbEntity
  8
Object
  6
Continuous
370
    15
100
AcDbLine
 10
16.72200977100805
 20
16.80843953819039
 30
0.0
 11
16.83011110471221
 21
16.80933566117164
 31
0.0
  0
LINE
  5
173
330
1F
100
AcDbEntity
  8
Object
  6
Continuous
370
    15
100
AcDbLine
 10
16.62293172473275
 20
16.80932862125296
 30
0.0
 11
16.72200977272677
 21
16.80843983152034
 31
0.0
  0
SPLINE
  5
174
330
1F
100
AcDbEntity
  8
Object
  6
Continuous
370
    15
100
AcDbSpline
210
0.0
220
0.0
230
1.0
 70
    24
 71
     3
 72
    10
 73
     6
 74
     0
 42
0.0000000001
 43
0.0000000001
 40
0.0
 40
0.0
 40
0.0
 40
0.0
 40
0.2381278397750108
 40
0.7054631391759474
 40
1.0
 40
1.0
 40
1.0
 40
1.0
 10
12.28734764976996
 20
20.50673633181691
 30
0.0
 10
12.28734764976995
 20
20.50935280501067
 30
0.0
 10
12.28734764976995
 20
20.51710421028349
 30
0.0
 10
12.28734764976996
 20
20.53050771037277
 30
0.0
 10
12.28734764976996
 20
20.54118979601481
 30
0.0
 10
12.28734764976996
 20
20.54531944943478
 30
0.0
  0
SPLINE
  5
175
330
1F
100
AcDbEntity
  8
Object
  6
Continuous
370
    15
100
AcDbSpline
210
0.0
220
0.0
230
1.0
 70
    24
 71
     3
 72
    10
 73
     6
 74
     0
 42
0.0000000001
 43
0.0000000001
 40
0.0
 40
0.0
 40
0.0
 40
0.0
 40
0.3946402469816234
 40
0.8544724670835805
 40
1.0
 40
1.0
 40
1.0
 40
1.0
 10
12.28734764976995
 20
20.31348319429365
 30
0.0
 10
12.28734764976995
 20
20.31902324828889
 30
0.0
 10
12.28734764976995
 20
20.3310185367606
 30
0.0
 10
12.28734764976996
 20
20.34396032599145
 30
0.0
 10
12.28734764976996
 20
20.35049531163637
 30
0.0
 10
12.28734764976996
 20
20.35206631191151
 30
0.0
  0
SPLINE
  5
176
330
1F
100
AcDbEntity
  8
Object
  6
Continuous
370
    15
100
AcDbSpline
210
0.0
220
0.0
230
1.0
 70
    24
 71
     3
 72
    10
 73
     6
 74
     0
 42
0.0000000001
 43
0.0000000001
 40
0.0
 40
0.0
 40
0.0
 40
0.0
 40
0.208804648387087
 40
0.6616398872469023
 40
1.0
 40
1.0
 40
1.0
 40
1.0
 10
12.20534755704203
 20
20.35206631191151
 30
0.0
 10
12.20534755704202
 20
20.34978425232298
 30
0.0
 10
12.20534755704203
 20
20.34255308357024
 30
0.0
 10
12.20534755704203
 20
20.32933095790525
 30
0.0
 10
12.20534755704203
 20
20.3182304167645
 30
0.0
 10
12.20534755704203
 20
20.31348319429365
 30
0.0
  0
SPLINE
  5
177
330
1F
100
AcDbEntity
  8
Object
  6
Continuous
370
    15
100
AcDbSpline
210
0.0
220
0.0
230
1.0
 70
    24
 71
     3
 72
    11
 73
     7
 74
     0
 42
0.0000000001
 43
0.0000000001
 40
0.0
 40
0.0
 40
0.0
 40
0.0
 40
0.023391087356221
 40
0.4613200024821176
 40
0.7619480629990053
 40
1.0
 40
1.0
 40
1.0
 40
1.0
 10
12.20534755704203
 20
20.54531944943478
 30
0.0
 10
12.20534755704203
 20
20.54499131473542
 30
0.0
 10
12.20534755704203
 20
20.53851982848009
 30
0.0
 10
12.20534755704202
 20
20.5278121028395
 30
0.0
 10
12.20534755704203
 20
20.51527325100098
 30
0.0
 10
12.20534755704203
 20
20.50935271728721
 30
0.0
 10
12.20534755704203
 20
20.50673633181691
 30
0.0
  0
CIRCLE
  5
178
330
1F
100
AcDbEntity
  8
Object
  6
Continuous
370
    15
100
AcDbCircle
 10
12.24634754339753
 20
20.42940132775861
 30
0.0
 40
0.3099999999999987
  0
LINE
  5
179
330
1F
100
AcDbEntity
  8
Object
  6
Continuous
370
    15
100
AcDbLine
 10
12.20534755704203
 20
20.27940133467686
 30
0.0
 11
12.28734764976996
 21
20.27940133467686
 31
0.0
  0
LINE
  5
17A
330
1F
100
AcDbEntity
  8
Object
  6
Continuous
370
    15
100
AcDbLine
 10
12.28734764976996
 20
20.66940132519703
 30
0.0
 11
12.20534755704203
 21
20.66940132519703
 31
0.0
  0
LINE
  5
17B
330
1F
100
AcDbEntity
  8
Object
  6
Continuous
370
    15
100
AcDbLine
 10
12.20534755704203
 20
20.31348319429365
 30
0.0
 11
12.20534755704203
 21
20.27940133467686
 31
0.0
  0
LINE
  5
17C
330
1F
100
AcDbEntity
  8
Object
  6
Continuous
370
    15
100
AcDbLine
 10
12.20534755704203
 20
20.66940132519703
 30
0.0
 11
12.20534755704203
 21
20.54531944943478
 31
0.0
  0
LINE
  5
17D
330
1F
100
AcDbEntity
  8
Object
  6
Continuous
370
    15
100
AcDbLine
 10
12.28734764976996
 20
20.54531944943478
 30
0.0
 11
12.28734764976996
 21
20.66940132519703
 31
0.0
  0
LINE
  5
17E
330
1F
100
AcDbEntity
  8
Object
  6
Continuous
370
    15
100
AcDbLine
 10
12.28734764976996
 20
20.27940133467686
 30
0.0
 11
12.28734764976996
 21
20.31348319429365
 31
0.0
  0
SPLINE
  5
17F
330
1F
100
AcDbEntity
  8
Object
  6
Continuous
370
    15
100
AcDbSpline
210
0.0
220
0.0
230
1.0
 70
    24
 71
     3
 72
    13
 73
     9
 74
     0
 42
0.0000000001
 43
0.0000000001
 40
0.0
 40
0.0
 40
0.0
 40
0.0
 40
0.1367512571526378
 40
0.3636819644844745
 40
0.5004753642933581
 40
0.7402807352097831
 40
0.9803999539682678
 40
1.0
 40
1.0
 40
1.0
 40
1.0
 10
12.28734764976996
 20
20.35206631191151
 30
0.0
 10
12.28734764976995
 20
20.35811531004332
 30
0.0
 10
12.28734764976996
 20
20.3742022665331
 30
0.0
 10
12.28734764976996
 20
20.40136524129662
 30
0.0
 10
12.28734764976995
 20
20.43514321306831
 30
0.0
 10
12.28734764976996
 20
20.46995000002663
 30
0.0
 10
12.28734764976995
 20
20.49492438309115
 30
0.0
 10
12.28734764976996
 20
20.50590747849464
 30
0.0
 10
12.28734764976996
 20
20.50673633181691
 30
0.0
  0
SPLINE
  5
180
330
1F
100
AcDbEntity
  8
Object
  6
Continuous
370
    15
100
AcDbSpline
210
0.0
220
0.0
230
1.0
 70
    24
 71
     3
 72
    13
 73
     9
 74
     0
 42
0.0000000001
 43
0.0000000001
 40
0.0
 40
0.0
 40
0.0
 40
0.0
 40
0.1367512571526378
 40
0.3636819644844745
 40
0.5004753642933581
 40
0.7402807352097831
 40
0.9803999539682678
 40
1.0
 40
1.0
 40
1.0
 40
1.0
 10
12.20534755704203
 20
20.50673633181691
 30
0.0
 10
12.20534755704203
 20
20.50068733368511
 30
0.0
 10
12.20534755704203
 20
20.48460037719533
 30
0.0
 10
12.20534755704203
 20
20.4574374024318
 30
0.0
 10
12.20534755704203
 20
20.42365943066011
 30
0.0
 10
12.20534755704203
 20
20.38885264370179
 30
0.0
 10
12.20534755704203
 20
20.36387826063728
 30
0.0
 10
12.20534755704203
 20
20.35289516523379
 30
0.0
 10
12.20534755704203
 20
20.35206631191151
 30
0.0
  0
LINE
  5
181
330
1F
100
AcDbEntity
  8
Object
  6
Continuous
370
    15
100
AcDbLine
 10
12.20534755704203
 20
20.45940131196843
 30
0.0
 11
12.28734764976996
 21
20.45940131196843
 31
0.0
  0
ARC
  5
182
330
1F
100
AcDbEntity
  8
Object
  6
Continuous
370
    15
100
AcDbCircle
 10
12.24634754339753
 20
20.42940132775861
 30
0.0
 40
0.1150000000000013
100
AcDbArc
 50
249.1132628872567
 51
290.8867371127457
  0
CIRCLE
  5
183
330
1F
100
AcDbEntity
  8
Object
  6
Continuous
370
    15
100
AcDbCircle
 10
12.24634754339753
 20
20.42940132775861
 30
0.0
 40
0.3150000000000004
  0
SPLINE
  5
184
330
1F
100
AcDbEntity
  8
Object
  6
Continuous
370
    15
100
AcDbSpline
210
0.0
220
0.0
230
1.0
 70
     8
 71
     3
 72
    14
 73
    10
 74
     0
 42
0.0000000001
 43
0.0000000001
 40
0.0
 40
0.0
 40
0.0
 40
0.0
 40
0.0781620506144467
 40
0.1763793864833482
 40
0.2672788674967313
 40
0.3710826889002891
 40
0.4774811311246864
 40
0.7345664825768985
 40
0.9999999999999998
 40
0.9999999999999998
 40
0.9999999999999998
 40
0.9999999999999998
 10
21.59634768474052
 20
17.24735793443429
 30
0.0
 10
21.57170680793139
 20
17.24970323868959
 30
0.0
 10
21.51610255113618
 20
17.25499561935789
 30
0.0
 10
21.43229884376
 20
17.26428906232594
 30
0.0
 10
21.34160919924447
 20
17.27690162321375
 30
0.0
 10
21.24961534631665
 20
17.29211198040227
 30
0.0
 10
21.10896875747452
 20
17.31916258468579
 30
0.0
 10
20.92447689026624
 20
17.36325576429618
 30
0.0
 10
20.78207015044085
 20
17.41333293966313
 30
0.0
 10
20.70972918036647
 20
17.43877156320772
 30
0.0
  0
SPLINE
  5
185
330
1F
100
AcDbEntity
  8
Object
  6
Continuous
370
    15
100
AcDbSpline
210
0.0
220
0.0
230
1.0
 70
     8
 71
     3
 72
    27
 73
    23
 74
     0
 42
0.0000000001
 43
0.0000000001
 40
0.0
 40
0.0
 40
0.0
 40
0.0
 40
0.0266626826619126
 40
0.0501230973563468
 40
0.070393178161697
 40
0.0936607531210214
 40
0.1170286085923673
 40
0.1402017452203353
 40
0.1952045555446353
 40
0.2501517254963696
 40
0.3127500358979311
 40
0.3751572392373819
 40
0.4374651499678457
 40
0.5000180584900316
 40
0.5626367611160566
 40
0.6249192809680098
 40
0.6872104018667983
 40
0.7498547282663992
 40
0.8121529553751049
 40
0.8743833863895826
 40
0.9368869369747635
 40
1.0
 40
1.0
 40
1.0
 40
1.0
 10
20.70972918036647
 20
17.43877156320772
 30
0.0
 10
20.64666522670965
 20
17.46240475469096
 30
0.0
 10
20.52811148892946
 20
17.50683272064533
 30
0.0
 10
20.35920841137035
 20
17.57018719320267
 30
0.0
 10
20.19595132714938
 20
17.62957455543143
 30
0.0
 10
20.02985021366814
 20
17.68706393082073
 30
0.0
 10
19.85435332066353
 20
17.74586900671403
 30
0.0
 10
19.59553744998864
 20
17.82860848897712
 30
0.0
 10
19.24896992754471
 20
17.93018367568307
 30
0.0
 10
18.78861990782997
 20
18.04547950137165
 30
0.0
 10
18.29816951459376
 20
18.14417861155692
 30
0.0
 10
17.77912661111158
 20
18.22002910597231
 30
0.0
 10
17.25437701260753
 20
18.26625201202016
 30
0.0
 10
16.72615945142068
 20
18.2816255638927
 30
0.0
 10
16.19801098695953
 20
18.26629620878605
 30
0.0
 10
15.67346395652682
 20
18.22018986014315
 30
0.0
 10
15.15466129189607
 20
18.14439595864078
 30
0.0
 10
14.64448709739751
 20
18.04147066504892
 30
0.0
 10
14.14561751678025
 20
17.91507982435253
 30
0.0
 10
13.6616966685831
 20
17.76902475567287
 30
0.0
 10
13.19102283222784
 20
17.6079875067077
 30
0.0
 10
12.89280055618271
 20
17.49535904164444
 30
0.0
 10
12.74296590642898
 20
17.43877156320772
 30
0.0
  0
SPLINE
  5
186
330
1F
100
AcDbEntity
  8
Object
  6
Continuous
370
    15
100
AcDbSpline
210
0.0
220
0.0
230
1.0
 70
     8
 71
     3
 72
    14
 73
    10
 74
     0
 42
0.0000000001
 43
0.0000000001
 40
0.0
 40
0.0
 40
0.0
 40
0.0
 40
0.1300091302619628
 40
0.2339440938274844
 40
0.3300946825844467
 40
0.4398295816287791
 40
0.5522499680412377
 40
0.8235819589013646
 40
1.0
 40
1.0
 40
1.0
 40
1.0
 10
12.74296590642898
 20
17.43877156320772
 30
0.0
 10
12.70955740489818
 20
17.42678623789994
 30
0.0
 10
12.64944069154883
 20
17.40521932130951
 30
0.0
 10
12.56314837317689
 20
17.37691342162798
 30
0.0
 10
12.47973360263171
 20
17.35311526109056
 30
0.0
 10
12.3921560465669
 20
17.33109447222036
 30
0.0
 10
12.25380688796015
 20
17.30067679911147
 30
0.0
 10
12.09242299769542
 20
17.27195900672526
 30
0.0
 10
11.95894085765306
 20
17.25862516150574
 30
0.0
 10
11.90634754444902
 20
17.25337149163183
 30
0.0
  0
SPLINE
  5
188
330
1F
100
AcDbEntity
  8
Object
  6
Continuous
370
    15
100
AcDbSpline
210
0.0
220
0.0
230
1.0
 70
     8
 71
     3
 72
    24
 73
    20
 74
     0
 42
0.0000000001
 43
0.0000000001
 40
0.0
 40
0.0
 40
0.0
 40
0.0
 40
0.0529929650713309
 40
0.1005779545851365
 40
0.1501135880967366
 40
0.2002109174730275
 40
0.2501287210824167
 40
0.3127411069113509
 40
0.375149009168986
 40
0.4374580576148654
 40
0.5000084687509254
 40
0.5626337496485541
 40
0.6249127809647525
 40
0.6872094916735155
 40
0.7498422121351878
 40
0.8121504199153054
 40
0.8743813936725631
 40
0.9368867729546369
 40
1.0
 40
1.0
 40
1.0
 40
1.0
 10
12.74296590642898
 20
17.43877156320772
 30
0.0
 10
12.86850070326671
 20
17.48626497457761
 30
0.0
 10
13.10675936794426
 20
17.57640505572659
 30
0.0
 10
13.47805678960026
 20
17.70739690704154
 30
0.0
 10
13.85284367054374
 20
17.82801254719393
 30
0.0
 10
14.24340525108492
 20
17.94044654826057
 30
0.0
 10
14.67773191016987
 20
18.04818891879591
 30
0.0
 10
15.15448404752567
 20
18.14418451313945
 30
0.0
 10
15.67357134433165
 20
18.22002637558727
 30
0.0
 10
16.19831031530521
 20
18.26625176168809
 30
0.0
 10
16.72653597763165
 20
18.28162597265888
 30
0.0
 10
17.25467908846594
 20
18.26629711919436
 30
0.0
 10
17.77924362664016
 20
18.22018911828176
 30
0.0
 10
18.29801216226686
 20
18.14439732294765
 30
0.0
 10
18.80819178505264
 20
18.04147440746983
 30
0.0
 10
19.30705226619438
 20
17.91508702518544
 30
0.0
 10
19.79099969096214
 20
17.76902472354037
 30
0.0
 10
20.26167263463983
 20
17.60798716598927
 30
0.0
 10
20.5598959805599
 20
17.49535842811076
 30
0.0
 10
20.70972918036647
 20
17.43877156320772
 30
0.0
  0
SPLINE
  5
189
330
1F
100
AcDbEntity
  8
Object
  6
Continuous
370
    15
100
AcDbSpline
210
0.0
220
0.0
230
1.0
 70
     8
 71
     3
 72
    12
 73
     8
 74
     0
 42
0.0000000001
 43
0.0000000001
 40
0.0
 40
0.0
 40
0.0
 40
0.0
 40
0.1240568219664715
 40
0.2511866074578288
 40
0.4974166644307723
 40
0.7521712162146469
 40
1.0
 40
1.0
 40
1.0
 40
1.0
 10
20.70972918036647
 20
17.43877156320772
 30
0.0
 10
20.70756109961084
 20
17.43654071287605
 30
0.0
 10
20.70317123341025
 20
17.43202375268254
 30
0.0
 10
20.6960065274286
 20
17.41763932341897
 30
0.0
 10
20.69115997965629
 20
17.39845350611079
 30
0.0
 10
20.67954438664138
 20
17.37738834827217
 30
0.0
 10
20.67085571946761
 20
17.36837660630953
 30
0.0
 10
20.66657125226388
 20
17.36393282775118
 30
0.0
  0
SPLINE
  5
18A
330
1F
100
AcDbEntity
  8
Object
  6
Continuous
370
    15
100
AcDbSpline
210
0.0
220
0.0
230
1.0
 70
     8
 71
     3
 72
    12
 73
     8
 74
     0
 42
0.0000000001
 43
0.0000000001
 40
0.0
 40
0.0
 40
0.0
 40
0.0
 40
0.1240577627591777
 40
0.2511857583280491
 40
0.4974208522192729
 40
0.7521718666938858
 40
1.0
 40
1.0
 40
1.0
 40
1.0
 10
12.74296590642898
 20
17.43877156320771
 30
0.0
 10
12.7451567715368
 20
17.43654928772106
 30
0.0
 10
12.74959272218804
 20
17.43204973895511
 30
0.0
 10
12.75683207894015
 20
17.41769331329215
 30
0.0
 10
12.76172987066815
 20
17.39852692217509
 30
0.0
 10
12.77346654793942
 20
17.37750751677635
 30
0.0
 10
12.78224620347553
 20
17.36853012021849
 30
0.0
 10
12.78657556264651
 20
17.36410325244908
 30
0.0
  0
SPLINE
  5
18B
330
1F
100
AcDbEntity
  8
Object
  6
Continuous
370
    15
100
AcDbSpline
210
0.0
220
0.0
230
1.0
 70
     8
 71
     3
 72
    10
 73
     6
 74
     0
 42
0.0000000001
 43
0.0000000001
 40
0.0
 40
0.0
 40
0.0
 40
0.0
 40
0.4169517062723757
 40
0.9443680400497449
 40
1.0
 40
1.0
 40
1.0
 40
1.0
 10
20.63016460616989
 20
17.33262718939658
 30
0.0
 10
20.62786332709559
 20
17.3309750347566
 30
0.0
 10
20.62265108218493
 20
17.32723301376053
 30
0.0
 10
20.61725301533881
 20
17.32607212781507
 30
0.0
 10
20.61501097610268
 20
17.32763222738927
 30
0.0
 10
20.61479705036388
 20
17.32778108537918
 30
0.0
  0
SPLINE
  5
18C
330
1F
100
AcDbEntity
  8
Object
  6
Continuous
370
    15
100
AcDbSpline
210
0.0
220
0.0
230
1.0
 70
     8
 71
     3
 72
    10
 73
     6
 74
     0
 42
0.0000000001
 43
0.0000000001
 40
0.0
 40
0.0
 40
0.0
 40
0.0
 40
0.418349580831691
 40
0.9475432740973099
 40
1.0
 40
1.0
 40
1.0
 40
1.0
 10
12.82336324433873
 20
17.33294134576742
 30
0.0
 10
12.82568834903812
 20
17.33129894819543
 30
0.0
 10
12.83095460821565
 20
17.32757899042796
 30
0.0
 10
12.83639528219532
 20
17.32643455103151
 30
0.0
 10
12.83864898618887
 20
17.32798987918537
 30
0.0
 10
12.83885223874188
 20
17.32813014801346
 30
0.0
  0
SPLINE
  5
18D
330
1F
100
AcDbEntity
  8
Object
  6
Continuous
370
    15
100
AcDbSpline
210
0.0
220
0.0
230
1.0
 70
     8
 71
     3
 72
    13
 73
     9
 74
     0
 42
0.0000000001
 43
0.0000000001
 40
0.0
 40
0.0
 40
0.0
 40
0.0
 40
0.0711651237368806
 40
0.2046345302766461
 40
0.3580872343436981
 40
0.5127212472144907
 40
0.7526724458280205
 40
1.0
 40
1.0
 40
1.0
 40
1.0
 10
11.90634754444902
 20
17.25246686208219
 30
0.0
 10
11.92758817979606
 20
17.25451284809515
 30
0.0
 10
11.98866539302608
 20
17.26039605836346
 30
0.0
 10
12.09423520956669
 20
17.27398404366047
 30
0.0
 10
12.22199097775412
 20
17.29514989896652
 30
0.0
 10
12.37729855965569
 20
17.32667807243227
 30
0.0
 10
12.55376308087125
 20
17.3716546470301
 30
0.0
 10
12.67926502114604
 20
17.41617461220885
 30
0.0
 10
12.74296590642898
 20
17.43877156320771
 30
0.0
  0
SPLINE
  5
18E
330
1F
100
AcDbEntity
  8
Object
  6
Continuous
370
    15
100
AcDbSpline
210
0.0
220
0.0
230
1.0
 70
     8
 71
     3
 72
    13
 73
     9
 74
     0
 42
0.0000000001
 43
0.0000000001
 40
0.0
 40
0.0
 40
0.0
 40
0.0
 40
0.1653976736606842
 40
0.2920069935944761
 40
0.4374536754320107
 40
0.5838866431314492
 40
0.8109259256348812
 40
1.0
 40
1.0
 40
1.0
 40
1.0
 10
20.70972918036647
 20
17.43877156320772
 30
0.0
 10
20.7546002269429
 20
17.42266995349327
 30
0.0
 10
20.83381935451723
 20
17.39424281458205
 30
0.0
 10
20.95662149595124
 20
17.356959015415
 30
0.0
 10
21.07844893100482
 20
17.32653813069542
 30
0.0
 10
21.23311490640109
 20
17.29419942671168
 30
0.0
 10
21.40557928524373
 20
17.26619783031415
 30
0.0
 10
21.53674737466891
 20
17.25350451857493
 30
0.0
 10
21.59634768474052
 20
17.24773691672292
 30
0.0
  0
LINE
  5
194
330
1F
100
AcDbEntity
  8
Object
  6
Continuous
370
    15
100
AcDbLine
 10
11.94009339461408
 20
13.71134083613888
 30
0.0
 11
21.56260183457546
 21
13.71134083613888
 31
0.0
  0
LINE
  5
195
330
1F
100
AcDbEntity
  8
Object
  6
Continuous
370
    15
100
AcDbLine
 10
16.75084754432996
 20
12.30476684500166
 30
0.0
 11
16.75184754277789
 21
12.30476684500166
 31
0.0
  0
LINE
  5
196
330
1F
100
AcDbEntity
  8
Object
  6
Continuous
370
    15
100
AcDbLine
 10
10.45634781496963
 20
29.49030244956119
 30
0.0
 11
10.38588292231941
 21
29.56076734221141
 31
0.0
  0
LINE
  5
197
330
1F
100
AcDbEntity
  8
Object
  6
Continuous
370
    15
100
AcDbLine
 10
23.11681201354018
 20
29.56076734221141
 30
0.0
 11
23.04634770754986
 21
29.49030244956119
 31
0.0
  0
LINE
  5
198
330
1F
100
AcDbEntity
  8
Object
  6
Continuous
370
    15
100
AcDbLine
 10
23.12034781269433
 20
12.3263025428861
 30
0.0
 11
23.04988292004412
 21
12.39676684887643
 31
0.0
  0
LINE
  5
199
330
1F
100
AcDbEntity
  8
Object
  6
Continuous
370
    15
100
AcDbLine
 10
23.04988292004412
 20
29.48676723706693
 30
0.0
 11
23.12034781269433
 21
29.55723154305726
 31
0.0
  0
LINE
  5
19A
330
1F
100
AcDbEntity
  8
Object
  6
Continuous
370
    15
100
AcDbLine
 10
10.45281201581548
 20
12.39676684887643
 30
0.0
 11
10.38234770982516
 21
12.3263025428861
 31
0.0
  0
LINE
  5
19B
330
1F
100
AcDbEntity
  8
Object
  6
Continuous
370
    15
100
AcDbLine
 10
10.38234770982516
 20
29.55723154305726
 30
0.0
 11
10.45281201581548
 21
29.48676723706693
 31
0.0
  0
SPLINE
  5
19C
330
1F
100
AcDbEntity
  8
Object
  6
Continuous
370
    15
100
AcDbSpline
210
0.0
220
0.0
230
1.0
 70
     8
 71
     3
 72
    11
 73
     7
 74
     0
 42
0.0000000001
 43
0.0000000001
 40
0.0
 40
0.0
 40
0.0
 40
0.0
 40
0.2499987183715622
 40
0.4999985554715909
 40
0.7500006272444347
 40
0.9999999999999998
 40
0.9999999999999998
 40
0.9999999999999998
 40
0.9999999999999998
 10
23.15634761015493
 20
12.32276733039185
 30
0.0
 10
23.15580648624234
 20
12.32306176392464
 30
0.0
 10
23.15472423599567
 20
12.32365063230779
 30
0.0
 10
23.14639929998616
 20
12.32453519335495
 30
0.0
 10
23.13449981531824
 20
12.32541823068127
 30
0.0
 10
23.12506512992609
 20
12.32600777321195
 30
0.0
 10
23.12034781269433
 20
12.3263025428861
 30
0.0
  0
LINE
  5
19D
330
1F
100
AcDbEntity
  8
Object
  6
Continuous
370
    15
100
AcDbLine
 10
23.13834771142463
 20
12.32276733039185
 30
0.0
 11
23.15634761015493
 21
12.32276733039185
 31
0.0
  0
SPLINE
  5
19E
330
1F
100
AcDbEntity
  8
Object
  6
Continuous
370
    15
100
AcDbSpline
210
0.0
220
0.0
230
1.0
 70
     8
 71
     3
 72
    11
 73
     7
 74
     0
 42
0.0000000001
 43
0.0000000001
 40
0.0
 40
0.0
 40
0.0
 40
0.0
 40
0.2500025014627281
 40
0.5000060433285531
 40
0.7500069982381355
 40
0.9999999999999998
 40
0.9999999999999998
 40
0.9999999999999998
 40
0.9999999999999998
 10
23.13834771142463
 20
12.32276733039185
 30
0.0
 10
23.1380770219874
 20
12.32306176419466
 30
0.0
 10
23.13753564198644
 20
12.3236506330256
 30
0.0
 10
23.13337335437126
 20
12.32453518415075
 30
0.0
 10
23.12742351391121
 20
12.32541822072931
 30
0.0
 10
23.12270635475548
 20
12.32600777195973
 30
0.0
 10
23.12034781269433
 20
12.3263025428861
 30
0.0
  0
LINE
  5
19F
330
1F
100
AcDbEntity
  8
Object
  6
Continuous
370
    15
100
AcDbLine
 10
10.38234770982516
 20
29.596767139672
 30
0.0
 11
10.38234770982516
 21
29.57876724094171
 31
0.0
  0
SPLINE
  5
1A0
330
1F
100
AcDbEntity
  8
Object
  6
Continuous
370
    15
100
AcDbSpline
210
0.0
220
0.0
230
1.0
 70
     8
 71
     3
 72
    11
 73
     7
 74
     0
 42
0.0000000001
 43
0.0000000001
 40
0.0
 40
0.0
 40
0.0
 40
0.0
 40
0.2499987183737566
 40
0.5000014445240203
 40
0.7500012816262433
 40
1.0
 40
1.0
 40
1.0
 40
1.0
 10
10.38588292231941
 20
29.56076734221141
 30
0.0
 10
10.38558846645769
 20
29.56548466542343
 30
0.0
 10
10.38499955001378
 20
29.57491938747176
 30
0.0
 10
10.38411532312702
 20
29.5868188076857
 30
0.0
 10
10.38323107434872
 20
29.59514376915122
 30
0.0
 10
10.38264216422712
 20
29.59622601697224
 30
0.0
 10
10.38234770982516
 20
29.596767139672
 30
0.0
  0
SPLINE
  5
1A1
330
1F
100
AcDbEntity
  8
Object
  6
Continuous
370
    15
100
AcDbSpline
210
0.0
220
0.0
230
1.0
 70
     8
 71
     3
 72
    11
 73
     7
 74
     0
 42
0.0000000001
 43
0.0000000001
 40
0.0
 40
0.0
 40
0.0
 40
0.0
 40
0.2499904147238174
 40
0.4999939566169106
 40
0.7499974985100039
 40
1.0
 40
1.0
 40
1.0
 40
1.0
 10
10.38588292231941
 20
29.56076734221141
 30
0.0
 10
10.38558846381934
 20
29.56312589609341
 30
0.0
 10
10.38499953135697
 20
29.5678431277067
 30
0.0
 10
10.38411531912257
 20
29.57379284076213
 30
0.0
 10
10.38323107433673
 20
29.57795517869585
 30
0.0
 10
10.38264216425388
 20
29.57849655390192
 30
0.0
 10
10.38234770982516
 20
29.57876724094171
 30
0.0
  0
LINE
  5
1A2
330
1F
100
AcDbEntity
  8
Object
  6
Continuous
370
    15
100
AcDbLine
 10
23.15634761015493
 20
29.56076734221141
 30
0.0
 11
23.13834771142463
 21
29.56076734221141
 31
0.0
  0
SPLINE
  5
1A3
330
1F
100
AcDbEntity
  8
Object
  6
Continuous
370
    15
100
AcDbSpline
210
0.0
220
0.0
230
1.0
 70
     8
 71
     3
 72
    11
 73
     7
 74
     0
 42
0.0000000001
 43
0.0000000001
 40
0.0
 40
0.0
 40
0.0
 40
0.0
 40
0.249999209160082
 40
0.5000011173356765
 40
0.7500007908399179
 40
1.0
 40
1.0
 40
1.0
 40
1.0
 10
23.12034781269433
 20
29.55723154305726
 30
0.0
 10
23.12506512993398
 20
29.55752630925315
 30
0.0
 10
23.13449981534191
 20
29.55811584482725
 30
0.0
 10
23.14639929989148
 20
29.55899893432813
 30
0.0
 10
23.15472424361435
 20
29.55988329788521
 30
0.0
 10
23.15580648830976
 20
29.56047266095178
 30
0.0
 10
23.15634761015493
 20
29.56076734221141
 30
0.0
  0
SPLINE
  5
1A4
330
1F
100
AcDbEntity
  8
Object
  6
Continuous
370
    15
100
AcDbSpline
210
0.0
220
0.0
230
1.0
 70
     8
 71
     3
 72
    11
 73
     7
 74
     0
 42
0.0000000001
 43
0.0000000001
 40
0.0
 40
0.0
 40
0.0
 40
0.0
 40
0.2499923550465817
 40
0.499992663220307
 40
0.7499955583435826
 40
1.0
 40
1.0
 40
1.0
 40
1.0
 10
23.12034781269433
 20
29.55723154305726
 30
0.0
 10
23.1227063547711
 20
29.55752631054624
 30
0.0
 10
23.12742351395808
 20
29.5581158549018
 30
0.0
 10
23.13337335418376
 20
29.55899894304338
 30
0.0
 10
23.13753565704624
 20
29.5598833012764
 30
0.0
 10
23.13807702607368
 20
29.5604726612921
 30
0.0
 10
23.13834771142463
 20
29.56076734221141
 30
0.0
  0
SPLINE
  5
1A5
330
1F
100
AcDbEntity
  8
Object
  6
Continuous
370
    15
100
AcDbSpline
210
0.0
220
0.0
230
1.0
 70
     8
 71
     3
 72
    11
 73
     7
 74
     0
 42
0.0000000001
 43
0.0000000001
 40
0.0
 40
0.0
 40
0.0
 40
0.0
 40
0.2499977646311221
 40
0.5000017717378387
 40
0.750002235368878
 40
0.9999999999999998
 40
0.9999999999999998
 40
0.9999999999999998
 40
0.9999999999999998
 10
10.34634732570467
 20
29.56076734221141
 30
0.0
 10
10.34688840617036
 20
29.56047265864091
 30
0.0
 10
10.34797058061259
 20
29.55988328414163
 30
0.0
 10
10.35629628662784
 20
29.55899894843163
 30
0.0
 10
10.36819566825928
 20
29.55811584300228
 30
0.0
 10
10.37763037961278
 20
29.55752630864483
 30
0.0
 10
10.38234770982516
 20
29.55723154305726
 30
0.0
  0
SPLINE
  5
1A6
330
1F
100
AcDbEntity
  8
Object
  6
Continuous
370
    15
100
AcDbSpline
210
0.0
220
0.0
230
1.0
 70
     8
 71
     3
 72
    11
 73
     7
 74
     0
 42
0.0000000001
 43
0.0000000001
 40
0.0
 40
0.0
 40
0.0
 40
0.0
 40
0.2499979282247148
 40
0.499998555451113
 40
0.7500027261555072
 40
1.0
 40
1.0
 40
1.0
 40
1.0
 10
10.38234770982516
 20
12.3263025428861
 30
0.0
 10
10.37763037962067
 20
12.32600777382027
 30
0.0
 10
10.36819566828295
 20
12.32541823250624
 30
0.0
 10
10.3562962865332
 20
12.32453517925187
 30
0.0
 10
10.34797058823172
 20
12.3236506460472
 30
0.0
 10
10.34688840823793
 20
12.32306176623602
 30
0.0
 10
10.34634732570467
 20
12.32276733039185
 30
0.0
  0
LINE
  5
1A7
330
1F
100
AcDbEntity
  8
Object
  6
Continuous
370
    15
100
AcDbLine
 10
10.34634732570467
 20
12.32276733039185
 30
0.0
 11
10.34634732570467
 21
29.56076734221141
 31
0.0
  0
LINE
  5
1A8
330
1F
100
AcDbEntity
  8
Object
  6
Continuous
370
    15
100
AcDbLine
 10
10.34634732570467
 20
12.32276733039185
 30
0.0
 11
10.36434781109486
 21
12.32276733039185
 31
0.0
  0
SPLINE
  5
1A9
330
1F
100
AcDbEntity
  8
Object
  6
Continuous
370
    15
100
AcDbSpline
210
0.0
220
0.0
230
1.0
 70
     8
 71
     3
 72
    11
 73
     7
 74
     0
 42
0.0000000001
 43
0.0000000001
 40
0.0
 40
0.0
 40
0.0
 40
0.0
 40
0.25000912604437
 40
0.500006043040477
 40
0.7500055469510433
 40
1.0
 40
1.0
 40
1.0
 40
1.0
 10
10.38234770982516
 20
12.3263025428861
 30
0.0
 10
10.37998895857568
 20
12.32600777840212
 30
0.0
 10
10.37527157126495
 20
12.32541826382881
 30
0.0
 10
10.36932162316412
 20
12.32453517804352
 30
0.0
 10
10.36515916006056
 20
12.3236506428241
 30
0.0
 10
10.36461825892872
 20
12.32306176588635
 30
0.0
 10
10.36434781109486
 20
12.32276733039185
 30
0.0
  0
SPLINE
  5
1AA
330
1F
100
AcDbEntity
  8
Object
  6
Continuous
370
    15
100
AcDbSpline
210
0.0
220
0.0
230
1.0
 70
     8
 71
     3
 72
    11
 73
     7
 74
     0
 42
0.0000000001
 43
0.0000000001
 40
0.0
 40
0.0
 40
0.0
 40
0.0
 40
0.249999209160082
 40
0.4999988826643235
 40
0.7500007908399179
 40
1.0
 40
1.0
 40
1.0
 40
1.0
 10
23.12034781269433
 20
29.59676713967201
 30
0.0
 10
23.12005313143471
 20
29.59622601782684
 30
0.0
 10
23.11946376836812
 20
29.59514377313143
 30
0.0
 10
23.11857940481105
 20
29.58681882940856
 30
0.0
 10
23.11769631531017
 20
29.57491934485899
 30
0.0
 10
23.11710677973607
 20
29.56548465945107
 30
0.0
 10
23.11681201354018
 20
29.56076734221141
 30
0.0
  0
LINE
  5
1AB
330
1F
100
AcDbEntity
  8
Object
  6
Continuous
370
    15
100
AcDbLine
 10
10.38234770982516
 20
29.596767139672
 30
0.0
 11
23.12034781269433
 21
29.596767139672
 31
0.0
  0
LINE
  5
1AC
330
1F
100
AcDbEntity
  8
Object
  6
Continuous
370
    15
100
AcDbLine
 10
16.75184754277789
 20
12.28676694627136
 30
0.0
 11
16.75184754277789
 21
12.31676697304182
 31
0.0
  0
SPLINE
  5
1AD
330
1F
100
AcDbEntity
  8
Object
  6
Continuous
370
    15
100
AcDbSpline
210
0.0
220
0.0
230
1.0
 70
     8
 71
     3
 72
    11
 73
     7
 74
     0
 42
0.0000000001
 43
0.0000000001
 40
0.0
 40
0.0
 40
0.0
 40
0.0
 40
0.2500068593803902
 40
0.5000062174657736
 40
0.7500033409025983
 40
0.9999999999999998
 40
0.9999999999999998
 40
0.9999999999999998
 40
0.9999999999999998
 10
23.11681201354018
 20
12.32276733039185
 30
0.0
 10
23.11710677651928
 20
12.31804980792999
 30
0.0
 10
23.11769629363331
 20
12.30861490455249
 30
0.0
 10
23.11857940738869
 20
12.29671525610038
 30
0.0
 10
23.11946376772372
 20
12.28839031292054
 30
0.0
 10
23.1200531312199
 20
12.28730806815273
 30
0.0
 10
23.12034781269433
 20
12.28676694627136
 30
0.0
  0
LINE
  5
1AE
330
1F
100
AcDbEntity
  8
Object
  6
Continuous
370
    15
100
AcDbLine
 10
23.12034781269433
 20
12.28676694627136
 30
0.0
 11
16.75184754277789
 21
12.28676694627136
 31
0.0
  0
SPLINE
  5
1AF
330
1F
100
AcDbEntity
  8
Object
  6
Continuous
370
    15
100
AcDbSpline
210
0.0
220
0.0
230
1.0
 70
     8
 71
     3
 72
    11
 73
     7
 74
     0
 42
0.0000000001
 43
0.0000000001
 40
0.0
 40
0.0
 40
0.0
 40
0.0
 40
0.2499961683077391
 40
0.4999934553325333
 40
0.749993631375899
 40
1.0
 40
1.0
 40
1.0
 40
1.0
 10
10.38234770982516
 20
12.28676694627136
 30
0.0
 10
10.38264216444162
 20
12.28730806900735
 30
0.0
 10
10.38323107499221
 20
12.28839031690084
 30
0.0
 10
10.38411532055306
 20
12.2967152778229
 30
0.0
 10
10.38499957169232
 20
12.3086148619405
 30
0.0
 10
10.38558846967921
 20
12.31804980195749
 30
0.0
 10
10.38588292231941
 20
12.32276733039185
 30
0.0
  0
LINE
  5
1B0
330
1F
100
AcDbEntity
  8
Object
  6
Continuous
370
    15
100
AcDbLine
 10
10.38234770982516
 20
12.30476684500166
 30
0.0
 11
10.38234770982516
 21
12.28676694627136
 31
0.0
  0
SPLINE
  5
1B1
330
1F
100
AcDbEntity
  8
Object
  6
Continuous
370
    15
100
AcDbSpline
210
0.0
220
0.0
230
1.0
 70
     8
 71
     3
 72
    11
 73
     7
 74
     0
 42
0.0000000001
 43
0.0000000001
 40
0.0
 40
0.0
 40
0.0
 40
0.0
 40
0.2499974608907366
 40
0.4999959621635936
 40
0.7499944634364503
 40
1.0
 40
1.0
 40
1.0
 40
1.0
 10
10.38234770982516
 20
12.30476684500166
 30
0.0
 10
10.38264216467789
 20
12.30503753203643
 30
0.0
 10
10.38323107560875
 20
12.30557890723246
 30
0.0
 10
10.38411531403447
 20
12.30974124524145
 30
0.0
 10
10.38499957420834
 20
12.31569111796035
 30
0.0
 10
10.38558847018704
 20
12.32040857078909
 30
0.0
 10
10.38588292231941
 20
12.32276733039185
 30
0.0
  0
LINE
  5
1B2
330
1F
100
AcDbEntity
  8
Object
  6
Continuous
370
    15
100
AcDbLine
 10
10.36434781109486
 20
29.56076734221141
 30
0.0
 11
10.34634732570467
 21
29.56076734221141
 31
0.0
  0
SPLINE
  5
1B3
330
1F
100
AcDbEntity
  8
Object
  6
Continuous
370
    15
100
AcDbSpline
210
0.0
220
0.0
230
1.0
 70
     8
 71
     3
 72
    11
 73
     7
 74
     0
 42
0.0000000001
 43
0.0000000001
 40
0.0
 40
0.0
 40
0.0
 40
0.0
 40
0.2499963932632539
 40
0.4999952504417876
 40
0.7499915207125543
 40
1.0
 40
1.0
 40
1.0
 40
1.0
 10
10.36434781109486
 20
29.56076734221141
 30
0.0
 10
10.36461825484216
 20
29.5604726596008
 30
0.0
 10
10.36515914500221
 20
29.55988329147529
 30
0.0
 10
10.36932162335099
 20
29.55899894915147
 30
0.0
 10
10.37527157121823
 20
29.55811581180111
 30
0.0
 10
10.3799889585601
 20
29.55752630410337
 30
0.0
 10
10.38234770982516
 20
29.55723154305726
 30
0.0
  0
LINE
  5
1B4
330
1F
100
AcDbEntity
  8
Object
  6
Continuous
370
    15
100
AcDbLine
 10
23.15634761015493
 20
29.56076734221141
 30
0.0
 11
23.15634761015493
 21
12.32276733039185
 31
0.0
  0
LINE
  5
1B5
330
1F
100
AcDbEntity
  8
Object
  6
Continuous
370
    15
100
AcDbLine
 10
23.12034781269433
 20
12.28676694627136
 30
0.0
 11
23.12034781269433
 21
12.30476684500166
 31
0.0
  0
SPLINE
  5
1B6
330
1F
100
AcDbEntity
  8
Object
  6
Continuous
370
    15
100
AcDbSpline
210
0.0
220
0.0
230
1.0
 70
     8
 71
     3
 72
    11
 73
     7
 74
     0
 42
0.0000000001
 43
0.0000000001
 40
0.0
 40
0.0
 40
0.0
 40
0.0
 40
0.2500074766516005
 40
0.5000027443354851
 40
0.7500005989167623
 40
1.0
 40
1.0
 40
1.0
 40
1.0
 10
23.11681201354018
 20
12.32276733039185
 30
0.0
 10
23.11710677467071
 20
12.32040858259484
 30
0.0
 10
23.11769628253727
 20
12.31569120218888
 30
0.0
 10
23.11857941862148
 20
12.309741202304
 30
0.0
 10
23.11946377048551
 20
12.30557889936468
 30
0.0
 10
23.12005313135042
 20
12.30503753034749
 30
0.0
 10
23.12034781269433
 20
12.30476684500166
 30
0.0
  0
LINE
  5
1B7
330
1F
100
AcDbEntity
  8
Object
  6
Continuous
370
    15
100
AcDbLine
 10
10.38588292231941
 20
12.32276733039185
 30
0.0
 11
10.45634781496963
 21
12.39323163638217
 31
0.0
  0
LINE
  5
1B8
330
1F
100
AcDbEntity
  8
Object
  6
Continuous
370
    15
100
AcDbLine
 10
23.04634770754986
 20
12.39323163638217
 30
0.0
 11
23.11681201354018
 21
12.32276733039185
 31
0.0
  0
LINE
  5
1B9
330
1F
100
AcDbEntity
  8
Object
  6
Continuous
370
    15
100
AcDbLine
 10
23.12034781269433
 20
29.57876724094171
 30
0.0
 11
23.12034781269433
 21
29.596767139672
 31
0.0
  0
SPLINE
  5
1BA
330
1F
100
AcDbEntity
  8
Object
  6
Continuous
370
    15
100
AcDbSpline
210
0.0
220
0.0
230
1.0
 70
     8
 71
     3
 72
    11
 73
     7
 74
     0
 42
0.0000000001
 43
0.0000000001
 40
0.0
 40
0.0
 40
0.0
 40
0.0
 40
0.2500044416564174
 40
0.5000073367796931
 40
0.7500076449534184
 40
1.0
 40
1.0
 40
1.0
 40
1.0
 10
23.12034781269433
 20
29.57876724094171
 30
0.0
 10
23.12005313177502
 20
29.57849655559075
 30
0.0
 10
23.11946377175932
 20
29.57795518656331
 30
0.0
 10
23.1185794135263
 20
29.57379288370084
 30
0.0
 10
23.11769632538472
 20
29.56784304347517
 30
0.0
 10
23.11710678102917
 20
29.56312588428819
 30
0.0
 10
23.11681201354018
 20
29.56076734221141
 30
0.0
  0
LINE
  5
1BB
330
1F
100
AcDbEntity
  8
Object
  6
Continuous
370
    15
100
AcDbLine
 10
16.75084754432996
 20
12.28676694627136
 30
0.0
 11
10.38234770982516
 21
12.28676694627136
 31
0.0
  0
LINE
  5
1BC
330
1F
100
AcDbEntity
  8
Object
  6
Continuous
370
    15
100
AcDbLine
 10
16.75084754432996
 20
12.31676697304182
 30
0.0
 11
16.75084754432996
 21
12.28676694627136
 31
0.0
  0
ARC
  5
1BD
330
1F
100
AcDbEntity
  8
Object
  6
Continuous
370
    15
100
AcDbCircle
 10
23.12034754339752
 20
12.3227670753778
 30
0.0
 40
0.018000000000002
100
AcDbArc
 50
270.0000000000008
 51
0.0
  0
ARC
  5
1BE
330
1F
100
AcDbEntity
  8
Object
  6
Continuous
370
    15
100
AcDbCircle
 10
23.12034754339752
 20
12.3227670753778
 30
0.0
 40
0.0360000000000027
100
AcDbArc
 50
270.0000000000008
 51
0.0
  0
ARC
  5
1BF
330
1F
100
AcDbEntity
  8
Object
  6
Continuous
370
    15
100
AcDbCircle
 10
10.38234754339752
 20
12.3227670753778
 30
0.0
 40
0.018000000000002
100
AcDbArc
 50
180.000000000005
 51
270.0000000000008
  0
ARC
  5
1C0
330
1F
100
AcDbEntity
  8
Object
  6
Continuous
370
    15
100
AcDbCircle
 10
10.38234754339752
 20
12.3227670753778
 30
0.0
 40
0.0360000000000027
100
AcDbArc
 50
180.0000000000029
 51
270.0000000000008
  0
ARC
  5
1C1
330
1F
100
AcDbEntity
  8
Object
  6
Continuous
370
    15
100
AcDbCircle
 10
23.12034754339752
 20
29.56076707537781
 30
0.0
 40
0.0360000000000014
100
AcDbArc
 50
0.0
 51
89.99999999999435
  0
ARC
  5
1C2
330
1F
100
AcDbEntity
  8
Object
  6
Continuous
370
    15
100
AcDbCircle
 10
23.12034754339752
 20
29.56076707537781
 30
0.0
 40
0.0180000000000042
100
AcDbArc
 50
0.0
 51
90.0
  0
ARC
  5
1C3
330
1F
100
AcDbEntity
  8
Object
  6
Continuous
370
    15
100
AcDbCircle
 10
10.38234754339752
 20
29.56076707537781
 30
0.0
 40
0.0360000000000014
100
AcDbArc
 50
90.0
 51
180.0
  0
ARC
  5
1C4
330
1F
100
AcDbEntity
  8
Object
  6
Continuous
370
    15
100
AcDbCircle
 10
10.38234754339752
 20
29.56076707537781
 30
0.0
 40
0.0180000000000042
100
AcDbArc
 50
90.0
 51
180.0
  0
LINE
  5
1C5
330
1F
100
AcDbEntity
  8
Object
  6
Continuous
370
    15
100
AcDbLine
 10
10.45634781496963
 20
29.48676723706693
 30
0.0
 11
10.45634781496963
 21
29.56676711290155
 31
0.0
  0
LINE
  5
1C6
330
1F
100
AcDbEntity
  8
Object
  6
Continuous
370
    15
100
AcDbLine
 10
10.45634781496963
 20
29.56676711290155
 30
0.0
 11
23.04634770754986
 21
29.56676711290155
 31
0.0
  0
LINE
  5
1C7
330
1F
100
AcDbEntity
  8
Object
  6
Continuous
370
    15
100
AcDbLine
 10
23.04634770754986
 20
29.56676711290155
 30
0.0
 11
23.04634770754986
 21
29.48676723706693
 31
0.0
  0
LINE
  5
1C8
330
1F
100
AcDbEntity
  8
Object
  6
Continuous
370
    15
100
AcDbLine
 10
12.03134746043932
 20
18.67176711953783
 30
0.0
 11
21.47134747542027
 21
18.67176711953783
 31
0.0
  0
ARC
  5
1C9
330
1F
100
AcDbEntity
  8
Object
  6
Continuous
370
    15
100
AcDbCircle
 10
12.03134754339753
 20
18.54676707537779
 30
0.0
 40
0.125
100
AcDbArc
 50
90.0
 51
180.0
  0
LINE
  5
1CA
330
1F
100
AcDbEntity
  8
Object
  6
Continuous
370
    15
100
AcDbLine
 10
11.90634754444902
 20
13.79676731595157
 30
0.0
 11
11.90634754444902
 21
18.54676705688255
 31
0.0
  0
ARC
  5
1CB
330
1F
100
AcDbEntity
  8
Object
  6
Continuous
370
    15
100
AcDbCircle
 10
12.03134754339753
 20
13.79676707537779
 30
0.0
 40
0.1249999999999991
100
AcDbArc
 50
180.0
 51
270.0000000000008
  0
LINE
  5
1CC
330
1F
100
AcDbEntity
  8
Object
  6
Continuous
370
    15
100
AcDbLine
 10
21.47134747542027
 20
13.67176710663132
 30
0.0
 11
12.03134746043932
 21
13.67176710663132
 31
0.0
  0
ARC
  5
1CD
330
1F
100
AcDbEntity
  8
Object
  6
Continuous
370
    15
100
AcDbCircle
 10
21.47134754339753
 20
13.79676707537779
 30
0.0
 40
0.125
100
AcDbArc
 50
270.0000000000008
 51
0.0
  0
LINE
  5
1CE
330
1F
100
AcDbEntity
  8
Object
  6
Continuous
370
    15
100
AcDbLine
 10
21.59634768474052
 20
18.54676705688255
 30
0.0
 11
21.59634768474052
 21
13.79676731595157
 31
0.0
  0
ARC
  5
1CF
330
1F
100
AcDbEntity
  8
Object
  6
Continuous
370
    15
100
AcDbCircle
 10
21.47134754339753
 20
18.54676707537779
 30
0.0
 40
0.1249999999999982
100
AcDbArc
 50
0.0
 51
90.0
  0
LINE
  5
1D0
330
1F
100
AcDbEntity
  8
Object
  6
Continuous
370
    15
100
AcDbLine
 10
23.04634770754986
 20
29.48676723706693
 30
0.0
 11
23.12634758338447
 21
29.48676723706693
 31
0.0
  0
LINE
  5
1D1
330
1F
100
AcDbEntity
  8
Object
  6
Continuous
370
    15
100
AcDbLine
 10
23.12634758338447
 20
29.48676723706693
 30
0.0
 11
23.12634758338447
 21
12.39676684887643
 31
0.0
  0
LINE
  5
1D2
330
1F
100
AcDbEntity
  8
Object
  6
Continuous
370
    15
100
AcDbLine
 10
23.12634758338447
 20
12.39676684887643
 30
0.0
 11
23.04634770754986
 21
12.39676684887643
 31
0.0
  0
LINE
  5
1D3
330
1F
100
AcDbEntity
  8
Object
  6
Continuous
370
    15
100
AcDbLine
 10
23.04634770754986
 20
12.39676684887643
 30
0.0
 11
23.04634770754986
 21
12.31676697304182
 31
0.0
  0
LINE
  5
1D4
330
1F
100
AcDbEntity
  8
Object
  6
Continuous
370
    15
100
AcDbLine
 10
23.04634770754986
 20
12.31676697304182
 30
0.0
 11
10.45634781496963
 21
12.31676697304182
 31
0.0
  0
LINE
  5
1D5
330
1F
100
AcDbEntity
  8
Object
  6
Continuous
370
    15
100
AcDbLine
 10
10.45634781496963
 20
12.31676697304182
 30
0.0
 11
10.45634781496963
 21
12.39676684887643
 31
0.0
  0
LINE
  5
1D6
330
1F
100
AcDbEntity
  8
Object
  6
Continuous
370
    15
100
AcDbLine
 10
10.45634781496963
 20
12.39676684887643
 30
0.0
 11
10.37634735247513
 21
12.39676684887643
 31
0.0
  0
LINE
  5
1D7
330
1F
100
AcDbEntity
  8
Object
  6
Continuous
370
    15
100
AcDbLine
 10
10.37634735247513
 20
12.39676684887643
 30
0.0
 11
10.37634735247513
 21
29.48676723706693
 31
0.0
  0
LINE
  5
1D8
330
1F
100
AcDbEntity
  8
Object
  6
Continuous
370
    15
100
AcDbLine
 10
10.37634735247513
 20
29.48676723706693
 30
0.0
 11
10.45634781496963
 21
29.48676723706693
 31
0.0
  0
CIRCLE
  5
1D9
330
1F
100
AcDbEntity
  8
Object
  6
HIDDEN
370
     0
100
AcDbCircle
 10
12.25134754339772
 20
27.64676707537784
 30
0.0
 40
0.110000000000001
  0
CIRCLE
  5
1DA
330
1F
100
AcDbEntity
  8
Object
  6
HIDDEN
370
     0
100
AcDbCircle
 10
21.20134754339773
 20
27.64676707537784
 30
0.0
 40
0.1100000000000026
  0
CIRCLE
  5
1DB
330
1F
100
AcDbEntity
  8
Object
  6
HIDDEN
370
     0
100
AcDbCircle
 10
21.20134754339773
 20
19.52176707537784
 30
0.0
 40
0.1100000000000016
  0
CIRCLE
  5
1DC
330
1F
100
AcDbEntity
  8
Object
  6
HIDDEN
370
     0
100
AcDbCircle
 10
12.25134754339772
 20
19.52176707537784
 30
0.0
 40
0.1099999999999999
  0
ARC
  5
1DD
330
1F
100
AcDbEntity
  8
Object
  6
Continuous
370
    15
100
AcDbCircle
 10
33.65139150902428
 20
20.14940132775861
 30
0.0
 40
0.0300000000000015
100
AcDbArc
 50
180.0
 51
250.5287793655079
  0
ARC
  5
1DE
330
1F
100
AcDbEntity
  8
Object
  6
Continuous
370
    15
100
AcDbCircle
 10
33.65139150902428
 20
20.70940132775861
 30
0.0
 40
0.0299999999999998
100
AcDbArc
 50
109.471220634494
 51
180.0
  0
ARC
  5
1DF
330
1F
100
AcDbEntity
  8
Object
  6
Continuous
370
    15
100
AcDbCircle
 10
33.84139150902428
 20
20.00440132775861
 30
0.0
 40
0.0300000000000011
100
AcDbArc
 50
263.4217094218646
 51
0.0
  0
ARC
  5
1E0
330
1F
100
AcDbEntity
  8
Object
  6
Continuous
370
    15
100
AcDbCircle
 10
33.84139150902428
 20
20.85440132775861
 30
0.0
 40
0.0300000000000011
100
AcDbArc
 50
0.0
 51
96.57829057813584
  0
ARC
  5
1E1
330
1F
100
AcDbEntity
  8
Object
  6
Continuous
370
    15
100
AcDbCircle
 10
33.86659487455805
 20
20.22295290145638
 30
0.0
 40
0.2500000000000002
100
AcDbArc
 50
205.734799933174
 51
263.421709421859
  0
ARC
  5
1E2
330
1F
100
AcDbEntity
  8
Object
  6
Continuous
370
    15
100
AcDbCircle
 10
33.86659487455805
 20
20.63584975406084
 30
0.0
 40
0.2500000000000009
100
AcDbArc
 50
96.57829057814177
 51
154.2652000668267
  0
LINE
  5
1E3
330
1F
100
AcDbEntity
  8
Object
  6
Continuous
370
    15
100
AcDbLine
 10
34.55389144046516
 20
29.14676732477494
 30
0.0
 11
34.55389144046516
 21
29.39676715675555
 31
0.0
  0
LINE
  5
1E4
330
1F
100
AcDbEntity
  8
Object
  6
Continuous
370
    15
100
AcDbLine
 10
34.55389144046516
 20
28.64676707415383
 30
0.0
 11
34.55389144046516
 21
28.89676690613444
 31
0.0
  0
LINE
  5
1E5
330
1F
100
AcDbEntity
  8
Object
  6
Continuous
370
    15
100
AcDbLine
 10
34.55389144046516
 20
28.14676682353272
 30
0.0
 11
34.55389144046516
 21
28.39676724217322
 31
0.0
  0
LINE
  5
1E6
330
1F
100
AcDbEntity
  8
Object
  6
Continuous
370
    15
100
AcDbLine
 10
34.55389144046516
 20
27.14676690895041
 30
0.0
 11
34.55389144046516
 21
27.3967673275909
 31
0.0
  0
LINE
  5
1E7
330
1F
100
AcDbEntity
  8
Object
  6
Continuous
370
    15
100
AcDbLine
 10
34.55389144046516
 20
27.64676715957151
 30
0.0
 11
34.55389144046516
 21
27.89676699155212
 31
0.0
  0
LINE
  5
1E8
330
1F
100
AcDbEntity
  8
Object
  6
Continuous
370
    15
100
AcDbLine
 10
34.55389144046516
 20
26.14676699436809
 30
0.0
 11
34.55389144046516
 21
26.39676682634869
 31
0.0
  0
LINE
  5
1E9
330
1F
100
AcDbEntity
  8
Object
  6
Continuous
370
    15
100
AcDbLine
 10
34.55389144046516
 20
26.6467672449892
 30
0.0
 11
34.55389144046516
 21
26.8967670769698
 31
0.0
  0
LINE
  5
1EA
330
1F
100
AcDbEntity
  8
Object
  6
Continuous
370
    15
100
AcDbLine
 10
34.55389144046516
 20
25.64676703707693
 30
0.0
 11
34.55389144046516
 21
25.89676716238748
 31
0.0
  0
LINE
  5
1EB
330
1F
100
AcDbEntity
  8
Object
  6
Continuous
370
    15
100
AcDbLine
 10
34.55389144046516
 20
25.14676707978576
 30
0.0
 11
34.55389144046516
 21
25.39676720509632
 31
0.0
  0
LINE
  5
1EC
330
1F
100
AcDbEntity
  8
Object
  6
Continuous
370
    15
100
AcDbLine
 10
34.55389144046516
 20
24.6467671224946
 30
0.0
 11
34.55389144046516
 21
24.89676695447521
 31
0.0
  0
LINE
  5
1ED
330
1F
100
AcDbEntity
  8
Object
  6
Continuous
370
    15
100
AcDbLine
 10
34.55389144046516
 20
24.14676716520344
 30
0.0
 11
34.55389144046516
 21
24.39676699718405
 31
0.0
  0
LINE
  5
1EE
330
1F
100
AcDbEntity
  8
Object
  6
Continuous
370
    15
100
AcDbLine
 10
34.55389144046516
 20
23.14676710395615
 30
0.0
 11
34.55389144046516
 21
23.39676708260173
 31
0.0
  0
LINE
  5
1EF
330
1F
100
AcDbEntity
  8
Object
  6
Continuous
370
    15
100
AcDbLine
 10
34.55389144046516
 20
23.64676720791228
 30
0.0
 11
34.55389144046516
 21
23.89676703989289
 31
0.0
  0
LINE
  5
1F0
330
1F
100
AcDbEntity
  8
Object
  6
Continuous
370
    15
100
AcDbLine
 10
34.55389144046516
 20
22.64676714666499
 30
0.0
 11
34.55389144046516
 21
22.89676712531057
 31
0.0
  0
LINE
  5
1F1
330
1F
100
AcDbEntity
  8
Object
  6
Continuous
370
    15
100
AcDbLine
 10
34.55389144046516
 20
21.6467670854177
 30
0.0
 11
34.55389144046516
 21
21.89676706406328
 31
0.0
  0
LINE
  5
1F2
330
1F
100
AcDbEntity
  8
Object
  6
Continuous
370
    15
100
AcDbLine
 10
34.55389144046516
 20
22.14676704270886
 30
0.0
 11
34.55389144046516
 21
22.39676702135444
 31
0.0
  0
LINE
  5
1F3
330
1F
100
AcDbEntity
  8
Object
  6
Continuous
370
    15
100
AcDbLine
 10
34.55389144046516
 20
21.1467670914603
 30
0.0
 11
34.55389144046516
 21
21.39676707010587
 31
0.0
  0
LINE
  5
1F4
330
1F
100
AcDbEntity
  8
Object
  6
Continuous
370
    15
100
AcDbLine
 10
34.55389144046516
 20
20.64676707916977
 30
0.0
 11
34.55389144046516
 21
20.89676707614847
 31
0.0
  0
LINE
  5
1F5
330
1F
100
AcDbEntity
  8
Object
  6
Continuous
370
    15
100
AcDbLine
 10
34.55389144046516
 20
20.14676706687924
 30
0.0
 11
34.55389144046516
 21
20.39676708219107
 31
0.0
  0
LINE
  5
1F6
330
1F
100
AcDbEntity
  8
Object
  6
Continuous
370
    15
100
AcDbLine
 10
34.55389144046516
 20
19.14676700563195
 30
0.0
 11
34.55389144046516
 21
19.3967671309425
 31
0.0
  0
LINE
  5
1F7
330
1F
100
AcDbEntity
  8
Object
  6
Continuous
370
    15
100
AcDbLine
 10
34.55389144046516
 20
19.64676710958808
 30
0.0
 11
34.55389144046516
 21
19.89676708823366
 31
0.0
  0
LINE
  5
1F8
330
1F
100
AcDbEntity
  8
Object
  6
Continuous
370
    15
100
AcDbLine
 10
34.55389144046516
 20
18.64676704834079
 30
0.0
 11
34.55389144046516
 21
18.89676702698637
 31
0.0
  0
LINE
  5
1F9
330
1F
100
AcDbEntity
  8
Object
  6
Continuous
370
    15
100
AcDbLine
 10
34.55389144046516
 20
17.64676713375847
 30
0.0
 11
34.55389144046516
 21
17.89676696573908
 31
0.0
  0
LINE
  5
1FA
330
1F
100
AcDbEntity
  8
Object
  6
Continuous
370
    15
100
AcDbLine
 10
34.55389144046516
 20
18.14676709104963
 30
0.0
 11
34.55389144046516
 21
18.39676706969521
 31
0.0
  0
LINE
  5
1FB
330
1F
100
AcDbEntity
  8
Object
  6
Continuous
370
    15
100
AcDbLine
 10
34.55389144046516
 20
16.64676721917615
 30
0.0
 11
34.55389144046516
 21
16.89676705115676
 31
0.0
  0
LINE
  5
1FC
330
1F
100
AcDbEntity
  8
Object
  6
Continuous
370
    15
100
AcDbLine
 10
34.55389144046516
 20
17.14676717646731
 30
0.0
 11
34.55389144046516
 21
17.39676700844792
 31
0.0
  0
LINE
  5
1FD
330
1F
100
AcDbEntity
  8
Object
  6
Continuous
370
    15
100
AcDbLine
 10
34.55389144046516
 20
16.14676696855505
 30
0.0
 11
34.55389144046516
 21
16.3967670938656
 31
0.0
  0
LINE
  5
1FE
330
1F
100
AcDbEntity
  8
Object
  6
Continuous
370
    15
100
AcDbLine
 10
34.55389144046516
 20
15.64676701126389
 30
0.0
 11
34.55389144046516
 21
15.89676713657444
 31
0.0
  0
LINE
  5
1FF
330
1F
100
AcDbEntity
  8
Object
  6
Continuous
370
    15
100
AcDbLine
 10
34.55389144046516
 20
15.14676734730267
 30
0.0
 11
34.55389144046516
 21
15.39676717928328
 31
0.0
  0
LINE
  5
200
330
1F
100
AcDbEntity
  8
Object
  6
Continuous
370
    15
100
AcDbLine
 10
34.55389144046516
 20
14.64676709668156
 30
0.0
 11
34.55389144046516
 21
14.89676692866217
 31
0.0
  0
LINE
  5
201
330
1F
100
AcDbEntity
  8
Object
  6
Continuous
370
    15
100
AcDbLine
 10
34.55389144046516
 20
13.64676718209924
 30
0.0
 11
34.55389144046516
 21
13.89676701407985
 31
0.0
  0
LINE
  5
202
330
1F
100
AcDbEntity
  8
Object
  6
Continuous
370
    15
100
AcDbLine
 10
34.55389144046516
 20
14.14676684606046
 30
0.0
 11
34.55389144046516
 21
14.39676726470096
 31
0.0
  0
LINE
  5
203
330
1F
100
AcDbEntity
  8
Object
  6
Continuous
370
    15
100
AcDbLine
 10
34.55389144046516
 20
13.14676693147814
 30
0.0
 11
34.55389144046516
 21
13.39676735011864
 31
0.0
  0
LINE
  5
204
330
1F
100
AcDbEntity
  8
Object
  6
Continuous
370
    15
100
AcDbLine
 10
34.55389144046516
 20
15.89676713657444
 30
0.0
 11
34.55389144046516
 21
16.14676696855505
 31
0.0
  0
LINE
  5
205
330
1F
100
AcDbEntity
  8
Object
  6
Continuous
370
    15
100
AcDbLine
 10
34.55389144046516
 20
15.39676717928328
 30
0.0
 11
34.55389144046516
 21
15.64676701126389
 31
0.0
  0
LINE
  5
206
330
1F
100
AcDbEntity
  8
Object
  6
Continuous
370
    15
100
AcDbLine
 10
34.55389144046516
 20
13.89676701407985
 30
0.0
 11
34.55389144046516
 21
14.14676684606046
 31
0.0
  0
LINE
  5
207
330
1F
100
AcDbEntity
  8
Object
  6
Continuous
370
    15
100
AcDbLine
 10
34.55389144046516
 20
16.3967670938656
 30
0.0
 11
34.55389144046516
 21
16.64676721917615
 31
0.0
  0
LINE
  5
208
330
1F
100
AcDbEntity
  8
Object
  6
Continuous
370
    15
100
AcDbLine
 10
34.55389144046516
 20
14.39676726470096
 30
0.0
 11
34.55389144046516
 21
14.64676709668156
 31
0.0
  0
LINE
  5
209
330
1F
100
AcDbEntity
  8
Object
  6
Continuous
370
    15
100
AcDbLine
 10
34.55389144046516
 20
13.39676735011864
 30
0.0
 11
34.55389144046516
 21
13.64676718209924
 31
0.0
  0
LINE
  5
20A
330
1F
100
AcDbEntity
  8
Object
  6
Continuous
370
    15
100
AcDbLine
 10
34.55389144046516
 20
14.89676692866217
 30
0.0
 11
34.55389144046516
 21
15.14676734730267
 31
0.0
  0
LINE
  5
20B
330
1F
100
AcDbEntity
  8
Object
  6
Continuous
370
    15
100
AcDbLine
 10
34.55389144046516
 20
12.89676709949753
 30
0.0
 11
34.55389144046516
 21
13.14676693147814
 31
0.0
  0
LINE
  5
20C
330
1F
100
AcDbEntity
  8
Object
  6
Continuous
370
    15
100
AcDbLine
 10
34.55389144046516
 20
18.89676702698637
 30
0.0
 11
34.55389144046516
 21
19.14676700563195
 31
0.0
  0
LINE
  5
20D
330
1F
100
AcDbEntity
  8
Object
  6
Continuous
370
    15
100
AcDbLine
 10
34.55389144046516
 20
20.89676707614847
 30
0.0
 11
34.55389144046516
 21
21.1467670914603
 31
0.0
  0
LINE
  5
20E
330
1F
100
AcDbEntity
  8
Object
  6
Continuous
370
    15
100
AcDbLine
 10
34.55389144046516
 20
17.39676700844792
 30
0.0
 11
34.55389144046516
 21
17.64676713375847
 31
0.0
  0
LINE
  5
20F
330
1F
100
AcDbEntity
  8
Object
  6
Continuous
370
    15
100
AcDbLine
 10
34.55389144046516
 20
19.89676708823366
 30
0.0
 11
34.55389144046516
 21
20.14676706687924
 31
0.0
  0
LINE
  5
210
330
1F
100
AcDbEntity
  8
Object
  6
Continuous
370
    15
100
AcDbLine
 10
34.55389144046516
 20
20.39676708219107
 30
0.0
 11
34.55389144046516
 21
20.64676707916977
 31
0.0
  0
LINE
  5
211
330
1F
100
AcDbEntity
  8
Object
  6
Continuous
370
    15
100
AcDbLine
 10
34.55389144046516
 20
19.3967671309425
 30
0.0
 11
34.55389144046516
 21
19.64676710958808
 31
0.0
  0
LINE
  5
212
330
1F
100
AcDbEntity
  8
Object
  6
Continuous
370
    15
100
AcDbLine
 10
34.55389144046516
 20
16.89676705115676
 30
0.0
 11
34.55389144046516
 21
17.14676717646731
 31
0.0
  0
LINE
  5
213
330
1F
100
AcDbEntity
  8
Object
  6
Continuous
370
    15
100
AcDbLine
 10
34.55389144046516
 20
21.89676706406328
 30
0.0
 11
34.55389144046516
 21
22.14676704270886
 31
0.0
  0
LINE
  5
214
330
1F
100
AcDbEntity
  8
Object
  6
Continuous
370
    15
100
AcDbLine
 10
34.55389144046516
 20
21.39676707010587
 30
0.0
 11
34.55389144046516
 21
21.6467670854177
 31
0.0
  0
LINE
  5
215
330
1F
100
AcDbEntity
  8
Object
  6
Continuous
370
    15
100
AcDbLine
 10
34.55389144046516
 20
18.39676706969521
 30
0.0
 11
34.55389144046516
 21
18.64676704834079
 31
0.0
  0
LINE
  5
216
330
1F
100
AcDbEntity
  8
Object
  6
Continuous
370
    15
100
AcDbLine
 10
34.55389144046516
 20
17.89676696573908
 30
0.0
 11
34.55389144046516
 21
18.14676709104963
 31
0.0
  0
LINE
  5
217
330
1F
100
AcDbEntity
  8
Object
  6
Continuous
370
    15
100
AcDbLine
 10
34.55389144046516
 20
25.39676720509632
 30
0.0
 11
34.55389144046516
 21
25.64676703707693
 31
0.0
  0
LINE
  5
218
330
1F
100
AcDbEntity
  8
Object
  6
Continuous
370
    15
100
AcDbLine
 10
34.55389144046516
 20
25.89676716238748
 30
0.0
 11
34.55389144046516
 21
26.14676699436809
 31
0.0
  0
LINE
  5
219
330
1F
100
AcDbEntity
  8
Object
  6
Continuous
370
    15
100
AcDbLine
 10
34.55389144046516
 20
24.39676699718405
 30
0.0
 11
34.55389144046516
 21
24.6467671224946
 31
0.0
  0
LINE
  5
21A
330
1F
100
AcDbEntity
  8
Object
  6
Continuous
370
    15
100
AcDbLine
 10
34.55389144046516
 20
23.89676703989289
 30
0.0
 11
34.55389144046516
 21
24.14676716520344
 31
0.0
  0
LINE
  5
21B
330
1F
100
AcDbEntity
  8
Object
  6
Continuous
370
    15
100
AcDbLine
 10
34.55389144046516
 20
24.89676695447521
 30
0.0
 11
34.55389144046516
 21
25.14676707978576
 31
0.0
  0
LINE
  5
21C
330
1F
100
AcDbEntity
  8
Object
  6
Continuous
370
    15
100
AcDbLine
 10
34.55389144046516
 20
26.39676682634869
 30
0.0
 11
34.55389144046516
 21
26.6467672449892
 31
0.0
  0
LINE
  5
21D
330
1F
100
AcDbEntity
  8
Object
  6
Continuous
370
    15
100
AcDbLine
 10
34.55389144046516
 20
27.3967673275909
 30
0.0
 11
34.55389144046516
 21
27.64676715957151
 31
0.0
  0
LINE
  5
21E
330
1F
100
AcDbEntity
  8
Object
  6
Continuous
370
    15
100
AcDbLine
 10
34.55389144046516
 20
22.89676712531057
 30
0.0
 11
34.55389144046516
 21
23.14676710395615
 31
0.0
  0
LINE
  5
21F
330
1F
100
AcDbEntity
  8
Object
  6
Continuous
370
    15
100
AcDbLine
 10
34.55389144046516
 20
23.39676708260173
 30
0.0
 11
34.55389144046516
 21
23.64676720791228
 31
0.0
  0
LINE
  5
220
330
1F
100
AcDbEntity
  8
Object
  6
Continuous
370
    15
100
AcDbLine
 10
34.55389144046516
 20
26.8967670769698
 30
0.0
 11
34.55389144046516
 21
27.14676690895041
 31
0.0
  0
LINE
  5
221
330
1F
100
AcDbEntity
  8
Object
  6
Continuous
370
    15
100
AcDbLine
 10
34.55389144046516
 20
22.39676702135444
 30
0.0
 11
34.55389144046516
 21
22.64676714666499
 31
0.0
  0
LINE
  5
222
330
1F
100
AcDbEntity
  8
Object
  6
Continuous
370
    15
100
AcDbLine
 10
34.55389144046516
 20
27.89676699155212
 30
0.0
 11
34.55389144046516
 21
28.14676682353272
 31
0.0
  0
LINE
  5
223
330
1F
100
AcDbEntity
  8
Object
  6
Continuous
370
    15
100
AcDbLine
 10
34.55389144046516
 20
28.89676690613444
 30
0.0
 11
34.55389144046516
 21
29.14676732477494
 31
0.0
  0
LINE
  5
224
330
1F
100
AcDbEntity
  8
Object
  6
Continuous
370
    15
100
AcDbLine
 10
34.55389144046516
 20
28.39676724217322
 30
0.0
 11
34.55389144046516
 21
28.64676707415383
 31
0.0
  0
LINE
  5
225
330
1F
100
AcDbEntity
  8
Object
  6
Continuous
370
    15
100
AcDbLine
 10
33.62139143945141
 20
20.14940138978066
 30
0.0
 11
33.62139143945141
 21
20.70940132728026
 31
0.0
  0
LINE
  5
226
330
1F
100
AcDbEntity
  8
Object
  6
Continuous
370
    15
100
AcDbLine
 10
33.64139155507503
 20
20.42940132186421
 30
0.0
 11
33.64139155507503
 21
20.74440132795726
 31
0.0
  0
LINE
  5
227
330
1F
100
AcDbEntity
  8
Object
  6
Continuous
370
    15
100
AcDbLine
 10
33.64139155507503
 20
20.11440133410429
 30
0.0
 11
33.64139155507503
 21
20.42940132186421
 31
0.0
  0
LINE
  5
228
330
1F
100
AcDbEntity
  8
Object
  6
Continuous
370
    15
100
AcDbLine
 10
34.49139162913498
 20
12.88634039328107
 30
0.0
 11
34.61139144288689
 21
12.88634039328107
 31
0.0
  0
LINE
  5
229
330
1F
100
AcDbEntity
  8
Object
  6
Continuous
370
    15
100
AcDbLine
 10
34.49139162913498
 20
12.861340468749
 30
0.0
 11
34.61139144288689
 21
12.861340468749
 31
0.0
  0
LINE
  5
22A
330
1F
100
AcDbEntity
  8
Object
  6
Continuous
370
    15
100
AcDbLine
 10
34.55389144046516
 20
29.32934057567316
 30
0.0
 11
34.61139144288689
 21
29.32934057567316
 31
0.0
  0
LINE
  5
22B
330
1F
100
AcDbEntity
  8
Object
  6
Continuous
370
    15
100
AcDbLine
 10
34.61139144288689
 20
12.93376715206977
 30
0.0
 11
34.55389144046516
 21
12.93376715206977
 31
0.0
  0
LINE
  5
22C
330
1F
100
AcDbEntity
  8
Object
  6
Continuous
370
    15
100
AcDbLine
 10
34.61139144288689
 20
29.39676715675555
 30
0.0
 11
34.55389144046516
 21
29.39676715675555
 31
0.0
  0
LINE
  5
22D
330
1F
100
AcDbEntity
  8
Object
  6
Continuous
370
    15
100
AcDbLine
 10
34.61139144288689
 20
29.37176723222347
 30
0.0
 11
34.55389144046516
 21
29.37176723222347
 31
0.0
  0
SPLINE
  5
22E
330
1F
100
AcDbEntity
  8
Object
  6
Continuous
370
    15
100
AcDbSpline
210
0.0
220
0.0
230
1.0
 70
     8
 71
     3
 72
    11
 73
     7
 74
     0
 42
0.0000000001
 43
0.0000000001
 40
0.0
 40
0.0
 40
0.0
 40
0.0
 40
0.2500005514759126
 40
0.50000064217258
 40
0.7500004853681772
 40
1.0
 40
1.0
 40
1.0
 40
1.0
 10
38.33739150814952
 20
29.56076734221141
 30
0.0
 10
38.34210883939543
 20
29.56047266098533
 30
0.0
 10
38.35154349319269
 20
29.55988329907631
 30
0.0
 10
38.3634431256402
 20
29.55899894012519
 30
0.0
 10
38.37176809691761
 20
29.55811583922088
 30
0.0
 10
38.3728503707259
 20
29.557526308316
 30
0.0
 10
38.37339150727446
 20
29.55723154305726
 30
0.0
  0
LINE
  5
22F
330
1F
100
AcDbEntity
  8
Object
  6
Continuous
370
    15
100
AcDbLine
 10
38.37339150727446
 20
12.3263025428861
 30
0.0
 11
38.37339150727446
 21
29.55723154305726
 31
0.0
  0
SPLINE
  5
230
330
1F
100
AcDbEntity
  8
Object
  6
Continuous
370
    15
100
AcDbSpline
210
0.0
220
0.0
230
1.0
 70
     8
 71
     3
 72
    11
 73
     7
 74
     0
 42
0.0000000001
 43
0.0000000001
 40
0.0
 40
0.0
 40
0.0
 40
0.0
 40
0.2499996782268198
 40
0.4999996850176292
 40
0.7499999393096707
 40
1.0
 40
1.0
 40
1.0
 40
1.0
 10
38.37339150727446
 20
12.3263025428861
 30
0.0
 10
38.37285037095225
 20
12.32600777414912
 30
0.0
 10
38.37176809759665
 20
12.32541823628775
 30
0.0
 10
38.36344312292408
 20
12.32453518755719
 30
0.0
 10
38.35154351376065
 20
12.32365063111727
 30
0.0
 10
38.34210884213552
 20
12.32306176389099
 30
0.0
 10
38.33739150814952
 20
12.32276733039185
 30
0.0
  0
LINE
  5
231
330
1F
100
AcDbEntity
  8
Object
  6
Continuous
370
    15
100
AcDbLine
 10
34.64739153367744
 20
12.28676694627136
 30
0.0
 11
38.33739150814952
 21
12.28676694627136
 31
0.0
  0
LINE
  5
232
330
1F
100
AcDbEntity
  8
Object
  6
Continuous
370
    15
100
AcDbLine
 10
34.64739153367744
 20
12.32276733039185
 30
0.0
 11
34.64739153367744
 21
12.28676694627136
 31
0.0
  0
LINE
  5
233
330
1F
100
AcDbEntity
  8
Object
  6
Continuous
370
    15
100
AcDbLine
 10
38.33739150814952
 20
12.32276733039185
 30
0.0
 11
38.33739150814952
 21
12.28676694627136
 31
0.0
  0
LINE
  5
234
330
1F
100
AcDbEntity
  8
Object
  6
Continuous
370
    15
100
AcDbLine
 10
34.64739153367744
 20
29.596767139672
 30
0.0
 11
34.64739153367744
 21
29.56076734221141
 31
0.0
  0
LINE
  5
235
330
1F
100
AcDbEntity
  8
Object
  6
Continuous
370
    15
100
AcDbLine
 10
34.64739153367744
 20
29.596767139672
 30
0.0
 11
38.33739150814952
 21
29.596767139672
 31
0.0
  0
LINE
  5
236
330
1F
100
AcDbEntity
  8
Object
  6
Continuous
370
    15
100
AcDbLine
 10
38.33739150814952
 20
29.596767139672
 30
0.0
 11
38.33739150814952
 21
29.56076734221141
 31
0.0
  0
SPLINE
  5
237
330
1F
100
AcDbEntity
  8
Object
  6
Continuous
370
    15
100
AcDbSpline
210
0.0
220
0.0
230
1.0
 70
     8
 71
     3
 72
    11
 73
     7
 74
     0
 42
0.0000000001
 43
0.0000000001
 40
0.0
 40
0.0
 40
0.0
 40
0.0
 40
0.2499987183715622
 40
0.4999985554715909
 40
0.7500006272444347
 40
0.9999999999999998
 40
0.9999999999999998
 40
0.9999999999999998
 40
0.9999999999999998
 10
34.64739153367744
 20
12.32276733039185
 30
0.0
 10
34.64267421776849
 20
12.32306176392464
 30
0.0
 10
34.63323956484091
 20
12.32365063230779
 30
0.0
 10
34.62134003244619
 20
12.32453519335495
 30
0.0
 10
34.61301475313814
 20
12.32541823068127
 30
0.0
 10
34.6119325443567
 20
12.32600777321195
 30
0.0
 10
34.61139144288689
 20
12.3263025428861
 30
0.0
  0
LINE
  5
238
330
1F
100
AcDbEntity
  8
Object
  6
Continuous
370
    15
100
AcDbLine
 10
34.61139144288689
 20
29.55723154305726
 30
0.0
 11
34.61139144288689
 21
12.3263025428861
 31
0.0
  0
SPLINE
  5
239
330
1F
100
AcDbEntity
  8
Object
  6
Continuous
370
    15
100
AcDbSpline
210
0.0
220
0.0
230
1.0
 70
     8
 71
     3
 72
    11
 73
     7
 74
     0
 42
0.0000000001
 43
0.0000000001
 40
0.0
 40
0.0
 40
0.0
 40
0.0
 40
0.249999209160082
 40
0.5000011173356765
 40
0.7500007908399179
 40
1.0
 40
1.0
 40
1.0
 40
1.0
 10
34.61139144288689
 20
29.55723154305726
 30
0.0
 10
34.61193254458306
 20
29.55752630925315
 30
0.0
 10
34.61301475381719
 20
29.55811584482725
 30
0.0
 10
34.62134002972999
 20
29.55899893432813
 30
0.0
 10
34.63323958540897
 20
29.55988329788521
 30
0.0
 10
34.64267422050857
 20
29.56047266095178
 30
0.0
 10
34.64739153367744
 20
29.56076734221141
 30
0.0
  0
LINE
  5
23A
330
1F
100
AcDbEntity
  8
Object
  6
Continuous
370
    15
100
AcDbLine
 10
38.37339150727446
 20
12.32276733039185
 30
0.0
 11
38.35539150771199
 21
12.32276733039185
 31
0.0
  0
SPLINE
  5
23B
330
1F
100
AcDbEntity
  8
Object
  6
Continuous
370
    15
100
AcDbSpline
210
0.0
220
0.0
230
1.0
 70
     8
 71
     3
 72
    11
 73
     7
 74
     0
 42
0.0000000001
 43
0.0000000001
 40
0.0
 40
0.0
 40
0.0
 40
0.0
 40
0.2500000951678935
 40
0.4999975172640342
 40
0.7499929327390241
 40
0.9999999999999998
 40
0.9999999999999998
 40
0.9999999999999998
 40
0.9999999999999998
 10
38.33739150814952
 20
12.30476684500166
 30
0.0
 10
38.33975017144033
 20
12.30503752813451
 30
0.0
 10
38.34446747280246
 20
12.30557889150598
 30
0.0
 10
38.3504172936843
 20
12.309741210807
 30
0.0
 10
38.35457987542064
 20
12.31569119274658
 30
0.0
 10
38.35512095941183
 20
12.3204085811996
 30
0.0
 10
38.35539150771199
 20
12.32276733039185
 30
0.0
  0
SPLINE
  5
23C
330
1F
100
AcDbEntity
  8
Object
  6
Continuous
370
    15
100
AcDbSpline
210
0.0
220
0.0
230
1.0
 70
     8
 71
     3
 72
    11
 73
     7
 74
     0
 42
0.0000000001
 43
0.0000000001
 40
0.0
 40
0.0
 40
0.0
 40
0.0
 40
0.249998001399658
 40
0.499995542024771
 40
0.7499928351513383
 40
0.9999999999999998
 40
0.9999999999999998
 40
0.9999999999999998
 40
0.9999999999999998
 10
38.33739150814952
 20
12.28676694627136
 30
0.0
 10
38.34210883951841
 20
12.28730806893328
 30
0.0
 10
38.35154349356162
 20
12.28839031325977
 30
0.0
 10
38.36344312416445
 20
12.29671518424251
 30
0.0
 10
38.37176821567573
 20
12.30861498471886
 30
0.0
 10
38.37285040295291
 20
12.31804981974269
 30
0.0
 10
38.37339150727446
 20
12.32276733039185
 30
0.0
  0
SPLINE
  5
23D
330
1F
100
AcDbEntity
  8
Object
  6
Continuous
370
    15
100
AcDbSpline
210
0.0
220
0.0
230
1.0
 70
     8
 71
     3
 72
    11
 73
     7
 74
     0
 42
0.0000000001
 43
0.0000000001
 40
0.0
 40
0.0
 40
0.0
 40
0.0
 40
0.2499995146318228
 40
0.49999935782742
 40
0.7499994485240875
 40
1.0
 40
1.0
 40
1.0
 40
1.0
 10
38.37339150727446
 20
29.56076734221141
 30
0.0
 10
38.3728503707259
 20
29.56548464763901
 30
0.0
 10
38.37176809691761
 20
29.57491926469398
 30
0.0
 10
38.3634431256402
 20
29.58681890126669
 30
0.0
 10
38.35154349319269
 20
29.59514377279214
 30
0.0
 10
38.34210883939543
 20
29.59622601704626
 30
0.0
 10
38.33739150814952
 20
29.596767139672
 30
0.0
  0
LINE
  5
23E
330
1F
100
AcDbEntity
  8
Object
  6
Continuous
370
    15
100
AcDbLine
 10
38.37339150727446
 20
29.56076734221141
 30
0.0
 11
38.35539150771199
 21
29.56076734221141
 31
0.0
  0
SPLINE
  5
23F
330
1F
100
AcDbEntity
  8
Object
  6
Continuous
370
    15
100
AcDbSpline
210
0.0
220
0.0
230
1.0
 70
     8
 71
     3
 72
    11
 73
     7
 74
     0
 42
0.0000000001
 43
0.0000000001
 40
0.0
 40
0.0
 40
0.0
 40
0.0
 40
0.2499919456914163
 40
0.4999924016446557
 40
0.7499948642595039
 40
1.0
 40
1.0
 40
1.0
 40
1.0
 10
38.35539150771199
 20
29.56076734221141
 30
0.0
 10
38.35512092756172
 20
29.56312588568319
 30
0.0
 10
38.35457975805006
 20
29.56784305291666
 30
0.0
 10
38.35041729514299
 20
29.57379287519784
 30
0.0
 10
38.34446747243778
 20
29.577955194422
 30
0.0
 10
38.33975017131877
 20
29.57849655780373
 30
0.0
 10
38.33739150814952
 20
29.57876724094171
 30
0.0
  0
LINE
  5
240
330
1F
100
AcDbEntity
  8
Object
  6
Continuous
370
    15
100
AcDbLine
 10
34.61139144288689
 20
12.32276733039185
 30
0.0
 11
34.62939163494713
 21
12.32276733039185
 31
0.0
  0
SPLINE
  5
241
330
1F
100
AcDbEntity
  8
Object
  6
Continuous
370
    15
100
AcDbSpline
210
0.0
220
0.0
230
1.0
 70
     8
 71
     3
 72
    11
 73
     7
 74
     0
 42
0.0000000001
 43
0.0000000001
 40
0.0
 40
0.0
 40
0.0
 40
0.0
 40
0.2500074766516005
 40
0.5000027443354851
 40
0.7500005989167623
 40
1.0
 40
1.0
 40
1.0
 40
1.0
 10
34.62939163494713
 20
12.32276733039185
 30
0.0
 10
34.62966217637913
 20
12.32040858259484
 30
0.0
 10
34.63020324603137
 20
12.31569120218888
 30
0.0
 10
34.63436578659511
 20
12.309741202304
 30
0.0
 10
34.64031559844126
 20
12.30557889936468
 30
0.0
 10
34.64503288373516
 20
12.30503753034749
 30
0.0
 10
34.64739153367744
 20
12.30476684500166
 30
0.0
  0
SPLINE
  5
242
330
1F
100
AcDbEntity
  8
Object
  6
Continuous
370
    15
100
AcDbSpline
210
0.0
220
0.0
230
1.0
 70
     8
 71
     3
 72
    11
 73
     7
 74
     0
 42
0.0000000001
 43
0.0000000001
 40
0.0
 40
0.0
 40
0.0
 40
0.0
 40
0.2500068593803902
 40
0.5000062174657736
 40
0.7500033409025983
 40
0.9999999999999998
 40
0.9999999999999998
 40
0.9999999999999998
 40
0.9999999999999998
 10
34.61139144288689
 20
12.32276733039185
 30
0.0
 10
34.61193251235501
 20
12.31804980792999
 30
0.0
 10
34.61301463505683
 20
12.30861490455249
 30
0.0
 10
34.62134003120528
 20
12.29671525610038
 30
0.0
 10
34.63323958504015
 20
12.28839031292054
 30
0.0
 10
34.64267422038563
 20
12.28730806815273
 30
0.0
 10
34.64739153367744
 20
12.28676694627136
 30
0.0
  0
SPLINE
  5
243
330
1F
100
AcDbEntity
  8
Object
  6
Continuous
370
    15
100
AcDbSpline
210
0.0
220
0.0
230
1.0
 70
     8
 71
     3
 72
    11
 73
     7
 74
     0
 42
0.0000000001
 43
0.0000000001
 40
0.0
 40
0.0
 40
0.0
 40
0.0
 40
0.249999209160082
 40
0.4999988826643235
 40
0.7500007908399179
 40
1.0
 40
1.0
 40
1.0
 40
1.0
 10
34.64739153367744
 20
29.59676713967201
 30
0.0
 10
34.64267422050857
 20
29.59622601782684
 30
0.0
 10
34.63323958540897
 20
29.59514377313143
 30
0.0
 10
34.62134002972999
 20
29.58681882940856
 30
0.0
 10
34.61301475381719
 20
29.57491934485899
 30
0.0
 10
34.61193254458306
 20
29.56548465945107
 30
0.0
 10
34.61139144288689
 20
29.56076734221141
 30
0.0
  0
SPLINE
  5
244
330
1F
100
AcDbEntity
  8
Object
  6
Continuous
370
    15
100
AcDbSpline
210
0.0
220
0.0
230
1.0
 70
     8
 71
     3
 72
    11
 73
     7
 74
     0
 42
0.0000000001
 43
0.0000000001
 40
0.0
 40
0.0
 40
0.0
 40
0.0
 40
0.2500044416564174
 40
0.5000073367796931
 40
0.7500076449534184
 40
1.0
 40
1.0
 40
1.0
 40
1.0
 10
34.64739153367744
 20
29.57876724094171
 30
0.0
 10
34.64503288385671
 20
29.57849655559075
 30
0.0
 10
34.64031559880591
 20
29.57795518656331
 30
0.0
 10
34.63436578513653
 20
29.57379288370084
 30
0.0
 10
34.63020336340066
 20
29.56784304347517
 30
0.0
 10
34.62966220822902
 20
29.56312588428819
 30
0.0
 10
34.62939163494713
 20
29.56076734221141
 30
0.0
  0
LINE
  5
245
330
1F
100
AcDbEntity
  8
Object
  6
Continuous
370
    15
100
AcDbLine
 10
34.61139144288689
 20
29.56076734221141
 30
0.0
 11
34.62939163494713
 21
29.56076734221141
 31
0.0
  0
LINE
  5
246
330
1F
100
AcDbEntity
  8
Object
  6
Continuous
370
    15
100
AcDbLine
 10
38.37339150727446
 20
12.32276733039185
 30
0.0
 11
38.37339150727446
 21
12.3263025428861
 31
0.0
  0
LINE
  5
247
330
1F
100
AcDbEntity
  8
Object
  6
Continuous
370
    15
100
AcDbLine
 10
38.37339150727446
 20
29.55723154305726
 30
0.0
 11
38.37339150727446
 21
29.56076734221141
 31
0.0
  0
LINE
  5
248
330
1F
100
AcDbEntity
  8
Object
  6
Continuous
370
    15
100
AcDbLine
 10
34.61139144288689
 20
12.3263025428861
 30
0.0
 11
34.61139144288689
 21
12.32276733039185
 31
0.0
  0
LINE
  5
249
330
1F
100
AcDbEntity
  8
Object
  6
Continuous
370
    15
100
AcDbLine
 10
34.61139144288689
 20
29.56076734221141
 30
0.0
 11
34.61139144288689
 21
29.55723154305726
 31
0.0
  0
LINE
  5
24A
330
1F
100
AcDbEntity
  8
Object
  6
Continuous
370
    15
100
AcDbLine
 10
34.49139162913498
 20
29.14676732477494
 30
0.0
 11
34.55389144046516
 21
29.14676732477494
 31
0.0
  0
LINE
  5
24B
330
1F
100
AcDbEntity
  8
Object
  6
Continuous
370
    15
100
AcDbLine
 10
34.55389144046516
 20
29.39676715675555
 30
0.0
 11
34.48639152689658
 21
29.39676715675555
 31
0.0
  0
LINE
  5
24C
330
1F
100
AcDbEntity
  8
Object
  6
Continuous
370
    15
100
AcDbLine
 10
34.49139162913498
 20
28.64676707415383
 30
0.0
 11
34.55389144046516
 21
28.64676707415383
 31
0.0
  0
LINE
  5
24D
330
1F
100
AcDbEntity
  8
Object
  6
Continuous
370
    15
100
AcDbLine
 10
34.55389144046516
 20
28.89676690613444
 30
0.0
 11
34.49139162913498
 21
28.89676690613444
 31
0.0
  0
LINE
  5
24E
330
1F
100
AcDbEntity
  8
Object
  6
Continuous
370
    15
100
AcDbLine
 10
34.55389144046516
 20
28.39676724217322
 30
0.0
 11
34.49139162913498
 21
28.39676724217322
 31
0.0
  0
LINE
  5
24F
330
1F
100
AcDbEntity
  8
Object
  6
Continuous
370
    15
100
AcDbLine
 10
34.49139162913498
 20
28.14676682353272
 30
0.0
 11
34.55389144046516
 21
28.14676682353272
 31
0.0
  0
LINE
  5
250
330
1F
100
AcDbEntity
  8
Object
  6
Continuous
370
    15
100
AcDbLine
 10
34.55389144046516
 20
27.3967673275909
 30
0.0
 11
34.49139162913498
 21
27.3967673275909
 31
0.0
  0
LINE
  5
251
330
1F
100
AcDbEntity
  8
Object
  6
Continuous
370
    15
100
AcDbLine
 10
34.49139162913498
 20
27.14676690895041
 30
0.0
 11
34.55389144046516
 21
27.14676690895041
 31
0.0
  0
LINE
  5
252
330
1F
100
AcDbEntity
  8
Object
  6
Continuous
370
    15
100
AcDbLine
 10
34.55389144046516
 20
27.89676699155212
 30
0.0
 11
34.49139162913498
 21
27.89676699155212
 31
0.0
  0
LINE
  5
253
330
1F
100
AcDbEntity
  8
Object
  6
Continuous
370
    15
100
AcDbLine
 10
34.49139162913498
 20
27.64676715957151
 30
0.0
 11
34.55389144046516
 21
27.64676715957151
 31
0.0
  0
LINE
  5
254
330
1F
100
AcDbEntity
  8
Object
  6
Continuous
370
    15
100
AcDbLine
 10
34.55389144046516
 20
26.39676682634869
 30
0.0
 11
34.49139162913498
 21
26.39676682634869
 31
0.0
  0
LINE
  5
255
330
1F
100
AcDbEntity
  8
Object
  6
Continuous
370
    15
100
AcDbLine
 10
34.49139162913498
 20
26.14676699436809
 30
0.0
 11
34.55389144046516
 21
26.14676699436809
 31
0.0
  0
LINE
  5
256
330
1F
100
AcDbEntity
  8
Object
  6
Continuous
370
    15
100
AcDbLine
 10
34.49139162913498
 20
26.6467672449892
 30
0.0
 11
34.55389144046516
 21
26.6467672449892
 31
0.0
  0
LINE
  5
257
330
1F
100
AcDbEntity
  8
Object
  6
Continuous
370
    15
100
AcDbLine
 10
34.55389144046516
 20
26.8967670769698
 30
0.0
 11
34.49139162913498
 21
26.8967670769698
 31
0.0
  0
LINE
  5
258
330
1F
100
AcDbEntity
  8
Object
  6
Continuous
370
    15
100
AcDbLine
 10
34.55389144046516
 20
25.89676716238748
 30
0.0
 11
34.49139162913498
 21
25.89676716238748
 31
0.0
  0
LINE
  5
259
330
1F
100
AcDbEntity
  8
Object
  6
Continuous
370
    15
100
AcDbLine
 10
34.49139162913498
 20
25.64676703707693
 30
0.0
 11
34.55389144046516
 21
25.64676703707693
 31
0.0
  0
LINE
  5
25A
330
1F
100
AcDbEntity
  8
Object
  6
Continuous
370
    15
100
AcDbLine
 10
34.49139162913498
 20
25.14676707978576
 30
0.0
 11
34.55389144046516
 21
25.14676707978576
 31
0.0
  0
LINE
  5
25B
330
1F
100
AcDbEntity
  8
Object
  6
Continuous
370
    15
100
AcDbLine
 10
34.55389144046516
 20
25.39676720509632
 30
0.0
 11
34.49139162913498
 21
25.39676720509632
 31
0.0
  0
LINE
  5
25C
330
1F
100
AcDbEntity
  8
Object
  6
Continuous
370
    15
100
AcDbLine
 10
34.49139162913498
 20
24.6467671224946
 30
0.0
 11
34.55389144046516
 21
24.6467671224946
 31
0.0
  0
LINE
  5
25D
330
1F
100
AcDbEntity
  8
Object
  6
Continuous
370
    15
100
AcDbLine
 10
34.55389144046516
 20
24.89676695447521
 30
0.0
 11
34.49139162913498
 21
24.89676695447521
 31
0.0
  0
LINE
  5
25E
330
1F
100
AcDbEntity
  8
Object
  6
Continuous
370
    15
100
AcDbLine
 10
34.49139162913498
 20
24.14676716520344
 30
0.0
 11
34.55389144046516
 21
24.14676716520344
 31
0.0
  0
LINE
  5
25F
330
1F
100
AcDbEntity
  8
Object
  6
Continuous
370
    15
100
AcDbLine
 10
34.55389144046516
 20
24.39676699718405
 30
0.0
 11
34.49139162913498
 21
24.39676699718405
 31
0.0
  0
LINE
  5
260
330
1F
100
AcDbEntity
  8
Object
  6
Continuous
370
    15
100
AcDbLine
 10
34.49139162913498
 20
23.14676710395615
 30
0.0
 11
34.55389144046516
 21
23.14676710395615
 31
0.0
  0
LINE
  5
261
330
1F
100
AcDbEntity
  8
Object
  6
Continuous
370
    15
100
AcDbLine
 10
34.55389144046516
 20
23.39676708260173
 30
0.0
 11
34.49139162913498
 21
23.39676708260173
 31
0.0
  0
LINE
  5
262
330
1F
100
AcDbEntity
  8
Object
  6
Continuous
370
    15
100
AcDbLine
 10
34.55389144046516
 20
23.89676703989289
 30
0.0
 11
34.49139162913498
 21
23.89676703989289
 31
0.0
  0
LINE
  5
263
330
1F
100
AcDbEntity
  8
Object
  6
Continuous
370
    15
100
AcDbLine
 10
34.49139162913498
 20
23.64676720791228
 30
0.0
 11
34.55389144046516
 21
23.64676720791228
 31
0.0
  0
LINE
  5
264
330
1F
100
AcDbEntity
  8
Object
  6
Continuous
370
    15
100
AcDbLine
 10
34.55389144046516
 20
22.89676712531057
 30
0.0
 11
34.49139162913498
 21
22.89676712531057
 31
0.0
  0
LINE
  5
265
330
1F
100
AcDbEntity
  8
Object
  6
Continuous
370
    15
100
AcDbLine
 10
34.49139162913498
 20
22.64676714666499
 30
0.0
 11
34.55389144046516
 21
22.64676714666499
 31
0.0
  0
LINE
  5
266
330
1F
100
AcDbEntity
  8
Object
  6
Continuous
370
    15
100
AcDbLine
 10
34.55389144046516
 20
21.89676706406328
 30
0.0
 11
34.49139162913498
 21
21.89676706406328
 31
0.0
  0
LINE
  5
267
330
1F
100
AcDbEntity
  8
Object
  6
Continuous
370
    15
100
AcDbLine
 10
34.49139162913498
 20
21.6467670854177
 30
0.0
 11
34.55389144046516
 21
21.6467670854177
 31
0.0
  0
LINE
  5
268
330
1F
100
AcDbEntity
  8
Object
  6
Continuous
370
    15
100
AcDbLine
 10
34.49139162913498
 20
22.14676704270886
 30
0.0
 11
34.55389144046516
 21
22.14676704270886
 31
0.0
  0
LINE
  5
269
330
1F
100
AcDbEntity
  8
Object
  6
Continuous
370
    15
100
AcDbLine
 10
34.55389144046516
 20
22.39676702135444
 30
0.0
 11
34.49139162913498
 21
22.39676702135444
 31
0.0
  0
LINE
  5
26A
330
1F
100
AcDbEntity
  8
Object
  6
Continuous
370
    15
100
AcDbLine
 10
34.49139162913498
 20
21.1467670914603
 30
0.0
 11
34.55389144046516
 21
21.1467670914603
 31
0.0
  0
LINE
  5
26B
330
1F
100
AcDbEntity
  8
Object
  6
Continuous
370
    15
100
AcDbLine
 10
34.55389144046516
 20
21.39676707010587
 30
0.0
 11
34.49139162913498
 21
21.39676707010587
 31
0.0
  0
LINE
  5
26C
330
1F
100
AcDbEntity
  8
Object
  6
Continuous
370
    15
100
AcDbLine
 10
34.49139162913498
 20
20.64676707916977
 30
0.0
 11
34.55389144046516
 21
20.64676707916977
 31
0.0
  0
LINE
  5
26D
330
1F
100
AcDbEntity
  8
Object
  6
Continuous
370
    15
100
AcDbLine
 10
34.55389144046516
 20
20.89676707614847
 30
0.0
 11
34.49139162913498
 21
20.89676707614847
 31
0.0
  0
LINE
  5
26E
330
1F
100
AcDbEntity
  8
Object
  6
Continuous
370
    15
100
AcDbLine
 10
34.55389144046516
 20
20.39676708219107
 30
0.0
 11
34.49139162913498
 21
20.39676708219107
 31
0.0
  0
LINE
  5
26F
330
1F
100
AcDbEntity
  8
Object
  6
Continuous
370
    15
100
AcDbLine
 10
34.49139162913498
 20
20.14676706687924
 30
0.0
 11
34.55389144046516
 21
20.14676706687924
 31
0.0
  0
LINE
  5
270
330
1F
100
AcDbEntity
  8
Object
  6
Continuous
370
    15
100
AcDbLine
 10
34.55389144046516
 20
19.3967671309425
 30
0.0
 11
34.49139162913498
 21
19.3967671309425
 31
0.0
  0
LINE
  5
271
330
1F
100
AcDbEntity
  8
Object
  6
Continuous
370
    15
100
AcDbLine
 10
34.49139162913498
 20
19.14676700563195
 30
0.0
 11
34.55389144046516
 21
19.14676700563195
 31
0.0
  0
LINE
  5
272
330
1F
100
AcDbEntity
  8
Object
  6
Continuous
370
    15
100
AcDbLine
 10
34.55389144046516
 20
19.89676708823366
 30
0.0
 11
34.49139162913498
 21
19.89676708823366
 31
0.0
  0
LINE
  5
273
330
1F
100
AcDbEntity
  8
Object
  6
Continuous
370
    15
100
AcDbLine
 10
34.49139162913498
 20
19.64676710958808
 30
0.0
 11
34.55389144046516
 21
19.64676710958808
 31
0.0
  0
LINE
  5
274
330
1F
100
AcDbEntity
  8
Object
  6
Continuous
370
    15
100
AcDbLine
 10
34.55389144046516
 20
18.89676702698637
 30
0.0
 11
34.49139162913498
 21
18.89676702698637
 31
0.0
  0
LINE
  5
275
330
1F
100
AcDbEntity
  8
Object
  6
Continuous
370
    15
100
AcDbLine
 10
34.49139162913498
 20
18.64676704834079
 30
0.0
 11
34.55389144046516
 21
18.64676704834079
 31
0.0
  0
LINE
  5
276
330
1F
100
AcDbEntity
  8
Object
  6
Continuous
370
    15
100
AcDbLine
 10
34.55389144046516
 20
17.89676696573908
 30
0.0
 11
34.49139162913498
 21
17.89676696573908
 31
0.0
  0
LINE
  5
277
330
1F
100
AcDbEntity
  8
Object
  6
Continuous
370
    15
100
AcDbLine
 10
34.49139162913498
 20
17.64676713375847
 30
0.0
 11
34.55389144046516
 21
17.64676713375847
 31
0.0
  0
LINE
  5
278
330
1F
100
AcDbEntity
  8
Object
  6
Continuous
370
    15
100
AcDbLine
 10
34.49139162913498
 20
18.14676709104963
 30
0.0
 11
34.55389144046516
 21
18.14676709104963
 31
0.0
  0
LINE
  5
279
330
1F
100
AcDbEntity
  8
Object
  6
Continuous
370
    15
100
AcDbLine
 10
34.55389144046516
 20
18.39676706969521
 30
0.0
 11
34.49139162913498
 21
18.39676706969521
 31
0.0
  0
LINE
  5
27A
330
1F
100
AcDbEntity
  8
Object
  6
Continuous
370
    15
100
AcDbLine
 10
34.49139162913498
 20
16.64676721917615
 30
0.0
 11
34.55389144046516
 21
16.64676721917615
 31
0.0
  0
LINE
  5
27B
330
1F
100
AcDbEntity
  8
Object
  6
Continuous
370
    15
100
AcDbLine
 10
34.55389144046516
 20
16.89676705115676
 30
0.0
 11
34.49139162913498
 21
16.89676705115676
 31
0.0
  0
LINE
  5
27C
330
1F
100
AcDbEntity
  8
Object
  6
Continuous
370
    15
100
AcDbLine
 10
34.55389144046516
 20
17.39676700844792
 30
0.0
 11
34.49139162913498
 21
17.39676700844792
 31
0.0
  0
LINE
  5
27D
330
1F
100
AcDbEntity
  8
Object
  6
Continuous
370
    15
100
AcDbLine
 10
34.49139162913498
 20
17.14676717646731
 30
0.0
 11
34.55389144046516
 21
17.14676717646731
 31
0.0
  0
LINE
  5
27E
330
1F
100
AcDbEntity
  8
Object
  6
Continuous
370
    15
100
AcDbLine
 10
34.55389144046516
 20
16.3967670938656
 30
0.0
 11
34.49139162913498
 21
16.3967670938656
 31
0.0
  0
LINE
  5
27F
330
1F
100
AcDbEntity
  8
Object
  6
Continuous
370
    15
100
AcDbLine
 10
34.49139162913498
 20
16.14676696855505
 30
0.0
 11
34.55389144046516
 21
16.14676696855505
 31
0.0
  0
LINE
  5
280
330
1F
100
AcDbEntity
  8
Object
  6
Continuous
370
    15
100
AcDbLine
 10
34.55389144046516
 20
15.89676713657444
 30
0.0
 11
34.49139162913498
 21
15.89676713657444
 31
0.0
  0
LINE
  5
281
330
1F
100
AcDbEntity
  8
Object
  6
Continuous
370
    15
100
AcDbLine
 10
34.49139162913498
 20
15.64676701126389
 30
0.0
 11
34.55389144046516
 21
15.64676701126389
 31
0.0
  0
LINE
  5
282
330
1F
100
AcDbEntity
  8
Object
  6
Continuous
370
    15
100
AcDbLine
 10
34.49139162913498
 20
15.14676734730267
 30
0.0
 11
34.55389144046516
 21
15.14676734730267
 31
0.0
  0
LINE
  5
283
330
1F
100
AcDbEntity
  8
Object
  6
Continuous
370
    15
100
AcDbLine
 10
34.55389144046516
 20
15.39676717928328
 30
0.0
 11
34.49139162913498
 21
15.39676717928328
 31
0.0
  0
LINE
  5
284
330
1F
100
AcDbEntity
  8
Object
  6
Continuous
370
    15
100
AcDbLine
 10
34.49139162913498
 20
14.64676709668156
 30
0.0
 11
34.55389144046516
 21
14.64676709668156
 31
0.0
  0
LINE
  5
285
330
1F
100
AcDbEntity
  8
Object
  6
Continuous
370
    15
100
AcDbLine
 10
34.55389144046516
 20
14.89676692866217
 30
0.0
 11
34.49139162913498
 21
14.89676692866217
 31
0.0
  0
LINE
  5
286
330
1F
100
AcDbEntity
  8
Object
  6
Continuous
370
    15
100
AcDbLine
 10
34.49139162913498
 20
13.64676718209924
 30
0.0
 11
34.55389144046516
 21
13.64676718209924
 31
0.0
  0
LINE
  5
287
330
1F
100
AcDbEntity
  8
Object
  6
Continuous
370
    15
100
AcDbLine
 10
34.55389144046516
 20
13.89676701407985
 30
0.0
 11
34.49139162913498
 21
13.89676701407985
 31
0.0
  0
LINE
  5
288
330
1F
100
AcDbEntity
  8
Object
  6
Continuous
370
    15
100
AcDbLine
 10
34.49139162913498
 20
14.14676684606046
 30
0.0
 11
34.55389144046516
 21
14.14676684606046
 31
0.0
  0
LINE
  5
289
330
1F
100
AcDbEntity
  8
Object
  6
Continuous
370
    15
100
AcDbLine
 10
34.55389144046516
 20
14.39676726470096
 30
0.0
 11
34.49139162913498
 21
14.39676726470096
 31
0.0
  0
LINE
  5
28A
330
1F
100
AcDbEntity
  8
Object
  6
Continuous
370
    15
100
AcDbLine
 10
34.49139162913498
 20
13.14676693147814
 30
0.0
 11
34.55389144046516
 21
13.14676693147814
 31
0.0
  0
LINE
  5
28B
330
1F
100
AcDbEntity
  8
Object
  6
Continuous
370
    15
100
AcDbLine
 10
34.55389144046516
 20
13.39676735011864
 30
0.0
 11
34.49139162913498
 21
13.39676735011864
 31
0.0
  0
LINE
  5
28C
330
1F
100
AcDbEntity
  8
Object
  6
Continuous
370
    15
100
AcDbLine
 10
34.49139162913498
 20
12.89676709949753
 30
0.0
 11
34.55389144046516
 21
12.89676709949753
 31
0.0
  0
ARC
  5
28D
330
1F
100
AcDbEntity
  8
Object
  6
Continuous
370
    15
100
AcDbCircle
 10
34.36639150902428
 20
12.52176707537779
 30
0.0
 40
0.1250000000000004
100
AcDbArc
 50
270.0000000000008
 51
0.0000000000010178
  0
LINE
  5
28E
330
1F
100
AcDbEntity
  8
Object
  6
Continuous
370
    15
100
AcDbLine
 10
34.36639141981473
 20
12.39676684887643
 30
0.0
 11
33.95139144059657
 21
12.39676684887643
 31
0.0
  0
LINE
  5
28F
330
1F
100
AcDbEntity
  8
Object
  6
Continuous
370
    15
100
AcDbLine
 10
33.95139144059657
 20
29.48676723706693
 30
0.0
 11
34.36639141981473
 21
29.48676723706693
 31
0.0
  0
ARC
  5
290
330
1F
100
AcDbEntity
  8
Object
  6
Continuous
370
    15
100
AcDbCircle
 10
34.36639150902428
 20
29.36176707537779
 30
0.0
 40
0.125
100
AcDbArc
 50
0.0000000000012213
 51
90.0
  0
LINE
  5
291
330
1F
100
AcDbEntity
  8
Object
  6
Continuous
370
    15
100
AcDbLine
 10
34.49139162913498
 20
29.36176702774669
 30
0.0
 11
34.49139162913498
 21
12.52176705819668
 31
0.0
  0
LINE
  5
292
330
1F
100
AcDbEntity
  8
Object
  6
Continuous
370
    15
100
AcDbLine
 10
33.87139156476197
 20
29.48676723706693
 30
0.0
 11
33.95139144059657
 21
29.48676723706693
 31
0.0
  0
LINE
  5
293
330
1F
100
AcDbEntity
  8
Object
  6
Continuous
370
    15
100
AcDbLine
 10
33.87139156476197
 20
12.39676684887643
 30
0.0
 11
33.87139156476197
 21
29.48676723706693
 31
0.0
  0
LINE
  5
294
330
1F
100
AcDbEntity
  8
Object
  6
Continuous
370
    15
100
AcDbLine
 10
33.95139144059657
 20
12.39676684887643
 30
0.0
 11
33.87139156476197
 21
12.39676684887643
 31
0.0
  0
ARC
  5
295
330
1F
100
AcDbEntity
  8
Object
  6
Continuous
370
    15
100
AcDbCircle
 10
33.95139150902428
 20
12.39676707537779
 30
0.0
 40
0.0799999999999992
100
AcDbArc
 50
179.9999999999987
 51
270.0000000000008
  0
ARC
  5
296
330
1F
100
AcDbEntity
  8
Object
  6
Continuous
370
    15
100
AcDbCircle
 10
33.95139150902428
 20
12.39676707537779
 30
0.0
 40
0.0299999999999994
100
AcDbArc
 50
180.0
 51
270.0000000000008
  0
LINE
  5
297
330
1F
100
AcDbEntity
  8
Object
  6
Continuous
370
    15
100
AcDbLine
 10
34.33961479580724
 20
12.36676682210596
 30
0.0
 11
34.42800302807217
 21
12.36676682210596
 31
0.0
  0
LINE
  5
298
330
1F
100
AcDbEntity
  8
Object
  6
Continuous
370
    15
100
AcDbLine
 10
34.42800302807217
 20
12.31676697304182
 30
0.0
 11
34.33961479580724
 21
12.31676697304182
 31
0.0
  0
LINE
  5
299
330
1F
100
AcDbEntity
  8
Object
  6
Continuous
370
    15
100
AcDbLine
 10
33.95139144059657
 20
12.36676682210596
 30
0.0
 11
34.33961479580724
 21
12.36676682210596
 31
0.0
  0
LINE
  5
29A
330
1F
100
AcDbEntity
  8
Object
  6
Continuous
370
    15
100
AcDbLine
 10
33.95139144059657
 20
12.31676697304182
 30
0.0
 11
34.33961479580724
 21
12.31676697304182
 31
0.0
  0
ARC
  5
29B
330
1F
100
AcDbEntity
  8
Object
  6
Continuous
370
    15
100
AcDbCircle
 10
33.95139150902428
 20
29.48676707537779
 30
0.0
 40
0.0799999999999983
100
AcDbArc
 50
90.0
 51
180.0
  0
ARC
  5
29C
330
1F
100
AcDbEntity
  8
Object
  6
Continuous
370
    15
100
AcDbCircle
 10
33.95139150902428
 20
29.48676707537779
 30
0.0
 40
0.0300000000000011
100
AcDbArc
 50
90.0
 51
179.9999999999949
  0
LINE
  5
29D
330
1F
100
AcDbEntity
  8
Object
  6
Continuous
370
    15
100
AcDbLine
 10
34.42800302807217
 20
29.5167672638374
 30
0.0
 11
34.33961479580724
 21
29.5167672638374
 31
0.0
  0
LINE
  5
29E
330
1F
100
AcDbEntity
  8
Object
  6
Continuous
370
    15
100
AcDbLine
 10
34.33961479580724
 20
29.56676711290155
 30
0.0
 11
34.42800302807217
 21
29.56676711290155
 31
0.0
  0
LINE
  5
29F
330
1F
100
AcDbEntity
  8
Object
  6
Continuous
370
    15
100
AcDbLine
 10
34.33961479580724
 20
29.5167672638374
 30
0.0
 11
33.95139144059657
 21
29.5167672638374
 31
0.0
  0
LINE
  5
2A0
330
1F
100
AcDbEntity
  8
Object
  6
Continuous
370
    15
100
AcDbLine
 10
34.33961479580724
 20
29.56676711290155
 30
0.0
 11
33.95139144059657
 21
29.56676711290155
 31
0.0
  0
LINE
  5
2A1
330
1F
100
AcDbEntity
  8
Object
  6
Continuous
370
    15
100
AcDbLine
 10
34.42800302807217
 20
12.36676682210596
 30
0.0
 11
34.57477975916152
 21
12.36676682210596
 31
0.0
  0
LINE
  5
2A2
330
1F
100
AcDbEntity
  8
Object
  6
Continuous
370
    15
100
AcDbLine
 10
34.57477975916152
 20
12.31676697304182
 30
0.0
 11
34.42800302807217
 21
12.31676697304182
 31
0.0
  0
LINE
  5
2A3
330
1F
100
AcDbEntity
  8
Object
  6
Continuous
370
    15
100
AcDbLine
 10
34.57477975916152
 20
29.5167672638374
 30
0.0
 11
34.42800302807217
 21
29.5167672638374
 31
0.0
  0
LINE
  5
2A4
330
1F
100
AcDbEntity
  8
Object
  6
Continuous
370
    15
100
AcDbLine
 10
34.42800302807217
 20
29.56676711290155
 30
0.0
 11
34.57477975916152
 21
29.56676711290155
 31
0.0
  0
LINE
  5
2A5
330
1F
100
AcDbEntity
  8
Object
  6
Continuous
370
    15
100
AcDbLine
 10
34.61139144288689
 20
12.32276733039185
 30
0.0
 11
34.61139144288689
 21
12.31676697304182
 31
0.0
  0
LINE
  5
2A6
330
1F
100
AcDbEntity
  8
Object
  6
Continuous
370
    15
100
AcDbLine
 10
34.57477975916152
 20
12.36676682210596
 30
0.0
 11
34.61139144288689
 21
12.36676682210596
 31
0.0
  0
LINE
  5
2A7
330
1F
100
AcDbEntity
  8
Object
  6
Continuous
370
    15
100
AcDbLine
 10
34.61139144288689
 20
12.31676697304182
 30
0.0
 11
34.57477975916152
 21
12.31676697304182
 31
0.0
  0
LINE
  5
2A8
330
1F
100
AcDbEntity
  8
Object
  6
Continuous
370
    15
100
AcDbLine
 10
34.61139144288689
 20
29.56676711290155
 30
0.0
 11
34.61139144288689
 21
29.56076734221141
 31
0.0
  0
LINE
  5
2A9
330
1F
100
AcDbEntity
  8
Object
  6
Continuous
370
    15
100
AcDbLine
 10
34.61139144288689
 20
29.5167672638374
 30
0.0
 11
34.57477975916152
 21
29.5167672638374
 31
0.0
  0
LINE
  5
2AA
330
1F
100
AcDbEntity
  8
Object
  6
Continuous
370
    15
100
AcDbLine
 10
34.57477975916152
 20
29.56676711290155
 30
0.0
 11
34.61139144288689
 21
29.56676711290155
 31
0.0
  0
ARC
  5
2AB
330
1F
100
AcDbEntity
  8
Object
  6
Continuous
370
    15
100
AcDbCircle
 10
34.58039150902428
 20
12.42776707537779
 30
0.0
 40
0.0310000000000024
100
AcDbArc
 50
270.0000000000008
 51
0.0
  0
ARC
  5
2AC
330
1F
100
AcDbEntity
  8
Object
  6
Continuous
370
    15
100
AcDbCircle
 10
34.58039150902428
 20
29.45576707537779
 30
0.0
 40
0.0310000000000024
100
AcDbArc
 50
0.0
 51
90.0
  0
LINE
  5
2AD
330
1F
100
AcDbEntity
  8
Object
  6
Continuous
370
    15
100
AcDbLine
 10
34.58039145433473
 20
29.48676723706693
 30
0.0
 11
34.36639141981473
 21
29.48676723706693
 31
0.0
  0
LINE
  5
2AE
330
1F
100
AcDbEntity
  8
Object
  6
Continuous
370
    15
100
AcDbLine
 10
34.36639141981473
 20
12.39676684887643
 30
0.0
 11
34.58039145433473
 21
12.39676684887643
 31
0.0
  0
LINE
  5
2DB
330
1F
100
AcDbEntity
  8
DIMENSIONS
100
AcDbLine
 10
12.16134754339772
 20
27.64676707537784
 30
0.0
 11
12.34134754339772
 21
27.64676707537784
 31
0.0
  0
LINE
  5
2DC
330
1F
100
AcDbEntity
  8
DIMENSIONS
100
AcDbLine
 10
12.25134754339772
 20
27.55676707537784
 30
0.0
 11
12.25134754339772
 21
27.73676707537783
 31
0.0
  0
LINE
  5
2DD
330
1F
100
AcDbEntity
  8
DIMENSIONS
100
AcDbLine
 10
21.11134754339773
 20
27.64676707537784
 30
0.0
 11
21.29134754339773
 21
27.64676707537784
 31
0.0
  0
LINE
  5
2DE
330
1F
100
AcDbEntity
  8
DIMENSIONS
100
AcDbLine
 10
21.20134754339773
 20
27.55676707537784
 30
0.0
 11
21.20134754339773
 21
27.73676707537783
 31
0.0
  0
LINE
  5
2DF
330
1F
100
AcDbEntity
  8
DIMENSIONS
100
AcDbLine
 10
12.16134754339772
 20
19.52176707537784
 30
0.0
 11
12.34134754339772
 21
19.52176707537784
 31
0.0
  0
LINE
  5
2E0
330
1F
100
AcDbEntity
  8
DIMENSIONS
100
AcDbLine
 10
12.25134754339772
 20
19.43176707537783
 30
0.0
 11
12.25134754339772
 21
19.61176707537783
 31
0.0
  0
LINE
  5
2E1
330
1F
100
AcDbEntity
  8
DIMENSIONS
100
AcDbLine
 10
21.11134754339773
 20
19.52176707537784
 30
0.0
 11
21.29134754339773
 21
19.52176707537784
 31
0.0
  0
LINE
  5
2E2
330
1F
100
AcDbEntity
  8
DIMENSIONS
100
AcDbLine
 10
21.20134754339773
 20
19.43176707537783
 30
0.0
 11
21.20134754339773
 21
19.61176707537783
 31
0.0
  0
DIMENSION
  5
2E3
330
1F
100
AcDbEntity
  8
DIMENSIONS
100
AcDbDimension
  2
*D5
 10
23.15634754339752
 20
33.72866018249047
 30
0.0
 11
16.81526356791133
 21
33.72866018249047
 31
0.0
 70
   160
 71
     5
 42
12.81000021769284
  3
Standard
100
AcDbAlignedDimension
 13
10.34634732570467
 23
29.56076734221122
 33
0.0
 14
23.15634754339752
 24
29.56076707537781
 34
0.0
100
AcDbRotatedDimension
  0
DIMENSION
  5
2FC
330
1F
100
AcDbEntity
  8
DIMENSIONS
100
AcDbDimension
  2
*D6
 10
21.20134754339773
 20
32.0736935071354
 30
0.0
 11
16.72634754339772
 21
32.0736935071354
 31
0.0
 70
    32
 71
     5
 42
8.949999999999999
  3
Standard
100
AcDbAlignedDimension
 13
12.25134754339772
 23
27.73676707537783
 33
0.0
 14
21.20134754339773
 24
27.73676707537783
 34
0.0
100
AcDbRotatedDimension
  0
DIMENSION
  5
30B
330
1F
100
AcDbEntity
  8
DIMENSIONS
100
AcDbDimension
  2
*D7
 10
23.15634754339752
 20
32.0736935071354
 30
0.0
 11
25.15078435361457
 21
32.0736935071354
 31
0.0
 70
   160
 71
     5
 42
1.954999999999792
  3
Standard
100
AcDbAlignedDimension
 13
21.20134754339773
 23
27.73676707537783
 33
0.0
 14
23.15634754339752
 24
29.56076707537781
 34
0.0
100
AcDbRotatedDimension
  0
DIMENSION
  5
338
330
1F
100
AcDbEntity
  8
DIMENSIONS
100
AcDbDimension
  2
*D8
 10
38.37339150727446
 20
31.54637546114736
 30
0.0
 11
36.11755853426674
 21
31.54637546114736
 31
0.0
 70
   160
 71
     5
 42
4.501999998250177
  3
Standard
100
AcDbAlignedDimension
 13
33.87139150902428
 23
29.48676707537779
 33
0.0
 14
38.37339150727446
 24
29.55723154305726
 34
0.0
100
AcDbRotatedDimension
  0
DIMENSION
  5
351
330
1F
100
AcDbEntity
  8
DIMENSIONS
100
AcDbDimension
  2
*D9
 10
27.0074816575599
 20
12.28676694627136
 30
0.0
 11
27.00748165755989
 21
20.94176704297169
 31
0.0
 70
   160
 71
     5
 42
17.31000019340064
  3
Standard
100
AcDbAlignedDimension
 13
23.12034781269433
 23
29.596767139672
 33
0.0
 14
23.12034781269433
 24
12.28676694627136
 34
0.0
 50
90.0
100
AcDbRotatedDimension
  0
DIMENSION
  5
36A
330
1F
100
AcDbEntity
  8
DIMENSIONS
100
AcDbDimension
  2
*D10
 10
24.87249016312155
 20
13.67176707537779
 30
0.0
 11
24.87249016312154
 21
12.90700282048437
 31
0.0
 70
   160
 71
     5
 42
1.385000129106435
  3
Standard
100
AcDbAlignedDimension
 13
23.12034781269414
 23
12.28676694627136
 33
0.0
 14
21.47134754339754
 24
13.67176707537779
 34
0.0
 50
90.0
100
AcDbRotatedDimension
  0
DIMENSION
  5
37A
330
1F
100
AcDbEntity
  8
DIMENSIONS
100
AcDbDimension
  2
*D11
 10
24.87249016312154
 20
13.67176710663132
 30
0.0
 11
24.87249016312154
 21
16.17176711308458
 31
0.0
 70
    32
 71
     5
 42
5.000000012906516
  3
Standard
100
AcDbAlignedDimension
 13
21.47134747542027
 23
18.67176711953783
 33
0.0
 14
21.47134747542027
 24
13.67176710663132
 34
0.0
 50
90.0
100
AcDbRotatedDimension
  0
DIMENSION
  5
3BC
330
1F
100
AcDbEntity
  8
DIMENSIONS
100
AcDbDimension
  2
*D12
 10
21.59634768474052
 20
10.70394299682107
 30
0.0
 11
16.75134761406902
 21
10.70394299682107
 31
0.0
 70
    32
 71
     5
 42
9.69000014134299
  3
Standard
100
AcDbAlignedDimension
 13
11.90634754339753
 23
13.79676707537779
 33
0.0
 14
21.59634768474052
 24
13.79676731595157
 34
0.0
100
AcDbRotatedDimension
  0
LINE
  5
41E
330
1F
100
AcDbEntity
  8
DIMENSIONS
100
AcDbLine
 10
37.90263125612574
 20
27.64676707537784
 30
0.0
 11
38.9929181218379
 21
27.64676707537784
 31
0.0
  0
LINE
  5
41F
330
1F
100
AcDbEntity
  8
DIMENSIONS
100
AcDbLine
 10
37.71072853548933
 20
19.52176707537784
 30
0.0
 11
38.86270198613246
 21
19.52176707537784
 31
0.0
  0
DIMENSION
  5
420
330
1F
100
AcDbEntity
  8
DIMENSIONS
100
AcDbDimension
  2
*D13
 10
41.34299803014934
 20
27.64676707537784
 30
0.0
 11
41.34299803014934
 21
23.58426707537784
 31
0.0
 70
    32
 71
     5
 42
8.125
  3
Standard
100
AcDbAlignedDimension
 13
38.86270198613246
 23
19.52176707537784
 33
0.0
 14
38.9929181218379
 24
27.64676707537784
 34
0.0
 50
90.0
100
AcDbRotatedDimension
  0
DIMENSION
  5
42F
330
1F
100
AcDbEntity
  8
DIMENSIONS
100
AcDbDimension
  2
*D14
 10
41.34299803014934
 20
12.28676694627136
 30
0.0
 11
41.34299803014934
 21
15.9042670108246
 31
0.0
 70
    32
 71
     5
 42
7.235000129106477
  3
Standard
100
AcDbAlignedDimension
 13
38.86270198613246
 23
19.52176707537784
 33
0.0
 14
38.33739150814952
 24
12.28676694627136
 34
0.0
 50
90.0
100
AcDbRotatedDimension
  0
LINE
  5
449
330
1F
100
AcDbEntity
  8
DIMENSIONS
100
AcDbLine
 10
38.37339150727446
 20
29.55723154305726
 30
0.0
 11
38.37339150727446
 21
36.73291142606824
 31
0.0
  0
LINE
  5
44A
330
1F
100
AcDbEntity
  8
DIMENSIONS
100
AcDbLine
 10
38.37339150727446
 20
35.94227632010944
 30
0.0
 11
38.8086925815993
 21
36.70633942394554
 31
0.0
  0
LINE
  5
44B
330
1F
100
AcDbEntity
  8
DIMENSIONS
100
AcDbLine
 10
38.37339150727446
 20
35.53860044503831
 30
0.0
 11
38.8086925815993
 21
36.30266354887441
 31
0.0
  0
LINE
  5
44C
330
1F
100
AcDbEntity
  8
DIMENSIONS
100
AcDbLine
 10
38.37339150727446
 20
35.09384726064084
 30
0.0
 11
38.8086925815993
 21
35.85791036447694
 31
0.0
  0
LEADER
  5
44D
330
1F
100
AcDbEntity
  8
DIMENSIONS
100
AcDbLeader
  3
Standard
 76
     2
 10
38.37339150727446
 20
34.31711959004509
 30
0.0
 10
36.39118727341432
 20
34.31711959004509
 30
0.0
1001
ACAD
1000
DSTYLE
1002
{
1070
   147
1040
0.09
1070
    77
1070
     0
1002
}
  0
MTEXT
  5
44E
330
1F
100
AcDbEntity
  8
DIMENSIONS
100
AcDbMText
 10
32.559430540024
 20
34.47502645242508
 30
0.0
 40
0.25
 41
4.591155478809554
 71
     1
 72
     5
  1
Finish Face of Wall
 73
     1
 44
1.0
  0
LEADER
  5
44F
330
1F
100
AcDbEntity
  8
DIMENSIONS
100
AcDbLeader
  3
Standard
 76
     3
 10
11.82271932012551
 20
20.2633768462886
 30
0.0
 10
9.419400441024833
 20
18.68942684253063
 30
0.0
 10
9.034672811829778
 20
18.68942684253063
 30
0.0
1001
ACAD
1000
DSTYLE
1002
{
1070
   147
1040
0.09
1070
    77
1070
     0
1002
}
  0
MTEXT
  5
450
330
1F
100
AcDbEntity
  8
DIMENSIONS
100
AcDbMText
 10
6.291568894615352
 20
18.82806897866729
 30
0.0
 40
0.25
 41
4.591155478809554
 71
     1
 72
     5
  1
Lock and Key
 73
     1
 44
1.0
  0
LINE
  5
461
330
1F
100
AcDbEntity
  8
DIMENSIONS
100
AcDbLine
 10
38.51739150814952
 20
29.596767139672
 30
0.0
 11
45.25049795756806
 21
29.596767139672
 31
0.0
  0
LINE
  5
463
330
1F
100
AcDbEntity
  8
DIMENSIONS
100
AcDbLine
 10
45.07049795756805
 20
29.41676713967201
 30
0.0
 11
45.07049795756805
 21
19.03420647988574
 31
0.0
  0
LINE
  5
464
330
1F
100
AcDbEntity
  8
DIMENSIONS
100
AcDbLine
 10
45.07049795756805
 20
9.560217248670898
 30
0.0
 11
45.07049795756805
 21
19.03420647988574
 31
0.0
  0
SOLID
  5
465
330
1F
100
AcDbEntity
  8
DIMENSIONS
100
AcDbTrace
 10
45.04049795756805
 20
29.41676713967201
 30
0.0
 11
45.10049795756805
 21
29.41676713967201
 31
0.0
 12
45.07049795756805
 22
29.596767139672
 32
0.0
 13
45.07049795756805
 23
29.596767139672
 33
0.0
  0
SOLID
  5
466
330
1F
100
AcDbEntity
  8
DIMENSIONS
100
AcDbTrace
 10
45.04049795756805
 20
9.560217248670898
 30
0.0
 11
45.10049795756805
 21
9.560217248670898
 31
0.0
 12
45.07049795756805
 22
9.380217248670899
 32
0.0
 13
45.07049795756805
 23
9.380217248670899
 33
0.0
  0
MTEXT
  5
467
330
1F
100
AcDbEntity
  8
DIMENSIONS
100
AcDbMText
 10
44.7536264763623
 20
18.99952449214621
 30
0.0
 40
0.25
 41
0.0
 71
     5
 72
     1
  1
Recommended Mounting Height Off Floor
 11
0.0000000000000001
 21
1.0
 31
0.0
 73
     1
 44
1.0
  0
MTEXT
  5
468
330
1F
100
AcDbEntity
  8
DIMENSIONS
100
AcDbMText
 10
45.36514441518741
 20
18.67875668861208
 30
0.0
 40
0.25
 41
0.0
 71
     5
 72
     1
  1
67" [1700mm]
 11
0.0000000000000001
 21
1.0
 31
0.0
 73
     1
 44
1.0
  0
DIMENSION
  5
469
330
1F
100
AcDbEntity
  8
DIMENSIONS
100
AcDbDimension
  2
*D15
 10
8.121841396515522
 20
12.28676694627136
 30
0.0
 11
8.12184139651552
 21
14.54804778376216
 31
0.0
 70
   160
 71
     5
 42
4.522120653409658
  3
Standard
100
AcDbAlignedDimension
 13
11.90344896587393
 23
16.80888759968101
 33
0.0
 14
10.38234770982535
 24
12.28676694627136
 34
0.0
 50
90.0
100
AcDbRotatedDimension
  0
MTEXT
  5
50C
330
1F
100
AcDbEntity
  8
DIMENSIONS
100
AcDbMText
 10
28.67807486317338
 20
4.865569430758966
 30
0.0
 40
0.5
 41
16.74872195035812
 71
     5
 72
     5
  1
{\fArial|b1|i0|c0|p34;B-359039 SURMTD\PPAPER TOWEL DISPENSER}
 73
     1
 44
1.0
  0
LINE
  5
55A
330
1F
100
AcDbEntity
  8
DIMENSIONS
100
AcDbLine
 10
38.51739150814952
 20
29.596767139672
 30
0.0
 11
48.72535923260493
 21
29.596767139672
 31
0.0
  0
LINE
  5
55C
330
1F
100
AcDbEntity
  8
DIMENSIONS
100
AcDbLine
 10
48.54535923260494
 20
29.416767139672
 30
0.0
 11
48.54535923260494
 21
20.03277790845716
 31
0.0
  0
LINE
  5
55D
330
1F
100
AcDbEntity
  8
DIMENSIONS
100
AcDbLine
 10
48.54535923260493
 20
9.740217248670898
 30
0.0
 11
48.54535923260494
 21
20.03277790845716
 31
0.0
  0
SOLID
  5
55E
330
1F
100
AcDbEntity
  8
DIMENSIONS
100
AcDbTrace
 10
48.51535923260493
 20
29.416767139672
 30
0.0
 11
48.57535923260494
 21
29.416767139672
 31
0.0
 12
48.54535923260494
 22
29.596767139672
 32
0.0
 13
48.54535923260494
 23
29.596767139672
 33
0.0
  0
SOLID
  5
55F
330
1F
100
AcDbEntity
  8
DIMENSIONS
100
AcDbTrace
 10
48.51535923260493
 20
9.740217248670898
 30
0.0
 11
48.57535923260493
 21
9.740217248670898
 31
0.0
 12
48.54535923260493
 22
9.560217248670898
 32
0.0
 13
48.54535923260493
 23
9.560217248670898
 33
0.0
  0
MTEXT
  5
562
330
1F
100
AcDbEntity
  8
DIMENSIONS
100
AcDbMText
 10
48.11245516216785
 20
18.99952449214621
 30
0.0
 40
0.25
 41
0.0
 71
     5
 72
     1
  1
Recommended Mounting Height Off Floor\Pfor Accessible Design
 11
0.0000000000000001
 21
1.0
 31
0.0
 73
     1
 44
1.0
  0
MTEXT
  5
563
330
1F
100
AcDbEntity
  8
DIMENSIONS
100
AcDbMText
 10
48.90322229800136
 20
18.67875668861208
 30
0.0
 40
0.25
 41
0.0
 71
     5
 72
     1
  1
50" [1270mm]
 11
0.0000000000000001
 21
1.0
 31
0.0
 73
     1
 44
1.0
  0
VIEWPORT
  5
512
330
1B
100
AcDbEntity
 67
     1
  8
0
100
AcDbViewport
 10
5.375000360443836
 20
4.12500018209923
 30
0.0
 40
18.9722515753332
 41
8.561151442173649
 68
     1
 69
     1
 12
5.375000360443836
 22
4.12500018209923
 13
0.0
 23
0.0
 14
0.5
 24
0.5
 15
0.5
 25
0.5
 16
0.0
 26
0.0
 36
1.0
 17
0.0
 27
0.0
 37
0.0
 42
50.0
 43
0.0
 44
0.0
 45
8.561151442173649
 50
0.0
 51
0.0
 72
  2000
 90
    32800
  1

281
     0
 71
     1
 74
     0
110
0.0
120
0.0
130
0.0
111
1.0
121
0.0
131
0.0
112
0.0
122
1.0
132
0.0
 79
     0
146
0.0
170
     0
  0
VIEWPORT
  5
514
330
1B
100
AcDbEntity
 67
     1
  8
Border
100
AcDbViewport
 10
5.353420214120859
 20
4.119608698058506
 30
0.0
 40
10.85481415179291
 41
8.346021949170207
 68
     2
 69
     2
 12
27.55893417377957
 22
20.64405486548008
 13
0.0
 23
0.0
 14
0.5
 24
0.5
 15
0.5
 25
0.5
 16
0.0
 26
0.0
 36
1.0
 17
0.0
 27
0.0
 37
0.0
 42
50.0
 43
0.0
 44
0.0
 45
35.61848435377682
 50
0.0
 51
0.0
 72
  2000
 90
    32864
  1

281
     0
 71
     1
 74
     0
110
0.0
120
0.0
130
0.0
111
1.0
121
0.0
131
0.0
112
0.0
122
1.0
132
0.0
 79
     0
146
0.0
170
     0
  0
ENDSEC
  0
SECTION
  2
OBJECTS
  0
DICTIONARY
  5
C
330
0
100
AcDbDictionary
281
     1
  3
ACAD_COLOR
350
2BD
  3
ACAD_GROUP
350
D
  3
ACAD_LAYOUT
350
1A
  3
ACAD_MATERIAL
350
2BC
  3
ACAD_MLINESTYLE
350
17
  3
ACAD_PLOTSETTINGS
350
19
  3
ACAD_PLOTSTYLENAME
350
E
  3
ACAD_SCALELIST
350
47
  0
DICTIONARY
  5
2BD
102
{ACAD_REACTORS
330
C
102
}
330
C
100
AcDbDictionary
281
     1
  0
DICTIONARY
  5
D
102
{ACAD_REACTORS
330
C
102
}
330
C
100
AcDbDictionary
281
     1
  0
DICTIONARY
  5
1A
102
{ACAD_REACTORS
330
C
102
}
330
C
100
AcDbDictionary
281
     1
  3
Layout1
350
1E
  3
Layout2
350
26
  3
Model
350
22
  0
DICTIONARY
  5
2BC
102
{ACAD_REACTORS
330
C
102
}
330
C
100
AcDbDictionary
281
     1
  0
DICTIONARY
  5
17
102
{ACAD_REACTORS
330
C
102
}
330
C
100
AcDbDictionary
281
     1
  3
Standard
350
18
  0
DICTIONARY
  5
19
102
{ACAD_REACTORS
330
C
102
}
330
C
100
AcDbDictionary
281
     1
  0
ACDBDICTIONARYWDFLT
  5
E
102
{ACAD_REACTORS
330
C
102
}
330
C
100
AcDbDictionary
281
     1
  3
Normal
350
F
100
AcDbDictionaryWithDefault
340
F
  0
DICTIONARY
  5
47
102
{ACAD_REACTORS
330
C
102
}
330
C
100
AcDbDictionary
281
     1
  3
A0
350
48
  3
A1
350
49
  3
A2
350
4A
  3
A3
350
4B
  3
A4
350
4C
  3
A5
350
4D
  3
A6
350
4E
  3
A7
350
4F
  3
A8
350
50
  3
A9
350
51
  3
B0
350
52
  3
B1
350
53
  3
B2
350
54
  3
B3
350
55
  3
B4
350
56
  3
B5
350
57
  3
B6
350
58
  3
B7
350
59
  3
B8
350
5A
  3
B9
350
5B
  3
C0
350
5C
  3
C1
350
5D
  3
C2
350
5E
  3
C3
350
5F
  3
C4
350
60
  3
C5
350
61
  3
C6
350
62
  3
C7
350
63
  3
C8
350
64
  3
C9
350
65
  3
D0
350
66
  3
D1
350
67
  3
D2
350
68
  0
LAYOUT
  5
1E
102
{ACAD_REACTORS
330
1A
102
}
330
1A
100
AcDbPlotSettings
  1

  2
Adobe PDF.pc3
  4
User202
  6

 40
3.174999952316284
 41
3.174999952316284
 42
3.175003051757812
 43
3.17498779296875
 44
215.9000091552734
 45
279.3999938964844
 46
0.0
 47
0.0
 48
0.0
 49
0.0
140
0.0
141
0.0
142
1.0
143
1.0
 70
   688
 72
     0
 73
     1
 74
     5
  7
monochrome.ctb
 75
    16
147
1.0
 76
     1
 77
     2
 78
   300
148
0.0
149
0.0
100
AcDbLayout
  1
Layout1
 70
     1
 71
     1
 10
-0.1249995194082185
 20
-0.1249999981226883
 11
10.87500024029589
 21
8.375000362321149
 12
0.0
 22
0.0
 32
0.0
 14
-0.0741419509033143
 24
-0.0539245357822509
 34
-0.0000000000112498
 15
10.78134182057858
 25
8.292900463983933
 35
0.0000000000002956
146
0.0
 13
0.0
 23
0.0
 33
0.0
 16
1.0
 26
0.0
 36
0.0
 17
0.0
 27
1.0
 37
0.0
 76
     0
330
1B
331
512
  0
LAYOUT
  5
26
102
{ACAD_REACTORS
330
1A
102
}
330
1A
100
AcDbPlotSettings
  1

  2
none_device
  4

  6

 40
0.0
 41
0.0
 42
0.0
 43
0.0
 44
0.0
 45
0.0
 46
0.0
 47
0.0
 48
0.0
 49
0.0
140
0.0
141
0.0
142
1.0
143
1.0
 70
   688
 72
     0
 73
     0
 74
     5
  7
monochrome.ctb
 75
    16
147
1.0
 76
     0
 77
     2
 78
   300
148
0.0
149
0.0
100
AcDbLayout
  1
Layout2
 70
     1
 71
     2
 10
0.0
 20
0.0
 11
0.0
 21
0.0
 12
0.0
 22
0.0
 32
0.0
 14
0.0
 24
0.0
 34
0.0
 15
0.0
 25
0.0
 35
0.0
146
0.0
 13
0.0
 23
0.0
 33
0.0
 16
1.0
 26
0.0
 36
0.0
 17
0.0
 27
1.0
 37
0.0
 76
     0
330
23
  0
LAYOUT
  5
22
102
{ACAD_REACTORS
330
1A
102
}
330
1A
100
AcDbPlotSettings
  1

  2
none_device
  4
Letter_(8.50_x_11.00_Inches)
  6

 40
6.349999999999999
 41
6.349999999999999
 42
6.350005079999999
 43
6.350005079999999
 44
215.9
 45
279.4
 46
0.0
 47
0.0
 48
0.0
 49
0.0
140
0.0
141
0.0
142
1.0
143
1.0
 70
  1712
 72
     0
 73
     0
 74
     0
  7

 75
     0
147
1.0
 76
     0
 77
     2
 78
   300
148
0.0
149
0.0
100
AcDbLayout
  1
Model
 70
     1
 71
     0
 10
0.0
 20
0.0
 11
34.0
 21
22.0
 12
0.0
 22
0.0
 32
0.0
 14
0.0
 24
0.0
 34
0.0
 15
34.0
 25
22.0
 35
0.0
146
0.0
 13
0.0
 23
0.0
 33
0.0
 16
1.0
 26
0.0
 36
0.0
 17
0.0
 27
1.0
 37
0.0
 76
     0
330
1F
  0
MLINESTYLE
  5
18
102
{ACAD_REACTORS
330
17
102
}
330
17
100
AcDbMlineStyle
  2
STANDARD
 70
     0
  3

 62
   256
 51
90.0
 52
90.0
 71
     2
 49
0.5
 62
   256
  6
BYLAYER
 49
-0.5
 62
   256
  6
BYLAYER
  0
ACDBPLACEHOLDER
  5
F
102
{ACAD_REACTORS
330
E
102
}
330
E
  0
ACAD_PROXY_OBJECT
  5
48
102
{ACAD_REACTORS
330
47
102
}
330
47
100
AcDbProxyObject
 90
      499
 91
      503
 95
   393239
 70
     0
 93
       41
310
903313A31580
 94
        0
  0
ACAD_PROXY_OBJECT
  5
49
102
{ACAD_REACTORS
330
47
102
}
330
47
100
AcDbProxyObject
 90
      499
 91
      503
 95
   393239
 70
     0
 93
      105
310
903313A324000000000000004013
 94
        0
  0
ACAD_PROXY_OBJECT
  5
4A
102
{ACAD_REACTORS
330
47
102
}
330
47
100
AcDbProxyObject
 90
      499
 91
      503
 95
   393239
 70
     0
 93
      105
310
903313A34400000000000010400C
 94
        0
  0
ACAD_PROXY_OBJECT
  5
4B
102
{ACAD_REACTORS
330
47
102
}
330
47
100
AcDbProxyObject
 90
      499
 91
      503
 95
   393239
 70
     0
 93
      105
310
903313A354000000000000144013
 94
        0
  0
ACAD_PROXY_OBJECT
  5
4C
102
{ACAD_REACTORS
330
47
102
}
330
47
100
AcDbProxyObject
 90
      499
 91
      503
 95
   393239
 70
     0
 93
      105
310
903313A38400000000000020400C
 94
        0
  0
ACAD_PROXY_OBJECT
  5
4D
102
{ACAD_REACTORS
330
47
102
}
330
47
100
AcDbProxyObject
 90
      499
 91
      503
 95
   393239
 70
     0
 93
      113
310
904313A31304000000000000244023
 94
        0
  0
ACAD_PROXY_OBJECT
  5
4E
102
{ACAD_REACTORS
330
47
102
}
330
47
100
AcDbProxyObject
 90
      499
 91
      503
 95
   393239
 70
     0
 93
      113
310
904313A31364000000000000304057
 94
        0
  0
ACAD_PROXY_OBJECT
  5
4F
102
{ACAD_REACTORS
330
47
102
}
330
47
100
AcDbProxyObject
 90
      499
 91
      503
 95
   393239
 70
     0
 93
      113
310
904313A32304000000000000344023
 94
        0
  0
ACAD_PROXY_OBJECT
  5
50
102
{ACAD_REACTORS
330
47
102
}
330
47
100
AcDbProxyObject
 90
      499
 91
      503
 95
   393239
 70
     0
 93
      113
310
904313A333040000000000003E4057
 94
        0
  0
ACAD_PROXY_OBJECT
  5
51
102
{ACAD_REACTORS
330
47
102
}
330
47
100
AcDbProxyObject
 90
      499
 91
      503
 95
   393239
 70
     0
 93
      113
310
904313A34304000000000000444023
 94
        0
  0
ACAD_PROXY_OBJECT
  5
52
102
{ACAD_REACTORS
330
47
102
}
330
47
100
AcDbProxyObject
 90
      499
 91
      503
 95
   393239
 70
     0
 93
      113
310
904313A35304000000000000494057
 94
        0
  0
ACAD_PROXY_OBJECT
  5
53
102
{ACAD_REACTORS
330
47
102
}
330
47
100
AcDbProxyObject
 90
      499
 91
      503
 95
   393239
 70
     0
 93
      121
310
905313A3130304000000000000594015
 94
        0
  0
ACAD_PROXY_OBJECT
  5
54
102
{ACAD_REACTORS
330
47
102
}
330
47
100
AcDbProxyObject
 90
      499
 91
      503
 95
   393239
 70
     0
 93
      105
310
903323A310000000000000010140
 94
        0
  0
ACAD_PROXY_OBJECT
  5
55
102
{ACAD_REACTORS
330
47
102
}
330
47
100
AcDbProxyObject
 90
      499
 91
      503
 95
   393239
 70
     0
 93
      105
310
903343A310000000000000410159
 94
        0
  0
ACAD_PROXY_OBJECT
  5
56
102
{ACAD_REACTORS
330
47
102
}
330
47
100
AcDbProxyObject
 90
      499
 91
      503
 95
   393239
 70
     0
 93
      105
310
903383A310000000000000810140
 94
        0
  0
ACAD_PROXY_OBJECT
  5
57
102
{ACAD_REACTORS
330
47
102
}
330
47
100
AcDbProxyObject
 90
      499
 91
      503
 95
   393239
 70
     0
 93
      113
310
90431303A310000000000000910140
 94
        0
  0
ACAD_PROXY_OBJECT
  5
58
102
{ACAD_REACTORS
330
47
102
}
330
47
100
AcDbProxyObject
 90
      499
 91
      503
 95
   393239
 70
     0
 93
      121
310
9053130303A310000000000001650100
 94
        0
  0
ACAD_PROXY_OBJECT
  5
59
102
{ACAD_REACTORS
330
47
102
}
330
47
100
AcDbProxyObject
 90
      499
 91
      503
 95
   393239
 70
     0
 93
      257
310
90E312F31323822203D2031272D3022000000000000200FC000000000000284000
 94
        0
  0
ACAD_PROXY_OBJECT
  5
5A
102
{ACAD_REACTORS
330
47
102
}
330
47
100
AcDbProxyObject
 90
      499
 91
      503
 95
   393239
 70
     0
 93
      249
310
90D312F363422203D2031272D3022000000000000240FC000000000000284000
 94
        0
  0
ACAD_PROXY_OBJECT
  5
5B
102
{ACAD_REACTORS
330
47
102
}
330
47
100
AcDbProxyObject
 90
      499
 91
      503
 95
   393239
 70
     0
 93
      249
310
90D312F333222203D2031272D3022000000000000280FC000000000000284040
 94
        0
  0
ACAD_PROXY_OBJECT
  5
5C
102
{ACAD_REACTORS
330
47
102
}
330
47
100
AcDbProxyObject
 90
      499
 91
      503
 95
   393239
 70
     0
 93
      249
310
90D312F313622203D2031272D30220000000000002C0FC000000000000284000
 94
        0
  0
ACAD_PROXY_OBJECT
  5
5D
102
{ACAD_REACTORS
330
47
102
}
330
47
100
AcDbProxyObject
 90
      499
 91
      503
 95
   393239
 70
     0
 93
      249
310
90D332F333222203D2031272D30220000000000002E0FC000000000000284040
 94
        0
  0
ACAD_PROXY_OBJECT
  5
5E
102
{ACAD_REACTORS
330
47
102
}
330
47
100
AcDbProxyObject
 90
      499
 91
      503
 95
   393239
 70
     0
 93
      241
310
90C312F3822203D2031272D3022000000000000300FC000000000000284040
 94
        0
  0
ACAD_PROXY_OBJECT
  5
5F
102
{ACAD_REACTORS
330
47
102
}
330
47
100
AcDbProxyObject
 90
      499
 91
      503
 95
   393239
 70
     0
 93
      249
310
90D332F313622203D2031272D3022000000000000320FC000000000000284040
 94
        0
  0
ACAD_PROXY_OBJECT
  5
60
102
{ACAD_REACTORS
330
47
102
}
330
47
100
AcDbProxyObject
 90
      499
 91
      503
 95
   393239
 70
     0
 93
      241
310
90C312F3422203D2031272D3022000000000000340FC000000000000284040
 94
        0
  0
ACAD_PROXY_OBJECT
  5
61
102
{ACAD_REACTORS
330
47
102
}
330
47
100
AcDbProxyObject
 90
      499
 91
      503
 95
   393239
 70
     0
 93
      241
310
90C332F3822203D2031272D3022000000000000360FC000000000000284040
 94
        0
  0
ACAD_PROXY_OBJECT
  5
62
102
{ACAD_REACTORS
330
47
102
}
330
47
100
AcDbProxyObject
 90
      499
 91
      503
 95
   393239
 70
     0
 93
      241
310
90C312F3222203D2031272D3022000000000000380FC000000000000284040
 94
        0
  0
ACAD_PROXY_OBJECT
  5
63
102
{ACAD_REACTORS
330
47
102
}
330
47
100
AcDbProxyObject
 90
      499
 91
      503
 95
   393239
 70
     0
 93
      241
310
90C332F3422203D2031272D30220000000000003A0FC000000000000284040
 94
        0
  0
ACAD_PROXY_OBJECT
  5
64
102
{ACAD_REACTORS
330
47
102
}
330
47
100
AcDbProxyObject
 90
      499
 91
      503
 95
   393239
 70
     0
 93
      161
310
90A3122203D2031272D30224000000000000284000
 94
        0
  0
ACAD_PROXY_OBJECT
  5
65
102
{ACAD_REACTORS
330
47
102
}
330
47
100
AcDbProxyObject
 90
      499
 91
      503
 95
   393239
 70
     0
 93
      257
310
90E312D312F3222203D2031272D30220000000000003E0FC000000000000284000
 94
        0
  0
ACAD_PROXY_OBJECT
  5
66
102
{ACAD_REACTORS
330
47
102
}
330
47
100
AcDbProxyObject
 90
      499
 91
      503
 95
   393239
 70
     0
 93
      225
310
90A3322203D2031272D302200000000000002100000000000000284028
 94
        0
  0
ACAD_PROXY_OBJECT
  5
67
102
{ACAD_REACTORS
330
47
102
}
330
47
100
AcDbProxyObject
 90
      499
 91
      503
 95
   393239
 70
     0
 93
      225
310
90A3622203D2031272D302200000000000006100000000000000284000
 94
        0
  0
ACAD_PROXY_OBJECT
  5
68
102
{ACAD_REACTORS
330
47
102
}
330
47
100
AcDbProxyObject
 90
      499
 91
      503
 95
   393239
 70
     0
 93
      249
310
90D31272D3022203D2031272D30220000000000000A100000000000000284000
 94
        0
  0
ENDSEC
  0
EOF
